osu file format v14

[General]
AudioFilename: audio.mp3
AudioLeadIn: 0
PreviewTime: 55432
Countdown: 0
SampleSet: Normal
StackLeniency: 0.7
Mode: 1
LetterboxInBreaks: 0
WidescreenStoryboard: 0

[Editor]
Bookmarks: 15011,35379,88274,225958
DistanceSpacing: 4.4
BeatDivisor: 4
GridSize: 16
TimelineZoom: 0.8

[Metadata]
Title:Tokoyami no keiyaku KEGARETA-SHOUJO feat. GUMI
TitleUnicode:常闇の契約 ケガレタショウジョ feat. GUMI
Artist:Trial & Error
ArtistUnicode:Trial & Error
Creator:Nardoxyribonucleic
Version:Inner Oni
Source:osu!
Tags:Taiko Featured Artist FA Vocaloid Megpoid qoot8123 Nwolf
BeatmapID:1772278
BeatmapSetID:847433

[Difficulty]
HPDrainRate:6
CircleSize:5
OverallDifficulty:6
ApproachRate:5
SliderMultiplier:1.4
SliderTickRate:1

[Events]
//Background and Video events
0,0,"bg.jpg",0,0
//Break Periods
//Storyboard Layer 0 (Background)
//Storyboard Layer 1 (Fail)
//Storyboard Layer 2 (Pass)
//Storyboard Layer 3 (Foreground)
//Storyboard Sound Samples

[TimingPoints]
3801,315.789473684211,4,1,0,85,1,0
25274,-111.111111111111,4,1,0,70,0,0
44853,-109.89010989011,4,1,0,70,0,0
45011,-108.695652173913,4,1,0,70,0,0
45169,-107.52688172043,4,1,0,70,0,0
45327,-106.382978723404,4,1,0,70,0,0
45485,-105.263157894737,4,1,0,80,0,0
54327,-100,4,1,0,80,0,0
55432,-100,4,1,0,95,0,1
75643,-100,4,1,0,90,0,0
78169,-100,4,1,0,85,0,0
98537,-111.111111111111,4,1,0,75,0,0
107932,-109.89010989011,4,1,0,75,0,0
108011,-108.695652173913,4,1,0,75,0,0
108169,-106.382978723404,4,1,0,75,0,0
108248,-105.263157894737,4,1,0,75,0,0
108327,-104.166666666667,4,1,0,75,0,0
108485,-102.040816326531,4,1,0,75,0,0
108643,-100,4,1,0,80,0,0
118748,-100,4,1,0,85,0,0
128695,-100,4,1,0,95,0,1
148906,-100,4,1,0,100,0,0
175432,-100,4,1,0,95,0,1
215853,-100,4,1,0,85,0,0
236222,-100,4,1,0,75,0,0
237564,-100,4,1,0,65,0,0
238906,-100,4,1,0,55,0,0
240248,-100,4,1,0,45,0,0
241590,-100,4,1,0,35,0,0

[HitObjects]
256,192,3801,5,8,0:0:0:0:
256,192,3958,1,0,0:0:0:0:
256,192,4037,1,0,0:0:0:0:
256,192,4116,1,0,0:0:0:0:
256,192,4274,1,8,0:0:0:0:
256,192,4353,1,8,0:0:0:0:
256,192,4432,1,0,0:0:0:0:
256,192,4590,1,8,0:0:0:0:
256,192,4748,1,0,0:0:0:0:
256,192,4906,1,4,0:0:0:0:
256,192,5222,1,0,0:0:0:0:
256,192,5379,1,8,0:0:0:0:
256,192,5537,1,0,0:0:0:0:
256,192,5695,1,8,0:0:0:0:
256,192,5853,1,8,0:0:0:0:
256,192,5932,1,0,0:0:0:0:
256,192,6011,1,8,0:0:0:0:
256,192,6169,1,0,0:0:0:0:
256,192,6485,1,0,0:0:0:0:
256,192,6643,1,8,0:0:0:0:
256,192,6801,1,0,0:0:0:0:
256,192,6879,1,8,0:0:0:0:
256,192,6958,1,0,0:0:0:0:
256,192,7116,1,8,0:0:0:0:
256,192,7274,1,8,0:0:0:0:
256,192,7432,1,0,0:0:0:0:
256,192,7748,1,0,0:0:0:0:
256,192,7906,1,8,0:0:0:0:
256,192,8064,1,0,0:0:0:0:
256,192,8222,1,8,0:0:0:0:
256,192,8301,1,0,0:0:0:0:
256,192,8379,1,0,0:0:0:0:
256,192,8537,1,8,0:0:0:0:
256,192,8695,1,0,0:0:0:0:
256,192,8774,1,0,0:0:0:0:
256,192,8853,1,0,0:0:0:0:
256,192,9011,1,0,0:0:0:0:
256,192,9090,1,0,0:0:0:0:
256,192,9169,1,8,0:0:0:0:
256,192,9248,1,8,0:0:0:0:
256,192,9327,1,0,0:0:0:0:
256,192,9485,1,0,0:0:0:0:
256,192,9643,1,0,0:0:0:0:
256,192,9722,1,0,0:0:0:0:
256,192,9801,1,8,0:0:0:0:
256,192,9958,1,0,0:0:0:0:
256,192,10274,1,0,0:0:0:0:
256,192,10432,1,8,0:0:0:0:
256,192,10590,1,0,0:0:0:0:
256,192,10748,1,8,0:0:0:0:
256,192,10906,1,8,0:0:0:0:
256,192,10985,1,8,0:0:0:0:
256,192,11064,1,0,0:0:0:0:
256,192,11222,1,8,0:0:0:0:
256,192,11537,1,0,0:0:0:0:
256,192,11695,1,8,0:0:0:0:
256,192,11853,1,0,0:0:0:0:
256,192,11932,1,0,0:0:0:0:
256,192,12011,1,0,0:0:0:0:
256,192,12169,1,8,0:0:0:0:
256,192,12327,1,0,0:0:0:0:
256,192,12485,1,12,0:0:0:0:
256,192,12801,1,0,0:0:0:0:
256,192,12958,1,8,0:0:0:0:
256,192,13116,1,0,0:0:0:0:
256,192,13195,1,8,0:0:0:0:
256,192,13274,1,0,0:0:0:0:
256,192,13432,1,8,0:0:0:0:
256,192,13511,1,0,0:0:0:0:
256,192,13590,1,8,0:0:0:0:
256,192,13748,1,0,0:0:0:0:
256,192,13906,1,8,0:0:0:0:
256,192,13985,1,8,0:0:0:0:
256,192,14064,1,0,0:0:0:0:
256,192,14143,1,0,0:0:0:0:
256,192,14222,1,8,0:0:0:0:
256,192,14379,1,0,0:0:0:0:
256,192,14537,1,8,0:0:0:0:
256,192,14695,1,8,0:0:0:0:
256,192,15011,1,4,0:0:0:0:
256,192,15327,1,0,0:0:0:0:
256,192,15485,1,8,0:0:0:0:
256,192,15643,1,0,0:0:0:0:
256,192,15722,1,0,0:0:0:0:
256,192,15801,1,8,0:0:0:0:
256,192,15958,1,8,0:0:0:0:
256,192,16116,1,8,0:0:0:0:
256,192,16274,1,0,0:0:0:0:
256,192,16590,1,0,0:0:0:0:
256,192,16748,1,8,0:0:0:0:
256,192,16906,1,0,0:0:0:0:
256,192,17064,1,8,0:0:0:0:
256,192,17143,1,8,0:0:0:0:
256,192,17222,1,0,0:0:0:0:
256,192,17379,1,8,0:0:0:0:
256,192,17537,1,0,0:0:0:0:
256,192,17853,1,0,0:0:0:0:
256,192,18011,1,8,0:0:0:0:
256,192,18169,1,0,0:0:0:0:
256,192,18327,1,8,0:0:0:0:
256,192,18406,1,0,0:0:0:0:
256,192,18485,1,0,0:0:0:0:
256,192,18643,1,8,0:0:0:0:
256,192,18801,1,0,0:0:0:0:
256,192,18879,1,0,0:0:0:0:
256,192,18958,1,0,0:0:0:0:
256,192,19116,1,0,0:0:0:0:
256,192,19274,1,8,0:0:0:0:
256,192,19353,1,8,0:0:0:0:
256,192,19432,1,0,0:0:0:0:
256,192,19590,1,0,0:0:0:0:
256,192,19669,1,0,0:0:0:0:
256,192,19748,1,0,0:0:0:0:
256,192,19827,1,0,0:0:0:0:
256,192,19906,1,8,0:0:0:0:
256,192,20064,1,0,0:0:0:0:
256,192,20379,1,0,0:0:0:0:
256,192,20537,1,8,0:0:0:0:
256,192,20695,1,0,0:0:0:0:
256,192,20853,1,8,0:0:0:0:
256,192,21011,1,8,0:0:0:0:
256,192,21090,1,8,0:0:0:0:
256,192,21169,1,0,0:0:0:0:
256,192,21327,1,8,0:0:0:0:
256,192,21643,1,0,0:0:0:0:
256,192,21801,1,8,0:0:0:0:
256,192,21958,1,0,0:0:0:0:
256,192,22037,1,0,0:0:0:0:
256,192,22116,1,0,0:0:0:0:
256,192,22274,1,8,0:0:0:0:
256,192,22432,1,0,0:0:0:0:
256,192,22590,1,12,0:0:0:0:
256,192,22906,1,0,0:0:0:0:
256,192,23064,1,8,0:0:0:0:
256,192,23222,1,0,0:0:0:0:
256,192,23301,1,8,0:0:0:0:
256,192,23379,1,0,0:0:0:0:
256,192,23537,1,8,0:0:0:0:
256,192,23616,1,0,0:0:0:0:
256,192,23695,1,8,0:0:0:0:
256,192,23853,1,0,0:0:0:0:
256,192,24011,1,8,0:0:0:0:
256,192,24090,1,8,0:0:0:0:
256,192,24169,1,0,0:0:0:0:
256,192,24248,1,0,0:0:0:0:
256,192,24327,1,8,0:0:0:0:
256,192,24406,1,8,0:0:0:0:
256,192,24485,1,0,0:0:0:0:
256,192,24643,1,8,0:0:0:0:
256,192,24801,1,8,0:0:0:0:
256,192,25274,1,0,0:0:0:0:
256,192,25590,1,8,0:0:0:0:
256,192,25906,1,0,0:0:0:0:
256,192,26064,1,8,0:0:0:0:
256,192,26379,1,0,0:0:0:0:
256,192,26537,1,0,0:0:0:0:
256,192,26853,1,8,0:0:0:0:
256,192,27011,1,8,0:0:0:0:
256,192,27327,1,0,0:0:0:0:
256,192,27485,1,0,0:0:0:0:
256,192,27643,1,8,0:0:0:0:
256,192,27801,1,0,0:0:0:0:
256,192,28116,1,8,0:0:0:0:
256,192,28432,1,0,0:0:0:0:
256,192,28590,1,8,0:0:0:0:
256,192,28906,1,8,0:0:0:0:
256,192,29064,1,8,0:0:0:0:
256,192,29379,1,8,0:0:0:0:
256,192,29537,1,0,0:0:0:0:
256,192,29695,1,8,0:0:0:0:
256,192,30011,1,0,0:0:0:0:
256,192,30327,1,8,0:0:0:0:
256,192,30643,1,0,0:0:0:0:
256,192,30801,1,0,0:0:0:0:
256,192,31116,1,8,0:0:0:0:
256,192,31432,1,8,0:0:0:0:
256,192,31590,1,0,0:0:0:0:
256,192,31906,1,8,0:0:0:0:
256,192,32222,1,0,0:0:0:0:
256,192,32379,1,0,0:0:0:0:
256,192,32537,1,0,0:0:0:0:
256,192,32853,1,8,0:0:0:0:
256,192,33485,1,8,0:0:0:0:
256,192,33801,1,0,0:0:0:0:
256,192,33958,1,0,0:0:0:0:
256,192,34116,1,8,0:0:0:0:
256,192,34432,1,0,0:0:0:0:
256,192,34748,1,8,0:0:0:0:
256,192,34906,1,8,0:0:0:0:
256,192,35064,1,8,0:0:0:0:
256,192,35222,1,8,0:0:0:0:
256,192,35379,1,0,0:0:0:0:
256,192,35695,1,8,0:0:0:0:
256,192,36011,1,0,0:0:0:0:
256,192,36169,1,8,0:0:0:0:
256,192,36485,1,0,0:0:0:0:
256,192,36643,1,0,0:0:0:0:
256,192,36958,1,8,0:0:0:0:
256,192,37116,1,8,0:0:0:0:
256,192,37432,1,0,0:0:0:0:
256,192,37590,1,0,0:0:0:0:
256,192,37748,1,8,0:0:0:0:
256,192,37906,1,0,0:0:0:0:
256,192,38222,1,8,0:0:0:0:
256,192,38537,1,0,0:0:0:0:
256,192,38695,1,8,0:0:0:0:
256,192,39011,1,8,0:0:0:0:
256,192,39169,1,8,0:0:0:0:
256,192,39485,1,8,0:0:0:0:
256,192,39643,1,0,0:0:0:0:
256,192,39801,1,8,0:0:0:0:
256,192,40116,1,0,0:0:0:0:
256,192,40432,1,8,0:0:0:0:
256,192,40748,1,0,0:0:0:0:
256,192,40906,1,0,0:0:0:0:
256,192,41222,1,8,0:0:0:0:
256,192,41537,1,8,0:0:0:0:
256,192,41695,1,0,0:0:0:0:
256,192,42011,1,8,0:0:0:0:
256,192,42327,1,0,0:0:0:0:
256,192,42485,1,0,0:0:0:0:
256,192,42643,1,0,0:0:0:0:
256,192,42958,1,8,0:0:0:0:
256,192,43590,1,0,0:0:0:0:
256,192,43906,1,8,0:0:0:0:
256,192,44064,1,8,0:0:0:0:
256,192,44222,1,0,0:0:0:0:
256,192,44537,1,8,0:0:0:0:
256,192,44853,1,8,0:0:0:0:
256,192,45011,1,8,0:0:0:0:
256,192,45169,1,8,0:0:0:0:
256,192,45327,1,8,0:0:0:0:
256,192,45485,1,0,0:0:0:0:
256,192,45801,1,8,0:0:0:0:
256,192,46116,1,0,0:0:0:0:
256,192,46274,1,8,0:0:0:0:
256,192,46432,1,0,0:0:0:0:
256,192,46748,1,8,0:0:0:0:
256,192,46906,1,0,0:0:0:0:
256,192,46985,1,0,0:0:0:0:
256,192,47064,1,0,0:0:0:0:
256,192,47222,1,8,0:0:0:0:
256,192,47379,1,0,0:0:0:0:
256,192,47537,1,8,0:0:0:0:
256,192,47695,1,0,0:0:0:0:
256,192,48011,1,0,0:0:0:0:
256,192,48327,1,8,0:0:0:0:
256,192,48643,1,0,0:0:0:0:
256,192,48801,1,8,0:0:0:0:
256,192,48958,1,0,0:0:0:0:
256,192,49274,1,8,0:0:0:0:
256,192,49432,1,0,0:0:0:0:
256,192,49590,1,0,0:0:0:0:
256,192,49748,1,8,0:0:0:0:
256,192,49827,1,8,0:0:0:0:
256,192,49906,1,8,0:0:0:0:
256,192,50064,1,8,0:0:0:0:
256,192,50222,1,0,0:0:0:0:
256,192,50537,1,0,0:0:0:0:
256,192,50853,1,8,0:0:0:0:
256,192,51169,1,0,0:0:0:0:
256,192,51327,1,8,0:0:0:0:
256,192,51485,1,0,0:0:0:0:
256,192,51801,1,8,0:0:0:0:
256,192,51958,1,0,0:0:0:0:
256,192,52037,1,0,0:0:0:0:
256,192,52116,1,0,0:0:0:0:
256,192,52274,1,8,0:0:0:0:
256,192,52432,1,0,0:0:0:0:
256,192,52590,1,8,0:0:0:0:
256,192,52748,1,0,0:0:0:0:
256,192,53064,1,8,0:0:0:0:
256,192,54327,1,12,0:0:0:0:
256,192,54643,1,0,0:0:0:0:
256,192,54801,1,8,0:0:0:0:
256,192,55116,1,8,0:0:0:0:
256,192,55432,1,4,0:0:0:0:
256,192,55748,1,0,0:0:0:0:
256,192,55906,1,8,0:0:0:0:
256,192,56064,1,0,0:0:0:0:
256,192,56143,1,0,0:0:0:0:
256,192,56222,1,0,0:0:0:0:
256,192,56379,1,8,0:0:0:0:
256,192,56537,1,8,0:0:0:0:
256,192,56695,1,0,0:0:0:0:
256,192,56774,1,0,0:0:0:0:
256,192,56853,1,8,0:0:0:0:
256,192,57011,1,0,0:0:0:0:
256,192,57169,1,8,0:0:0:0:
256,192,57327,1,8,0:0:0:0:
256,192,57406,1,8,0:0:0:0:
256,192,57485,1,0,0:0:0:0:
256,192,57564,1,0,0:0:0:0:
256,192,57643,1,8,0:0:0:0:
256,192,57801,1,8,0:0:0:0:
256,192,57958,1,0,0:0:0:0:
256,192,58274,1,0,0:0:0:0:
256,192,58432,1,8,0:0:0:0:
256,192,58590,1,8,0:0:0:0:
256,192,58669,1,8,0:0:0:0:
256,192,58748,1,0,0:0:0:0:
256,192,58906,1,0,0:0:0:0:
256,192,59064,1,8,0:0:0:0:
256,192,59222,1,0,0:0:0:0:
256,192,59301,1,0,0:0:0:0:
256,192,59379,1,8,0:0:0:0:
256,192,59458,1,8,0:0:0:0:
256,192,59537,1,0,0:0:0:0:
256,192,59695,1,8,0:0:0:0:
256,192,59853,1,0,0:0:0:0:
256,192,60011,1,8,0:0:0:0:
256,192,60090,1,0,0:0:0:0:
256,192,60169,1,8,0:0:0:0:
256,192,60248,1,8,0:0:0:0:
256,192,60327,1,0,0:0:0:0:
256,192,60485,1,4,0:0:0:0:
256,192,60801,1,0,0:0:0:0:
256,192,60958,1,8,0:0:0:0:
256,192,61116,1,0,0:0:0:0:
256,192,61195,1,0,0:0:0:0:
256,192,61274,1,0,0:0:0:0:
256,192,61432,1,8,0:0:0:0:
256,192,61590,1,8,0:0:0:0:
256,192,61669,1,8,0:0:0:0:
256,192,61748,1,0,0:0:0:0:
256,192,61906,1,8,0:0:0:0:
256,192,62064,1,0,0:0:0:0:
256,192,62143,1,0,0:0:0:0:
256,192,62222,1,8,0:0:0:0:
256,192,62379,1,0,0:0:0:0:
256,192,62458,1,8,0:0:0:0:
256,192,62537,1,0,0:0:0:0:
256,192,62616,1,0,0:0:0:0:
256,192,62695,1,8,0:0:0:0:
256,192,62853,1,8,0:0:0:0:
256,192,63011,1,0,0:0:0:0:
256,192,63327,1,0,0:0:0:0:
256,192,63485,1,8,0:0:0:0:
256,192,63643,1,0,0:0:0:0:
256,192,63722,1,8,0:0:0:0:
256,192,63801,1,0,0:0:0:0:
256,192,63958,1,8,0:0:0:0:
256,192,64037,1,0,0:0:0:0:
256,192,64116,1,8,0:0:0:0:
256,192,64274,1,8,0:0:0:0:
256,192,64432,1,0,0:0:0:0:
256,192,64511,1,8,0:0:0:0:
256,192,64590,1,8,0:0:0:0:
256,192,64748,1,8,0:0:0:0:
256,192,64906,1,0,0:0:0:0:
256,192,65064,1,8,0:0:0:0:
256,192,65143,1,8,0:0:0:0:
256,192,65222,1,0,0:0:0:0:
256,192,65301,1,0,0:0:0:0:
256,192,65379,1,8,0:0:0:0:
256,192,65537,1,4,0:0:0:0:
256,192,65853,1,0,0:0:0:0:
256,192,66011,1,8,0:0:0:0:
256,192,66169,1,8,0:0:0:0:
256,192,66248,1,8,0:0:0:0:
256,192,66327,1,0,0:0:0:0:
256,192,66485,1,0,0:0:0:0:
256,192,66643,1,8,0:0:0:0:
256,192,66801,1,0,0:0:0:0:
256,192,66879,1,0,0:0:0:0:
256,192,66958,1,8,0:0:0:0:
256,192,67037,1,8,0:0:0:0:
256,192,67116,1,0,0:0:0:0:
256,192,67274,1,8,0:0:0:0:
256,192,67432,1,0,0:0:0:0:
256,192,67511,1,0,0:0:0:0:
256,192,67590,1,8,0:0:0:0:
256,192,67748,1,0,0:0:0:0:
256,192,67906,1,8,0:0:0:0:
256,192,68064,1,8,0:0:0:0:
256,192,68379,1,0,0:0:0:0:
256,192,68537,1,8,0:0:0:0:
256,192,68695,1,0,0:0:0:0:
256,192,68774,1,8,0:0:0:0:
256,192,68853,1,0,0:0:0:0:
256,192,69011,1,0,0:0:0:0:
256,192,69169,1,8,0:0:0:0:
256,192,69327,1,0,0:0:0:0:
256,192,69485,1,8,0:0:0:0:
256,192,69564,1,8,0:0:0:0:
256,192,69643,1,0,0:0:0:0:
256,192,69722,1,8,0:0:0:0:
256,192,69801,1,8,0:0:0:0:
256,192,69958,1,0,0:0:0:0:
256,192,70116,1,8,0:0:0:0:
256,192,70195,1,8,0:0:0:0:
256,192,70274,1,0,0:0:0:0:
256,192,70432,1,8,0:0:0:0:
256,192,70590,1,4,0:0:0:0:
256,192,70906,1,0,0:0:0:0:
256,192,71064,1,8,0:0:0:0:
256,192,71222,1,8,0:0:0:0:
256,192,71301,1,8,0:0:0:0:
256,192,71379,1,0,0:0:0:0:
256,192,71537,1,0,0:0:0:0:
256,192,71616,1,0,0:0:0:0:
256,192,71695,1,8,0:0:0:0:
256,192,71853,1,12,0:0:0:0:
256,192,72169,1,8,0:0:0:0:
256,192,72248,1,0,0:0:0:0:
256,192,72327,1,8,0:0:0:0:
256,192,72485,1,8,0:0:0:0:
256,192,72643,1,0,0:0:0:0:
256,192,72801,1,0,0:0:0:0:
256,192,72879,1,0,0:0:0:0:
256,192,72958,1,8,0:0:0:0:
256,192,73037,1,8,0:0:0:0:
256,192,73116,1,0,0:0:0:0:
256,192,73274,1,4,0:0:0:0:
256,192,73432,1,0,0:0:0:0:
256,192,73511,1,0,0:0:0:0:
256,192,73590,1,8,0:0:0:0:
256,192,73748,1,0,0:0:0:0:
256,192,73906,1,8,0:0:0:0:
256,192,73985,1,8,0:0:0:0:
256,192,74064,1,0,0:0:0:0:
256,192,74143,1,0,0:0:0:0:
256,192,74222,1,8,0:0:0:0:
256,192,74379,1,4,0:0:0:0:
256,192,75169,1,8,0:0:0:0:
256,192,75327,1,8,0:0:0:0:
256,192,75485,1,8,0:0:0:0:
256,192,75643,1,4,0:0:0:0:
256,192,75958,1,0,0:0:0:0:
256,192,76116,1,8,0:0:0:0:
256,192,76274,1,0,0:0:0:0:
256,192,76353,1,8,0:0:0:0:
256,192,76432,1,0,0:0:0:0:
256,192,76590,1,0,0:0:0:0:
256,192,76748,1,8,0:0:0:0:
256,192,76906,1,0,0:0:0:0:
256,192,76985,1,0,0:0:0:0:
256,192,77064,1,0,0:0:0:0:
256,192,77222,1,8,0:0:0:0:
256,192,77301,1,8,0:0:0:0:
256,192,77379,1,8,0:0:0:0:
256,192,77537,1,0,0:0:0:0:
256,192,77695,1,8,0:0:0:0:
256,192,77774,1,8,0:0:0:0:
256,192,77853,1,0,0:0:0:0:
256,192,77932,1,0,0:0:0:0:
256,192,78011,1,8,0:0:0:0:
256,192,78169,1,4,0:0:0:0:
256,192,78485,1,0,0:0:0:0:
256,192,78643,1,8,0:0:0:0:
256,192,78801,1,0,0:0:0:0:
256,192,78958,1,8,0:0:0:0:
256,192,79116,1,8,0:0:0:0:
256,192,79195,1,0,0:0:0:0:
256,192,79274,1,8,0:0:0:0:
256,192,79432,1,0,0:0:0:0:
256,192,79511,1,0,0:0:0:0:
256,192,79590,1,8,0:0:0:0:
256,192,79748,1,0,0:0:0:0:
256,192,79906,1,8,0:0:0:0:
256,192,80064,1,0,0:0:0:0:
256,192,80143,1,8,0:0:0:0:
256,192,80222,1,0,0:0:0:0:
256,192,80379,1,8,0:0:0:0:
256,192,80537,1,8,0:0:0:0:
256,192,80695,1,0,0:0:0:0:
256,192,81011,1,0,0:0:0:0:
256,192,81169,1,8,0:0:0:0:
256,192,81327,1,0,0:0:0:0:
256,192,81485,1,8,0:0:0:0:
256,192,81564,1,0,0:0:0:0:
256,192,81643,1,0,0:0:0:0:
256,192,81801,1,8,0:0:0:0:
256,192,81958,1,0,0:0:0:0:
256,192,82037,1,0,0:0:0:0:
256,192,82116,1,0,0:0:0:0:
256,192,82274,1,0,0:0:0:0:
256,192,82353,1,0,0:0:0:0:
256,192,82432,1,8,0:0:0:0:
256,192,82511,1,8,0:0:0:0:
256,192,82590,1,0,0:0:0:0:
256,192,82748,1,0,0:0:0:0:
256,192,82906,1,0,0:0:0:0:
256,192,82985,1,0,0:0:0:0:
256,192,83064,1,8,0:0:0:0:
256,192,83222,1,0,0:0:0:0:
256,192,83537,1,0,0:0:0:0:
256,192,83695,1,8,0:0:0:0:
256,192,83853,1,0,0:0:0:0:
256,192,84011,1,8,0:0:0:0:
256,192,84169,1,8,0:0:0:0:
256,192,84248,1,8,0:0:0:0:
256,192,84327,1,0,0:0:0:0:
256,192,84485,1,8,0:0:0:0:
256,192,84564,1,8,0:0:0:0:
256,192,84643,1,8,0:0:0:0:
256,192,84801,1,0,0:0:0:0:
256,192,84958,1,8,0:0:0:0:
256,192,85116,1,0,0:0:0:0:
256,192,85195,1,0,0:0:0:0:
256,192,85274,1,0,0:0:0:0:
256,192,85432,1,8,0:0:0:0:
256,192,85590,1,0,0:0:0:0:
256,192,85748,1,12,0:0:0:0:
256,192,86064,1,0,0:0:0:0:
256,192,86222,1,8,0:0:0:0:
256,192,86379,1,0,0:0:0:0:
256,192,86458,1,8,0:0:0:0:
256,192,86537,1,0,0:0:0:0:
256,192,86695,1,8,0:0:0:0:
256,192,86774,1,0,0:0:0:0:
256,192,86853,1,8,0:0:0:0:
256,192,87011,1,0,0:0:0:0:
256,192,87169,1,8,0:0:0:0:
256,192,87248,1,8,0:0:0:0:
256,192,87327,1,0,0:0:0:0:
256,192,87406,1,0,0:0:0:0:
256,192,87485,1,8,0:0:0:0:
256,192,87643,1,0,0:0:0:0:
256,192,87801,1,8,0:0:0:0:
256,192,87958,1,8,0:0:0:0:
256,192,88274,1,4,0:0:0:0:
256,192,88590,1,0,0:0:0:0:
256,192,88748,1,8,0:0:0:0:
256,192,88906,1,0,0:0:0:0:
256,192,88985,1,0,0:0:0:0:
256,192,89064,1,8,0:0:0:0:
256,192,89222,1,8,0:0:0:0:
256,192,89379,1,8,0:0:0:0:
256,192,89537,1,0,0:0:0:0:
256,192,89616,1,8,0:0:0:0:
256,192,89695,1,0,0:0:0:0:
256,192,89853,1,0,0:0:0:0:
256,192,90011,1,8,0:0:0:0:
256,192,90169,1,0,0:0:0:0:
256,192,90327,1,8,0:0:0:0:
256,192,90406,1,8,0:0:0:0:
256,192,90485,1,0,0:0:0:0:
256,192,90643,1,8,0:0:0:0:
256,192,90801,1,0,0:0:0:0:
256,192,91116,1,0,0:0:0:0:
256,192,91274,1,8,0:0:0:0:
256,192,91432,1,0,0:0:0:0:
256,192,91590,1,8,0:0:0:0:
256,192,91669,1,0,0:0:0:0:
256,192,91748,1,0,0:0:0:0:
256,192,91906,1,8,0:0:0:0:
256,192,92064,1,0,0:0:0:0:
256,192,92143,1,0,0:0:0:0:
256,192,92222,1,0,0:0:0:0:
256,192,92379,1,0,0:0:0:0:
256,192,92537,1,8,0:0:0:0:
256,192,92616,1,8,0:0:0:0:
256,192,92695,1,0,0:0:0:0:
256,192,92853,1,0,0:0:0:0:
256,192,92932,1,0,0:0:0:0:
256,192,93011,1,0,0:0:0:0:
256,192,93090,1,0,0:0:0:0:
256,192,93169,1,8,0:0:0:0:
256,192,93327,1,0,0:0:0:0:
256,192,93643,1,0,0:0:0:0:
256,192,93801,1,8,0:0:0:0:
256,192,93958,1,0,0:0:0:0:
256,192,94116,1,8,0:0:0:0:
256,192,94274,1,8,0:0:0:0:
256,192,94353,1,8,0:0:0:0:
256,192,94432,1,0,0:0:0:0:
256,192,94590,1,8,0:0:0:0:
256,192,94669,1,8,0:0:0:0:
256,192,94748,1,8,0:0:0:0:
256,192,94906,1,0,0:0:0:0:
256,192,95064,1,8,0:0:0:0:
256,192,95222,1,0,0:0:0:0:
256,192,95301,1,0,0:0:0:0:
256,192,95379,1,0,0:0:0:0:
256,192,95537,1,8,0:0:0:0:
256,192,95695,1,0,0:0:0:0:
256,192,95853,1,12,0:0:0:0:
256,192,96169,1,0,0:0:0:0:
256,192,96327,1,8,0:0:0:0:
256,192,96485,1,0,0:0:0:0:
256,192,96564,1,8,0:0:0:0:
256,192,96643,1,0,0:0:0:0:
256,192,96801,1,8,0:0:0:0:
256,192,96879,1,0,0:0:0:0:
256,192,96958,1,8,0:0:0:0:
256,192,97116,1,0,0:0:0:0:
256,192,97274,1,8,0:0:0:0:
256,192,97353,1,8,0:0:0:0:
256,192,97432,1,0,0:0:0:0:
256,192,97511,1,0,0:0:0:0:
256,192,97590,1,8,0:0:0:0:
256,192,97669,1,8,0:0:0:0:
256,192,97748,1,0,0:0:0:0:
256,192,97906,1,8,0:0:0:0:
256,192,98064,1,8,0:0:0:0:
256,192,98537,1,0,0:0:0:0:
256,192,98853,1,0,0:0:0:0:
256,192,99169,1,8,0:0:0:0:
256,192,99327,1,8,0:0:0:0:
256,192,99643,1,0,0:0:0:0:
256,192,99801,1,0,0:0:0:0:
256,192,99958,1,8,0:0:0:0:
256,192,100116,1,0,0:0:0:0:
256,192,100432,1,8,0:0:0:0:
256,192,100590,1,0,0:0:0:0:
256,192,100748,1,0,0:0:0:0:
256,192,100906,1,8,0:0:0:0:
256,192,101064,1,0,0:0:0:0:
256,192,101379,1,8,0:0:0:0:
256,192,101695,1,8,0:0:0:0:
256,192,101853,1,8,0:0:0:0:
256,192,102169,1,0,0:0:0:0:
256,192,102327,1,0,0:0:0:0:
256,192,102485,1,8,0:0:0:0:
256,192,102643,1,0,0:0:0:0:
256,192,102958,1,8,0:0:0:0:
256,192,103274,1,0,0:0:0:0:
256,192,103432,1,0,0:0:0:0:
256,192,103590,1,8,0:0:0:0:
256,192,103906,1,0,0:0:0:0:
256,192,104222,1,8,0:0:0:0:
256,192,104379,1,0,0:0:0:0:
256,192,104695,1,0,0:0:0:0:
256,192,104853,1,0,0:0:0:0:
256,192,105011,1,8,0:0:0:0:
256,192,105169,1,0,0:0:0:0:
256,192,105485,1,8,0:0:0:0:
256,192,105643,1,0,0:0:0:0:
256,192,105801,1,8,0:0:0:0:
256,192,105958,1,8,0:0:0:0:
256,192,106116,1,0,0:0:0:0:
256,192,106432,1,0,0:0:0:0:
256,192,106748,1,8,0:0:0:0:
256,192,106906,1,8,0:0:0:0:
256,192,107222,1,0,0:0:0:0:
256,192,107379,1,8,0:0:0:0:
256,192,107853,1,0,0:0:0:0:
256,192,107932,1,0,0:0:0:0:
256,192,108011,1,8,0:0:0:0:
256,192,108169,1,0,0:0:0:0:
256,192,108248,1,0,0:0:0:0:
256,192,108327,1,0,0:0:0:0:
256,192,108485,1,8,0:0:0:0:
256,192,108643,1,4,0:0:0:0:
256,192,108958,1,8,0:0:0:0:
256,192,109116,1,0,0:0:0:0:
256,192,109274,1,0,0:0:0:0:
256,192,109432,1,8,0:0:0:0:
256,192,109511,1,8,0:0:0:0:
256,192,109590,1,8,0:0:0:0:
256,192,109748,1,0,0:0:0:0:
256,192,110064,1,0,0:0:0:0:
256,192,110222,1,8,0:0:0:0:
256,192,110537,1,0,0:0:0:0:
256,192,110695,1,0,0:0:0:0:
256,192,110853,1,8,0:0:0:0:
256,192,111011,1,0,0:0:0:0:
256,192,111090,1,0,0:0:0:0:
256,192,111169,1,8,0:0:0:0:
256,192,111327,1,0,0:0:0:0:
256,192,111485,1,8,0:0:0:0:
256,192,111643,1,0,0:0:0:0:
256,192,111722,1,0,0:0:0:0:
256,192,111801,1,0,0:0:0:0:
256,192,111958,1,8,0:0:0:0:
256,192,112116,1,8,0:0:0:0:
256,192,112274,1,0,0:0:0:0:
256,192,112590,1,0,0:0:0:0:
256,192,112748,1,8,0:0:0:0:
256,192,113064,1,0,0:0:0:0:
256,192,113222,1,0,0:0:0:0:
256,192,113379,1,8,0:0:0:0:
256,192,113537,1,0,0:0:0:0:
256,192,113616,1,0,0:0:0:0:
256,192,113695,1,8,0:0:0:0:
256,192,113853,1,0,0:0:0:0:
256,192,114011,1,8,0:0:0:0:
256,192,114169,1,0,0:0:0:0:
256,192,114327,1,0,0:0:0:0:
256,192,114485,1,8,0:0:0:0:
256,192,114564,1,8,0:0:0:0:
256,192,114643,1,8,0:0:0:0:
256,192,114801,1,0,0:0:0:0:
256,192,115116,1,0,0:0:0:0:
256,192,115274,1,8,0:0:0:0:
256,192,115590,1,0,0:0:0:0:
256,192,115748,1,0,0:0:0:0:
256,192,115906,1,8,0:0:0:0:
256,192,116064,1,0,0:0:0:0:
256,192,116143,1,0,0:0:0:0:
256,192,116222,1,8,0:0:0:0:
256,192,116301,1,8,0:0:0:0:
256,192,116379,1,0,0:0:0:0:
256,192,116537,1,8,0:0:0:0:
256,192,116695,1,0,0:0:0:0:
256,192,116774,1,0,0:0:0:0:
256,192,116853,1,8,0:0:0:0:
256,192,117011,1,0,0:0:0:0:
256,192,117169,1,8,0:0:0:0:
256,192,117327,1,8,0:0:0:0:
256,192,117406,1,0,0:0:0:0:
256,192,117485,1,8,0:0:0:0:
256,192,117564,1,8,0:0:0:0:
256,192,117643,1,0,0:0:0:0:
256,192,117801,1,0,0:0:0:0:
256,192,117958,1,8,0:0:0:0:
256,192,118116,1,0,0:0:0:0:
256,192,118195,1,0,0:0:0:0:
256,192,118274,1,0,0:0:0:0:
256,192,118432,1,8,0:0:0:0:
256,192,118590,1,0,0:0:0:0:
256,192,118748,1,12,0:0:0:0:
256,192,119064,1,12,0:0:0:0:
256,192,119537,1,8,0:0:0:0:
256,192,119853,1,0,0:0:0:0:
256,192,120169,1,0,0:0:0:0:
256,192,120327,1,8,0:0:0:0:
256,192,120643,1,8,0:0:0:0:
256,192,120801,1,0,0:0:0:0:
256,192,120958,1,8,0:0:0:0:
256,192,121274,1,4,0:0:0:0:
256,192,121590,1,4,0:0:0:0:
256,192,122537,1,8,0:0:0:0:
256,192,122643,1,8,0:0:0:0:
256,192,122748,1,8,0:0:0:0:
256,192,122853,1,0,0:0:0:0:
256,192,122958,1,0,0:0:0:0:
256,192,123064,1,0,0:0:0:0:
256,192,123169,1,8,0:0:0:0:
256,192,123274,1,0,0:0:0:0:
256,192,123379,1,0,0:0:0:0:
256,192,123485,1,8,0:0:0:0:
256,192,123590,1,8,0:0:0:0:
256,192,123695,1,0,0:0:0:0:
256,192,123801,1,12,0:0:0:0:
256,192,124116,1,12,0:0:0:0:
256,192,125064,1,12,0:0:0:0:
256,192,125379,1,0,0:0:0:0:
256,192,125537,1,8,0:0:0:0:
256,192,125695,1,0,0:0:0:0:
256,192,125853,1,8,0:0:0:0:
256,192,126011,1,0,0:0:0:0:
256,192,126327,1,4,0:0:0:0:
256,192,127590,1,12,0:0:0:0:
256,192,127906,1,0,0:0:0:0:
256,192,128064,1,8,0:0:0:0:
256,192,128379,1,8,0:0:0:0:
256,192,128695,1,4,0:0:0:0:
256,192,129011,1,0,0:0:0:0:
256,192,129169,1,8,0:0:0:0:
256,192,129327,1,0,0:0:0:0:
256,192,129406,1,0,0:0:0:0:
256,192,129485,1,0,0:0:0:0:
256,192,129643,1,8,0:0:0:0:
256,192,129801,1,8,0:0:0:0:
256,192,129879,1,8,0:0:0:0:
256,192,129958,1,0,0:0:0:0:
256,192,130037,1,0,0:0:0:0:
256,192,130116,1,8,0:0:0:0:
256,192,130274,1,0,0:0:0:0:
256,192,130432,1,8,0:0:0:0:
256,192,130511,1,0,0:0:0:0:
256,192,130590,1,8,0:0:0:0:
256,192,130669,1,8,0:0:0:0:
256,192,130748,1,0,0:0:0:0:
256,192,130906,1,8,0:0:0:0:
256,192,131064,1,8,0:0:0:0:
256,192,131222,1,0,0:0:0:0:
256,192,131537,1,0,0:0:0:0:
256,192,131695,1,8,0:0:0:0:
256,192,131853,1,8,0:0:0:0:
256,192,131932,1,8,0:0:0:0:
256,192,132011,1,0,0:0:0:0:
256,192,132169,1,0,0:0:0:0:
256,192,132327,1,8,0:0:0:0:
256,192,132485,1,0,0:0:0:0:
256,192,132564,1,0,0:0:0:0:
256,192,132643,1,8,0:0:0:0:
256,192,132722,1,8,0:0:0:0:
256,192,132801,1,0,0:0:0:0:
256,192,132958,1,8,0:0:0:0:
256,192,133116,1,0,0:0:0:0:
256,192,133195,1,0,0:0:0:0:
256,192,133274,1,8,0:0:0:0:
256,192,133353,1,0,0:0:0:0:
256,192,133432,1,8,0:0:0:0:
256,192,133511,1,8,0:0:0:0:
256,192,133590,1,0,0:0:0:0:
256,192,133748,1,4,0:0:0:0:
256,192,134064,1,0,0:0:0:0:
256,192,134222,1,8,0:0:0:0:
256,192,134379,1,0,0:0:0:0:
256,192,134458,1,0,0:0:0:0:
256,192,134537,1,0,0:0:0:0:
256,192,134695,1,8,0:0:0:0:
256,192,134853,1,8,0:0:0:0:
256,192,134932,1,8,0:0:0:0:
256,192,135011,1,0,0:0:0:0:
256,192,135169,1,8,0:0:0:0:
256,192,135327,1,0,0:0:0:0:
256,192,135406,1,0,0:0:0:0:
256,192,135485,1,8,0:0:0:0:
256,192,135643,1,0,0:0:0:0:
256,192,135722,1,8,0:0:0:0:
256,192,135801,1,0,0:0:0:0:
256,192,135879,1,0,0:0:0:0:
256,192,135958,1,8,0:0:0:0:
256,192,136116,1,8,0:0:0:0:
256,192,136274,1,0,0:0:0:0:
256,192,136590,1,0,0:0:0:0:
256,192,136748,1,8,0:0:0:0:
256,192,136906,1,0,0:0:0:0:
256,192,136985,1,8,0:0:0:0:
256,192,137064,1,0,0:0:0:0:
256,192,137222,1,8,0:0:0:0:
256,192,137301,1,0,0:0:0:0:
256,192,137379,1,8,0:0:0:0:
256,192,137537,1,8,0:0:0:0:
256,192,137616,1,0,0:0:0:0:
256,192,137695,1,0,0:0:0:0:
256,192,137853,1,8,0:0:0:0:
256,192,137932,1,8,0:0:0:0:
256,192,138011,1,8,0:0:0:0:
256,192,138169,1,0,0:0:0:0:
256,192,138248,1,0,0:0:0:0:
256,192,138327,1,8,0:0:0:0:
256,192,138406,1,8,0:0:0:0:
256,192,138485,1,0,0:0:0:0:
256,192,138564,1,0,0:0:0:0:
256,192,138643,1,8,0:0:0:0:
256,192,138801,1,4,0:0:0:0:
256,192,139116,1,0,0:0:0:0:
256,192,139274,1,8,0:0:0:0:
256,192,139432,1,8,0:0:0:0:
256,192,139511,1,8,0:0:0:0:
256,192,139590,1,0,0:0:0:0:
256,192,139748,1,0,0:0:0:0:
256,192,139906,1,8,0:0:0:0:
256,192,140064,1,0,0:0:0:0:
256,192,140143,1,0,0:0:0:0:
256,192,140222,1,8,0:0:0:0:
256,192,140301,1,8,0:0:0:0:
256,192,140379,1,0,0:0:0:0:
256,192,140537,1,8,0:0:0:0:
256,192,140695,1,0,0:0:0:0:
256,192,140774,1,0,0:0:0:0:
256,192,140853,1,0,0:0:0:0:
256,192,141011,1,0,0:0:0:0:
256,192,141169,1,8,0:0:0:0:
256,192,141327,1,8,0:0:0:0:
256,192,141643,1,0,0:0:0:0:
256,192,141801,1,8,0:0:0:0:
256,192,141958,1,0,0:0:0:0:
256,192,142037,1,8,0:0:0:0:
256,192,142116,1,0,0:0:0:0:
256,192,142274,1,0,0:0:0:0:
256,192,142432,1,8,0:0:0:0:
256,192,142590,1,0,0:0:0:0:
256,192,142748,1,8,0:0:0:0:
256,192,142827,1,8,0:0:0:0:
256,192,142906,1,0,0:0:0:0:
256,192,142985,1,8,0:0:0:0:
256,192,143064,1,8,0:0:0:0:
256,192,143222,1,0,0:0:0:0:
256,192,143379,1,8,0:0:0:0:
256,192,143458,1,8,0:0:0:0:
256,192,143537,1,0,0:0:0:0:
256,192,143695,1,8,0:0:0:0:
256,192,143853,1,4,0:0:0:0:
256,192,144169,1,0,0:0:0:0:
256,192,144327,1,8,0:0:0:0:
256,192,144485,1,8,0:0:0:0:
256,192,144564,1,8,0:0:0:0:
256,192,144643,1,0,0:0:0:0:
256,192,144722,1,0,0:0:0:0:
256,192,144801,1,8,0:0:0:0:
256,192,144879,1,0,0:0:0:0:
256,192,144958,1,8,0:0:0:0:
256,192,145116,1,4,0:0:0:0:
256,192,145432,1,8,0:0:0:0:
256,192,145511,1,0,0:0:0:0:
256,192,145590,1,8,0:0:0:0:
256,192,145748,1,8,0:0:0:0:
256,192,145906,1,0,0:0:0:0:
256,192,146064,1,0,0:0:0:0:
256,192,146143,1,0,0:0:0:0:
256,192,146222,1,8,0:0:0:0:
256,192,146301,1,8,0:0:0:0:
256,192,146379,1,0,0:0:0:0:
256,192,146537,1,12,0:0:0:0:
256,192,146695,1,0,0:0:0:0:
256,192,146774,1,0,0:0:0:0:
256,192,146853,1,8,0:0:0:0:
256,192,147011,1,0,0:0:0:0:
256,192,147169,1,8,0:0:0:0:
256,192,147248,1,8,0:0:0:0:
256,192,147327,1,0,0:0:0:0:
256,192,147406,1,0,0:0:0:0:
256,192,147485,1,8,0:0:0:0:
256,192,147643,1,4,0:0:0:0:
256,192,148432,1,8,0:0:0:0:
256,192,148590,1,8,0:0:0:0:
256,192,148748,1,8,0:0:0:0:
256,192,148906,1,4,0:0:0:0:
256,192,149222,1,0,0:0:0:0:
256,192,149379,1,8,0:0:0:0:
256,192,149537,1,0,0:0:0:0:
256,192,149616,1,0,0:0:0:0:
256,192,149695,1,8,0:0:0:0:
256,192,149853,1,0,0:0:0:0:
256,192,150011,1,8,0:0:0:0:
256,192,150169,1,8,0:0:0:0:
256,192,150248,1,8,0:0:0:0:
256,192,150327,1,0,0:0:0:0:
256,192,150485,1,0,0:0:0:0:
256,192,150643,1,8,0:0:0:0:
256,192,150801,1,0,0:0:0:0:
256,192,150879,1,0,0:0:0:0:
256,192,150958,1,8,0:0:0:0:
256,192,151037,1,8,0:0:0:0:
256,192,151116,1,0,0:0:0:0:
256,192,151274,1,8,0:0:0:0:
256,192,151432,1,8,0:0:0:0:
256,192,151511,1,0,0:0:0:0:
256,192,151590,1,8,0:0:0:0:
256,192,151669,1,8,0:0:0:0:
256,192,151748,1,0,0:0:0:0:
256,192,151906,1,8,0:0:0:0:
256,192,152064,1,0,0:0:0:0:
256,192,152143,1,8,0:0:0:0:
256,192,152222,1,8,0:0:0:0:
256,192,152379,1,0,0:0:0:0:
256,192,152537,1,8,0:0:0:0:
256,192,152695,1,8,0:0:0:0:
256,192,152774,1,8,0:0:0:0:
256,192,152853,1,0,0:0:0:0:
256,192,152932,1,0,0:0:0:0:
256,192,153011,1,8,0:0:0:0:
256,192,153090,1,0,0:0:0:0:
256,192,153169,1,8,0:0:0:0:
256,192,153248,1,0,0:0:0:0:
256,192,153327,1,8,0:0:0:0:
256,192,153406,1,8,0:0:0:0:
256,192,153485,1,0,0:0:0:0:
256,192,153643,1,8,0:0:0:0:
256,192,153801,1,0,0:0:0:0:
256,192,153958,1,12,0:0:0:0:
256,192,154274,1,0,0:0:0:0:
256,192,154432,1,8,0:0:0:0:
256,192,154590,1,0,0:0:0:0:
256,192,154669,1,0,0:0:0:0:
256,192,154748,1,8,0:0:0:0:
256,192,154827,1,8,0:0:0:0:
256,192,154906,1,0,0:0:0:0:
256,192,154985,1,0,0:0:0:0:
256,192,155064,1,8,0:0:0:0:
256,192,155222,1,0,0:0:0:0:
256,192,155301,1,8,0:0:0:0:
256,192,155379,1,0,0:0:0:0:
256,192,155537,1,8,0:0:0:0:
256,192,155616,1,0,0:0:0:0:
256,192,155695,1,8,0:0:0:0:
256,192,155853,1,8,0:0:0:0:
256,192,156011,1,0,0:0:0:0:
256,192,156169,1,8,0:0:0:0:
256,192,156248,1,8,0:0:0:0:
256,192,156327,1,0,0:0:0:0:
256,192,156485,1,8,0:0:0:0:
256,192,156564,1,0,0:0:0:0:
256,192,156643,1,0,0:0:0:0:
256,192,156801,1,0,0:0:0:0:
256,192,156958,1,8,0:0:0:0:
256,192,157116,1,0,0:0:0:0:
256,192,157195,1,0,0:0:0:0:
256,192,157274,1,8,0:0:0:0:
256,192,157432,1,0,0:0:0:0:
256,192,157590,1,8,0:0:0:0:
256,192,157748,1,12,0:0:0:0:
256,192,158064,1,0,0:0:0:0:
256,192,158222,1,8,0:0:0:0:
256,192,158301,1,8,0:0:0:0:
256,192,158379,1,0,0:0:0:0:
256,192,158458,1,8,0:0:0:0:
256,192,158537,1,8,0:0:0:0:
256,192,158695,1,0,0:0:0:0:
256,192,158853,1,8,0:0:0:0:
256,192,158932,1,8,0:0:0:0:
256,192,159011,1,8,0:0:0:0:
256,192,159327,1,0,0:0:0:0:
256,192,159485,1,8,0:0:0:0:
256,192,159564,1,8,0:0:0:0:
256,192,159643,1,0,0:0:0:0:
256,192,159722,1,8,0:0:0:0:
256,192,159801,1,0,0:0:0:0:
256,192,159879,1,8,0:0:0:0:
256,192,159958,1,8,0:0:0:0:
256,192,160037,1,0,0:0:0:0:
256,192,160116,1,8,0:0:0:0:
256,192,160195,1,0,0:0:0:0:
256,192,160274,1,0,0:0:0:0:
256,192,160353,1,8,0:0:0:0:
256,192,160432,1,0,0:0:0:0:
256,192,160511,1,0,0:0:0:0:
256,192,160590,1,8,0:0:0:0:
256,192,160669,1,0,0:0:0:0:
256,192,160748,1,8,0:0:0:0:
256,192,160827,1,0,0:0:0:0:
256,192,160906,1,8,0:0:0:0:
256,192,160985,1,8,0:0:0:0:
256,192,161064,1,0,0:0:0:0:
256,192,161143,1,0,0:0:0:0:
256,192,161222,1,8,0:0:0:0:
256,192,161301,1,0,0:0:0:0:
256,192,161379,1,8,0:0:0:0:
256,192,161537,1,0,0:0:0:0:
256,192,161616,1,0,0:0:0:0:
256,192,161695,1,8,0:0:0:0:
256,192,161853,1,0,0:0:0:0:
256,192,162011,1,8,0:0:0:0:
256,192,162090,1,8,0:0:0:0:
256,192,162169,1,0,0:0:0:0:
256,192,162248,1,0,0:0:0:0:
256,192,162327,1,8,0:0:0:0:
256,192,162485,1,0,0:0:0:0:
256,192,162643,1,8,0:0:0:0:
256,192,162801,1,8,0:0:0:0:
256,192,162879,1,8,0:0:0:0:
256,192,162958,1,8,0:0:0:0:
256,192,163116,1,0,0:0:0:0:
256,192,163274,1,8,0:0:0:0:
256,192,163432,1,0,0:0:0:0:
256,192,163511,1,8,0:0:0:0:
256,192,163590,1,0,0:0:0:0:
256,192,163669,1,0,0:0:0:0:
256,192,163748,1,0,0:0:0:0:
256,192,163906,1,8,0:0:0:0:
256,192,164064,1,12,0:0:0:0:
256,192,164537,1,8,0:0:0:0:
256,192,164774,1,8,0:0:0:0:
256,192,164853,1,0,0:0:0:0:
256,192,165011,1,0,0:0:0:0:
256,192,165169,1,8,0:0:0:0:
256,192,165327,1,8,0:0:0:0:
256,192,165406,1,8,0:0:0:0:
256,192,165485,1,0,0:0:0:0:
256,192,165643,1,0,0:0:0:0:
256,192,165801,1,8,0:0:0:0:
256,192,165958,1,0,0:0:0:0:
256,192,166037,1,8,0:0:0:0:
256,192,166116,1,0,0:0:0:0:
256,192,166195,1,8,0:0:0:0:
256,192,166274,1,8,0:0:0:0:
256,192,166353,1,0,0:0:0:0:
256,192,166432,1,8,0:0:0:0:
256,192,166590,1,8,0:0:0:0:
256,192,166669,1,0,0:0:0:0:
256,192,166748,1,8,0:0:0:0:
256,192,166827,1,8,0:0:0:0:
256,192,166906,1,0,0:0:0:0:
256,192,167064,1,8,0:0:0:0:
256,192,167222,1,8,0:0:0:0:
256,192,167379,1,0,0:0:0:0:
256,192,167537,1,0,0:0:0:0:
256,192,167616,1,0,0:0:0:0:
256,192,167695,1,8,0:0:0:0:
256,192,167853,1,0,0:0:0:0:
256,192,168011,1,8,0:0:0:0:
256,192,168090,1,0,0:0:0:0:
256,192,168169,1,0,0:0:0:0:
256,192,168248,1,0,0:0:0:0:
256,192,168327,1,8,0:0:0:0:
256,192,168485,1,0,0:0:0:0:
256,192,168643,1,8,0:0:0:0:
256,192,168801,1,0,0:0:0:0:
256,192,168879,1,0,0:0:0:0:
256,192,168958,1,8,0:0:0:0:
256,192,169116,1,8,0:0:0:0:
256,192,169274,1,0,0:0:0:0:
256,192,169353,1,0,0:0:0:0:
256,192,169432,1,0,0:0:0:0:
256,192,169511,1,0,0:0:0:0:
256,192,169590,1,8,0:0:0:0:
256,192,169748,1,0,0:0:0:0:
256,192,169827,1,8,0:0:0:0:
256,192,169906,1,0,0:0:0:0:
256,192,170064,1,8,0:0:0:0:
256,192,170222,1,0,0:0:0:0:
256,192,170301,1,0,0:0:0:0:
256,192,170379,1,8,0:0:0:0:
256,192,170537,1,0,0:0:0:0:
256,192,170616,1,0,0:0:0:0:
256,192,170695,1,8,0:0:0:0:
256,192,170774,1,0,0:0:0:0:
256,192,170853,1,8,0:0:0:0:
256,192,171011,1,8,0:0:0:0:
256,192,171090,1,8,0:0:0:0:
256,192,171169,1,0,0:0:0:0:
256,192,171248,1,8,0:0:0:0:
256,192,171327,1,0,0:0:0:0:
256,192,171406,1,0,0:0:0:0:
256,192,171485,1,8,0:0:0:0:
256,192,171643,1,8,0:0:0:0:
256,192,171722,1,0,0:0:0:0:
256,192,171801,1,8,0:0:0:0:
256,192,171879,1,8,0:0:0:0:
256,192,171958,1,0,0:0:0:0:
256,192,172037,1,0,0:0:0:0:
256,192,172116,1,8,0:0:0:0:
256,192,172195,1,0,0:0:0:0:
256,192,172274,1,0,0:0:0:0:
256,192,172353,1,0,0:0:0:0:
256,192,172432,1,8,0:0:0:0:
256,192,172511,1,8,0:0:0:0:
256,192,172590,1,0,0:0:0:0:
256,192,172669,1,8,0:0:0:0:
256,192,172748,1,0,0:0:0:0:
256,192,172827,1,0,0:0:0:0:
256,192,172906,1,8,0:0:0:0:
256,192,172985,1,0,0:0:0:0:
256,192,173064,1,8,0:0:0:0:
256,192,173143,1,8,0:0:0:0:
256,192,173222,1,0,0:0:0:0:
256,192,173301,1,0,0:0:0:0:
256,192,173379,1,8,0:0:0:0:
256,192,173458,1,0,0:0:0:0:
256,192,173537,1,8,0:0:0:0:
256,192,173616,1,8,0:0:0:0:
256,192,173695,1,8,0:0:0:0:
256,192,173774,1,0,0:0:0:0:
256,192,173853,1,8,0:0:0:0:
256,192,173932,1,8,0:0:0:0:
256,192,174011,1,0,0:0:0:0:
256,192,174090,1,0,0:0:0:0:
256,192,174169,1,0,0:0:0:0:
256,192,174327,1,12,0:0:0:0:
256,192,174643,1,0,0:0:0:0:
256,192,174801,1,8,0:0:0:0:
256,192,175116,1,8,0:0:0:0:
256,192,175432,1,4,0:0:0:0:
256,192,175748,1,0,0:0:0:0:
256,192,175906,1,8,0:0:0:0:
256,192,176064,1,0,0:0:0:0:
256,192,176143,1,0,0:0:0:0:
256,192,176222,1,0,0:0:0:0:
256,192,176379,1,8,0:0:0:0:
256,192,176537,1,8,0:0:0:0:
256,192,176695,1,0,0:0:0:0:
256,192,176774,1,0,0:0:0:0:
256,192,176853,1,8,0:0:0:0:
256,192,177011,1,0,0:0:0:0:
256,192,177169,1,8,0:0:0:0:
256,192,177327,1,8,0:0:0:0:
256,192,177406,1,8,0:0:0:0:
256,192,177485,1,0,0:0:0:0:
256,192,177564,1,0,0:0:0:0:
256,192,177643,1,8,0:0:0:0:
256,192,177801,1,8,0:0:0:0:
256,192,177958,1,0,0:0:0:0:
256,192,178274,1,0,0:0:0:0:
256,192,178432,1,8,0:0:0:0:
256,192,178590,1,8,0:0:0:0:
256,192,178669,1,8,0:0:0:0:
256,192,178748,1,0,0:0:0:0:
256,192,178906,1,0,0:0:0:0:
256,192,179064,1,8,0:0:0:0:
256,192,179222,1,0,0:0:0:0:
256,192,179301,1,0,0:0:0:0:
256,192,179379,1,8,0:0:0:0:
256,192,179458,1,8,0:0:0:0:
256,192,179537,1,0,0:0:0:0:
256,192,179695,1,8,0:0:0:0:
256,192,179853,1,0,0:0:0:0:
256,192,180011,1,8,0:0:0:0:
256,192,180090,1,0,0:0:0:0:
256,192,180169,1,8,0:0:0:0:
256,192,180248,1,8,0:0:0:0:
256,192,180327,1,0,0:0:0:0:
256,192,180485,1,4,0:0:0:0:
256,192,180801,1,0,0:0:0:0:
256,192,180958,1,8,0:0:0:0:
256,192,181116,1,0,0:0:0:0:
256,192,181195,1,0,0:0:0:0:
256,192,181274,1,0,0:0:0:0:
256,192,181432,1,8,0:0:0:0:
256,192,181590,1,8,0:0:0:0:
256,192,181669,1,8,0:0:0:0:
256,192,181748,1,0,0:0:0:0:
256,192,181906,1,8,0:0:0:0:
256,192,182064,1,0,0:0:0:0:
256,192,182143,1,0,0:0:0:0:
256,192,182222,1,8,0:0:0:0:
256,192,182379,1,0,0:0:0:0:
256,192,182458,1,8,0:0:0:0:
256,192,182537,1,0,0:0:0:0:
256,192,182616,1,0,0:0:0:0:
256,192,182695,1,8,0:0:0:0:
256,192,182853,1,8,0:0:0:0:
256,192,183011,1,0,0:0:0:0:
256,192,183327,1,0,0:0:0:0:
256,192,183485,1,8,0:0:0:0:
256,192,183643,1,0,0:0:0:0:
256,192,183722,1,8,0:0:0:0:
256,192,183801,1,0,0:0:0:0:
256,192,183958,1,8,0:0:0:0:
256,192,184037,1,0,0:0:0:0:
256,192,184116,1,8,0:0:0:0:
256,192,184274,1,8,0:0:0:0:
256,192,184432,1,0,0:0:0:0:
256,192,184511,1,8,0:0:0:0:
256,192,184590,1,8,0:0:0:0:
256,192,184748,1,8,0:0:0:0:
256,192,184906,1,0,0:0:0:0:
256,192,185064,1,8,0:0:0:0:
256,192,185143,1,8,0:0:0:0:
256,192,185222,1,0,0:0:0:0:
256,192,185301,1,0,0:0:0:0:
256,192,185379,1,8,0:0:0:0:
256,192,185537,1,4,0:0:0:0:
256,192,185853,1,0,0:0:0:0:
256,192,186011,1,8,0:0:0:0:
256,192,186169,1,8,0:0:0:0:
256,192,186248,1,8,0:0:0:0:
256,192,186327,1,0,0:0:0:0:
256,192,186485,1,0,0:0:0:0:
256,192,186643,1,8,0:0:0:0:
256,192,186801,1,0,0:0:0:0:
256,192,186879,1,0,0:0:0:0:
256,192,186958,1,8,0:0:0:0:
256,192,187037,1,8,0:0:0:0:
256,192,187116,1,0,0:0:0:0:
256,192,187274,1,8,0:0:0:0:
256,192,187432,1,0,0:0:0:0:
256,192,187511,1,0,0:0:0:0:
256,192,187590,1,8,0:0:0:0:
256,192,187748,1,0,0:0:0:0:
256,192,187906,1,8,0:0:0:0:
256,192,188064,1,8,0:0:0:0:
256,192,188379,1,0,0:0:0:0:
256,192,188537,1,8,0:0:0:0:
256,192,188695,1,0,0:0:0:0:
256,192,188774,1,8,0:0:0:0:
256,192,188853,1,0,0:0:0:0:
256,192,189011,1,0,0:0:0:0:
256,192,189169,1,8,0:0:0:0:
256,192,189327,1,0,0:0:0:0:
256,192,189485,1,8,0:0:0:0:
256,192,189564,1,8,0:0:0:0:
256,192,189643,1,0,0:0:0:0:
256,192,189722,1,8,0:0:0:0:
256,192,189801,1,8,0:0:0:0:
256,192,189958,1,0,0:0:0:0:
256,192,190116,1,8,0:0:0:0:
256,192,190195,1,8,0:0:0:0:
256,192,190274,1,0,0:0:0:0:
256,192,190432,1,8,0:0:0:0:
256,192,190590,1,4,0:0:0:0:
256,192,190906,1,0,0:0:0:0:
256,192,191064,1,8,0:0:0:0:
256,192,191222,1,8,0:0:0:0:
256,192,191301,1,8,0:0:0:0:
256,192,191379,1,0,0:0:0:0:
256,192,191537,1,0,0:0:0:0:
256,192,191616,1,0,0:0:0:0:
256,192,191695,1,8,0:0:0:0:
256,192,191853,1,12,0:0:0:0:
256,192,192169,1,8,0:0:0:0:
256,192,192248,1,0,0:0:0:0:
256,192,192327,1,8,0:0:0:0:
256,192,192485,1,8,0:0:0:0:
256,192,192643,1,0,0:0:0:0:
256,192,192801,1,0,0:0:0:0:
256,192,192879,1,0,0:0:0:0:
256,192,192958,1,8,0:0:0:0:
256,192,193037,1,8,0:0:0:0:
256,192,193116,1,0,0:0:0:0:
256,192,193274,1,4,0:0:0:0:
256,192,193432,1,0,0:0:0:0:
256,192,193511,1,0,0:0:0:0:
256,192,193590,1,8,0:0:0:0:
256,192,193748,1,0,0:0:0:0:
256,192,193906,1,8,0:0:0:0:
256,192,193985,1,8,0:0:0:0:
256,192,194064,1,0,0:0:0:0:
256,192,194143,1,0,0:0:0:0:
256,192,194222,1,0,0:0:0:0:
256,192,194379,1,12,0:0:0:0:
256,192,194695,1,8,0:0:0:0:
256,192,194932,1,8,0:0:0:0:
256,192,195169,1,8,0:0:0:0:
256,192,195248,1,0,0:0:0:0:
256,192,195327,1,0,0:0:0:0:
256,192,195406,1,0,0:0:0:0:
256,192,195485,1,8,0:0:0:0:
256,192,195643,1,4,0:0:0:0:
256,192,195958,1,0,0:0:0:0:
256,192,196116,1,8,0:0:0:0:
256,192,196274,1,0,0:0:0:0:
256,192,196353,1,0,0:0:0:0:
256,192,196432,1,0,0:0:0:0:
256,192,196590,1,8,0:0:0:0:
256,192,196748,1,8,0:0:0:0:
256,192,196827,1,8,0:0:0:0:
256,192,196906,1,0,0:0:0:0:
256,192,196985,1,0,0:0:0:0:
256,192,197064,1,8,0:0:0:0:
256,192,197222,1,0,0:0:0:0:
256,192,197379,1,8,0:0:0:0:
256,192,197458,1,0,0:0:0:0:
256,192,197537,1,8,0:0:0:0:
256,192,197616,1,8,0:0:0:0:
256,192,197695,1,0,0:0:0:0:
256,192,197853,1,8,0:0:0:0:
256,192,198011,1,8,0:0:0:0:
256,192,198169,1,0,0:0:0:0:
256,192,198485,1,0,0:0:0:0:
256,192,198643,1,8,0:0:0:0:
256,192,198801,1,8,0:0:0:0:
256,192,198879,1,8,0:0:0:0:
256,192,198958,1,0,0:0:0:0:
256,192,199116,1,0,0:0:0:0:
256,192,199274,1,8,0:0:0:0:
256,192,199432,1,0,0:0:0:0:
256,192,199511,1,0,0:0:0:0:
256,192,199590,1,8,0:0:0:0:
256,192,199669,1,8,0:0:0:0:
256,192,199748,1,0,0:0:0:0:
256,192,199906,1,8,0:0:0:0:
256,192,200064,1,0,0:0:0:0:
256,192,200143,1,0,0:0:0:0:
256,192,200222,1,8,0:0:0:0:
256,192,200301,1,0,0:0:0:0:
256,192,200379,1,8,0:0:0:0:
256,192,200458,1,8,0:0:0:0:
256,192,200537,1,0,0:0:0:0:
256,192,200695,1,4,0:0:0:0:
256,192,201011,1,0,0:0:0:0:
256,192,201169,1,8,0:0:0:0:
256,192,201327,1,0,0:0:0:0:
256,192,201406,1,0,0:0:0:0:
256,192,201485,1,0,0:0:0:0:
256,192,201643,1,8,0:0:0:0:
256,192,201801,1,8,0:0:0:0:
256,192,201879,1,8,0:0:0:0:
256,192,201958,1,0,0:0:0:0:
256,192,202116,1,8,0:0:0:0:
256,192,202274,1,0,0:0:0:0:
256,192,202353,1,0,0:0:0:0:
256,192,202432,1,8,0:0:0:0:
256,192,202590,1,0,0:0:0:0:
256,192,202669,1,8,0:0:0:0:
256,192,202748,1,0,0:0:0:0:
256,192,202827,1,0,0:0:0:0:
256,192,202906,1,8,0:0:0:0:
256,192,203064,1,8,0:0:0:0:
256,192,203222,1,0,0:0:0:0:
256,192,203537,1,0,0:0:0:0:
256,192,203695,1,8,0:0:0:0:
256,192,203853,1,0,0:0:0:0:
256,192,203932,1,8,0:0:0:0:
256,192,204011,1,0,0:0:0:0:
256,192,204169,1,8,0:0:0:0:
256,192,204248,1,0,0:0:0:0:
256,192,204327,1,8,0:0:0:0:
256,192,204485,1,8,0:0:0:0:
256,192,204564,1,0,0:0:0:0:
256,192,204643,1,0,0:0:0:0:
256,192,204801,1,8,0:0:0:0:
256,192,204879,1,8,0:0:0:0:
256,192,204958,1,8,0:0:0:0:
256,192,205116,1,0,0:0:0:0:
256,192,205195,1,0,0:0:0:0:
256,192,205274,1,8,0:0:0:0:
256,192,205353,1,8,0:0:0:0:
256,192,205432,1,0,0:0:0:0:
256,192,205511,1,0,0:0:0:0:
256,192,205590,1,8,0:0:0:0:
256,192,205748,1,4,0:0:0:0:
256,192,206064,1,0,0:0:0:0:
256,192,206222,1,8,0:0:0:0:
256,192,206379,1,8,0:0:0:0:
256,192,206458,1,8,0:0:0:0:
256,192,206537,1,0,0:0:0:0:
256,192,206695,1,0,0:0:0:0:
256,192,206853,1,8,0:0:0:0:
256,192,207011,1,0,0:0:0:0:
256,192,207090,1,0,0:0:0:0:
256,192,207169,1,8,0:0:0:0:
256,192,207248,1,8,0:0:0:0:
256,192,207327,1,0,0:0:0:0:
256,192,207485,1,8,0:0:0:0:
256,192,207643,1,0,0:0:0:0:
256,192,207722,1,0,0:0:0:0:
256,192,207801,1,0,0:0:0:0:
256,192,207958,1,0,0:0:0:0:
256,192,208116,1,8,0:0:0:0:
256,192,208274,1,8,0:0:0:0:
256,192,208590,1,0,0:0:0:0:
256,192,208748,1,8,0:0:0:0:
256,192,208906,1,0,0:0:0:0:
256,192,208985,1,8,0:0:0:0:
256,192,209064,1,0,0:0:0:0:
256,192,209222,1,0,0:0:0:0:
256,192,209379,1,8,0:0:0:0:
256,192,209537,1,0,0:0:0:0:
256,192,209695,1,8,0:0:0:0:
256,192,209774,1,8,0:0:0:0:
256,192,209853,1,0,0:0:0:0:
256,192,209932,1,8,0:0:0:0:
256,192,210011,1,8,0:0:0:0:
256,192,210169,1,0,0:0:0:0:
256,192,210327,1,8,0:0:0:0:
256,192,210406,1,8,0:0:0:0:
256,192,210485,1,0,0:0:0:0:
256,192,210643,1,8,0:0:0:0:
256,192,210801,1,4,0:0:0:0:
256,192,211116,1,0,0:0:0:0:
256,192,211274,1,8,0:0:0:0:
256,192,211432,1,8,0:0:0:0:
256,192,211511,1,8,0:0:0:0:
256,192,211590,1,0,0:0:0:0:
256,192,211669,1,0,0:0:0:0:
256,192,211748,1,8,0:0:0:0:
256,192,211827,1,0,0:0:0:0:
256,192,211906,1,8,0:0:0:0:
256,192,212064,1,4,0:0:0:0:
256,192,212379,1,8,0:0:0:0:
256,192,212458,1,0,0:0:0:0:
256,192,212537,1,8,0:0:0:0:
256,192,212695,1,8,0:0:0:0:
256,192,212853,1,0,0:0:0:0:
256,192,213011,1,0,0:0:0:0:
256,192,213090,1,0,0:0:0:0:
256,192,213169,1,8,0:0:0:0:
256,192,213248,1,8,0:0:0:0:
256,192,213327,1,0,0:0:0:0:
256,192,213485,1,12,0:0:0:0:
256,192,213643,1,0,0:0:0:0:
256,192,213722,1,0,0:0:0:0:
256,192,213801,1,8,0:0:0:0:
256,192,213958,1,0,0:0:0:0:
256,192,214116,1,8,0:0:0:0:
256,192,214195,1,8,0:0:0:0:
256,192,214274,1,0,0:0:0:0:
256,192,214353,1,0,0:0:0:0:
256,192,214432,1,8,0:0:0:0:
256,192,214590,1,4,0:0:0:0:
256,192,215379,1,8,0:0:0:0:
256,192,215537,1,8,0:0:0:0:
256,192,215695,1,0,0:0:0:0:
256,192,215853,1,12,0:0:0:0:
256,192,216169,1,0,0:0:0:0:
256,192,216327,1,8,0:0:0:0:
256,192,216485,1,0,0:0:0:0:
256,192,216643,1,8,0:0:0:0:
256,192,216801,1,8,0:0:0:0:
256,192,216879,1,0,0:0:0:0:
256,192,216958,1,8,0:0:0:0:
256,192,217116,1,0,0:0:0:0:
256,192,217195,1,0,0:0:0:0:
256,192,217274,1,8,0:0:0:0:
256,192,217432,1,0,0:0:0:0:
256,192,217590,1,8,0:0:0:0:
256,192,217748,1,0,0:0:0:0:
256,192,217827,1,8,0:0:0:0:
256,192,217906,1,0,0:0:0:0:
256,192,218064,1,8,0:0:0:0:
256,192,218222,1,8,0:0:0:0:
256,192,218379,1,0,0:0:0:0:
256,192,218695,1,0,0:0:0:0:
256,192,218853,1,8,0:0:0:0:
256,192,219011,1,0,0:0:0:0:
256,192,219169,1,8,0:0:0:0:
256,192,219248,1,0,0:0:0:0:
256,192,219327,1,0,0:0:0:0:
256,192,219485,1,8,0:0:0:0:
256,192,219643,1,0,0:0:0:0:
256,192,219722,1,0,0:0:0:0:
256,192,219801,1,0,0:0:0:0:
256,192,219958,1,0,0:0:0:0:
256,192,220037,1,0,0:0:0:0:
256,192,220116,1,8,0:0:0:0:
256,192,220195,1,8,0:0:0:0:
256,192,220274,1,0,0:0:0:0:
256,192,220432,1,0,0:0:0:0:
256,192,220590,1,0,0:0:0:0:
256,192,220669,1,0,0:0:0:0:
256,192,220748,1,8,0:0:0:0:
256,192,220906,1,0,0:0:0:0:
256,192,221222,1,0,0:0:0:0:
256,192,221379,1,8,0:0:0:0:
256,192,221537,1,0,0:0:0:0:
256,192,221695,1,8,0:0:0:0:
256,192,221853,1,8,0:0:0:0:
256,192,221932,1,8,0:0:0:0:
256,192,222011,1,0,0:0:0:0:
256,192,222169,1,8,0:0:0:0:
256,192,222248,1,8,0:0:0:0:
256,192,222327,1,8,0:0:0:0:
256,192,222485,1,0,0:0:0:0:
256,192,222643,1,8,0:0:0:0:
256,192,222801,1,0,0:0:0:0:
256,192,222879,1,0,0:0:0:0:
256,192,222958,1,0,0:0:0:0:
256,192,223116,1,8,0:0:0:0:
256,192,223274,1,0,0:0:0:0:
256,192,223432,1,12,0:0:0:0:
256,192,223748,1,0,0:0:0:0:
256,192,223906,1,8,0:0:0:0:
256,192,224064,1,0,0:0:0:0:
256,192,224143,1,8,0:0:0:0:
256,192,224222,1,0,0:0:0:0:
256,192,224379,1,8,0:0:0:0:
256,192,224458,1,0,0:0:0:0:
256,192,224537,1,8,0:0:0:0:
256,192,224695,1,0,0:0:0:0:
256,192,224853,1,8,0:0:0:0:
256,192,224932,1,8,0:0:0:0:
256,192,225011,1,0,0:0:0:0:
256,192,225090,1,0,0:0:0:0:
256,192,225169,1,8,0:0:0:0:
256,192,225327,1,0,0:0:0:0:
256,192,225485,1,8,0:0:0:0:
256,192,225643,1,8,0:0:0:0:
256,192,225958,1,4,0:0:0:0:
256,192,226274,1,0,0:0:0:0:
256,192,226432,1,8,0:0:0:0:
256,192,226590,1,0,0:0:0:0:
256,192,226669,1,0,0:0:0:0:
256,192,226748,1,8,0:0:0:0:
256,192,226906,1,8,0:0:0:0:
256,192,227064,1,8,0:0:0:0:
256,192,227222,1,0,0:0:0:0:
256,192,227301,1,8,0:0:0:0:
256,192,227379,1,0,0:0:0:0:
256,192,227537,1,0,0:0:0:0:
256,192,227695,1,8,0:0:0:0:
256,192,227853,1,0,0:0:0:0:
256,192,228011,1,8,0:0:0:0:
256,192,228090,1,8,0:0:0:0:
256,192,228169,1,0,0:0:0:0:
256,192,228327,1,8,0:0:0:0:
256,192,228485,1,0,0:0:0:0:
256,192,228801,1,0,0:0:0:0:
256,192,228958,1,8,0:0:0:0:
256,192,229116,1,0,0:0:0:0:
256,192,229274,1,8,0:0:0:0:
256,192,229353,1,0,0:0:0:0:
256,192,229432,1,0,0:0:0:0:
256,192,229590,1,8,0:0:0:0:
256,192,229748,1,0,0:0:0:0:
256,192,229827,1,0,0:0:0:0:
256,192,229906,1,0,0:0:0:0:
256,192,230064,1,0,0:0:0:0:
256,192,230222,1,8,0:0:0:0:
256,192,230301,1,8,0:0:0:0:
256,192,230379,1,0,0:0:0:0:
256,192,230537,1,0,0:0:0:0:
256,192,230616,1,0,0:0:0:0:
256,192,230695,1,0,0:0:0:0:
256,192,230774,1,0,0:0:0:0:
256,192,230853,1,8,0:0:0:0:
256,192,231011,1,0,0:0:0:0:
256,192,231327,1,0,0:0:0:0:
256,192,231485,1,8,0:0:0:0:
256,192,231643,1,0,0:0:0:0:
256,192,231801,1,8,0:0:0:0:
256,192,231958,1,8,0:0:0:0:
256,192,232037,1,8,0:0:0:0:
256,192,232116,1,0,0:0:0:0:
256,192,232274,1,8,0:0:0:0:
256,192,232353,1,8,0:0:0:0:
256,192,232432,1,8,0:0:0:0:
256,192,232590,1,0,0:0:0:0:
256,192,232748,1,8,0:0:0:0:
256,192,232906,1,0,0:0:0:0:
256,192,232985,1,0,0:0:0:0:
256,192,233064,1,0,0:0:0:0:
256,192,233222,1,8,0:0:0:0:
256,192,233379,1,0,0:0:0:0:
256,192,233537,1,12,0:0:0:0:
256,192,233853,1,0,0:0:0:0:
256,192,234011,1,8,0:0:0:0:
256,192,234169,1,0,0:0:0:0:
256,192,234248,1,8,0:0:0:0:
256,192,234327,1,0,0:0:0:0:
256,192,234485,1,8,0:0:0:0:
256,192,234564,1,0,0:0:0:0:
256,192,234643,1,8,0:0:0:0:
256,192,234801,1,0,0:0:0:0:
256,192,234958,1,8,0:0:0:0:
256,192,235037,1,8,0:0:0:0:
256,192,235116,1,0,0:0:0:0:
256,192,235195,1,0,0:0:0:0:
256,192,235274,1,8,0:0:0:0:
256,192,235353,1,8,0:0:0:0:
256,192,235432,1,0,0:0:0:0:
256,192,235590,1,8,0:0:0:0:
256,192,235748,1,8,0:0:0:0:
256,192,236064,1,4,0:0:0:0:
256,192,236222,12,0,241590,0:0:0:0:
