osu file format v14

[General]
AudioFilename: audio.mp3
AudioLeadIn: 0
PreviewTime: -1
Countdown: 1
SampleSet: Soft
StackLeniency: 0.7
Mode: 0
LetterboxInBreaks: 0
WidescreenStoryboard: 1

[Editor]
Bookmarks: 198
DistanceSpacing: 0.8
BeatDivisor: 1
GridSize: 16
TimelineZoom: 1

[Metadata]
Title:Taiatari*Romance feat. Ayuru Ouhashi (Short Ver.)
TitleUnicode:たいあたり★ロマンス feat. Ayuru Ouhashi (Short Ver.)
Artist:Trial & Error
ArtistUnicode:Trial & Error
Creator:Jackson007YT
Version:Automatic S
Source:
Tags:
BeatmapID:1597475
BeatmapSetID:759273

[Difficulty]
HPDrainRate:5
CircleSize:2
OverallDifficulty:5
ApproachRate:10
SliderMultiplier:1.4
SliderTickRate:1

[Events]
//Background and Video events
//Break Periods
//Storyboard Layer 0 (Background)
//Storyboard Layer 1 (Fail)
//Storyboard Layer 2 (Pass)
//Storyboard Layer 3 (Foreground)
//Storyboard Sound Samples

[TimingPoints]
393,-9000,4,2,0,100,1,0

[HitObjects]
96,112,0,5,0,0:0:0:0:
96,112,3,1,0,0:0:0:0:
96,112,6,1,0,0:0:0:0:
96,112,10,1,0,0:0:0:0:
96,112,14,1,0,0:0:0:0:
96,112,18,1,0,0:0:0:0:
96,112,21,1,0,0:0:0:0:
96,112,25,1,0,0:0:0:0:
96,112,29,1,0,0:0:0:0:
96,112,33,1,0,0:0:0:0:
96,112,36,1,0,0:0:0:0:
96,112,40,1,0,0:0:0:0:
96,112,44,1,0,0:0:0:0:
96,112,48,1,0,0:0:0:0:
96,112,51,1,0,0:0:0:0:
96,112,55,1,0,0:0:0:0:
96,112,59,1,0,0:0:0:0:
96,112,63,1,0,0:0:0:0:
96,112,66,1,0,0:0:0:0:
96,112,70,1,0,0:0:0:0:
96,112,74,1,0,0:0:0:0:
96,112,78,1,0,0:0:0:0:
96,112,81,1,0,0:0:0:0:
96,112,85,1,0,0:0:0:0:
96,112,89,1,0,0:0:0:0:
96,112,93,1,0,0:0:0:0:
96,112,96,1,0,0:0:0:0:
96,112,100,1,0,0:0:0:0:
96,112,104,1,0,0:0:0:0:
96,112,108,1,0,0:0:0:0:
96,112,111,1,0,0:0:0:0:
96,112,115,1,0,0:0:0:0:
96,112,119,1,0,0:0:0:0:
96,112,123,1,0,0:0:0:0:
96,112,126,1,0,0:0:0:0:
112,112,134,1,0,0:0:0:0:
128,128,141,1,0,0:0:0:0:
128,128,145,1,0,0:0:0:0:
128,128,149,1,0,0:0:0:0:
128,128,153,1,0,0:0:0:0:
128,128,156,1,0,0:0:0:0:
128,128,160,1,0,0:0:0:0:
128,128,164,1,0,0:0:0:0:
128,128,168,1,0,0:0:0:0:
128,128,171,1,0,0:0:0:0:
128,128,175,1,0,0:0:0:0:
128,128,179,1,0,0:0:0:0:
128,128,183,1,0,0:0:0:0:
128,128,186,1,0,0:0:0:0:
144,128,194,1,0,0:0:0:0:
96,112,198,5,0,0:0:0:0:
96,112,201,1,0,0:0:0:0:
96,112,204,1,0,0:0:0:0:
96,112,208,1,0,0:0:0:0:
96,112,212,1,0,0:0:0:0:
96,112,216,1,0,0:0:0:0:
96,112,219,1,0,0:0:0:0:
96,112,223,1,0,0:0:0:0:
96,112,227,1,0,0:0:0:0:
96,112,231,1,0,0:0:0:0:
96,112,234,1,0,0:0:0:0:
96,112,238,1,0,0:0:0:0:
96,112,242,1,0,0:0:0:0:
96,112,246,1,0,0:0:0:0:
96,112,249,1,0,0:0:0:0:
96,112,253,1,0,0:0:0:0:
96,112,257,1,0,0:0:0:0:
96,112,261,1,0,0:0:0:0:
96,112,264,1,0,0:0:0:0:
96,112,268,1,0,0:0:0:0:
96,112,272,1,0,0:0:0:0:
96,112,276,1,0,0:0:0:0:
96,112,279,1,0,0:0:0:0:
96,112,283,1,0,0:0:0:0:
96,112,287,1,0,0:0:0:0:
96,112,291,1,0,0:0:0:0:
96,112,294,1,0,0:0:0:0:
96,112,298,1,0,0:0:0:0:
96,112,302,1,0,0:0:0:0:
96,112,306,1,0,0:0:0:0:
96,112,309,1,0,0:0:0:0:
96,112,313,1,0,0:0:0:0:
96,112,317,1,0,0:0:0:0:
96,112,321,1,0,0:0:0:0:
96,112,324,1,0,0:0:0:0:
112,112,332,1,0,0:0:0:0:
128,128,339,1,0,0:0:0:0:
128,128,343,1,0,0:0:0:0:
128,128,347,1,0,0:0:0:0:
128,128,351,1,0,0:0:0:0:
128,128,354,1,0,0:0:0:0:
128,128,358,1,0,0:0:0:0:
128,128,362,1,0,0:0:0:0:
128,128,366,1,0,0:0:0:0:
128,128,369,1,0,0:0:0:0:
128,128,373,1,0,0:0:0:0:
128,128,377,1,0,0:0:0:0:
128,128,381,1,0,0:0:0:0:
128,128,384,1,0,0:0:0:0:
144,128,392,1,0,0:0:0:0:
96,112,460,5,0,0:0:0:0:
96,112,463,1,0,0:0:0:0:
96,112,466,1,0,0:0:0:0:
96,112,470,1,0,0:0:0:0:
96,112,474,1,0,0:0:0:0:
96,112,478,1,0,0:0:0:0:
96,112,481,1,0,0:0:0:0:
96,112,485,1,0,0:0:0:0:
96,112,489,1,0,0:0:0:0:
96,112,493,1,0,0:0:0:0:
96,112,496,1,0,0:0:0:0:
96,112,500,1,0,0:0:0:0:
96,112,504,1,0,0:0:0:0:
96,112,508,1,0,0:0:0:0:
96,112,511,1,0,0:0:0:0:
96,112,515,1,0,0:0:0:0:
96,112,519,1,0,0:0:0:0:
96,112,523,1,0,0:0:0:0:
96,112,526,1,0,0:0:0:0:
96,112,530,1,0,0:0:0:0:
96,112,534,1,0,0:0:0:0:
96,112,538,1,0,0:0:0:0:
96,112,541,1,0,0:0:0:0:
96,112,545,1,0,0:0:0:0:
96,112,549,1,0,0:0:0:0:
96,112,553,1,0,0:0:0:0:
96,112,556,1,0,0:0:0:0:
96,112,560,1,0,0:0:0:0:
96,112,564,1,0,0:0:0:0:
96,112,568,1,0,0:0:0:0:
96,112,571,1,0,0:0:0:0:
96,112,575,1,0,0:0:0:0:
96,112,579,1,0,0:0:0:0:
96,112,583,1,0,0:0:0:0:
96,112,586,1,0,0:0:0:0:
112,112,594,1,0,0:0:0:0:
128,128,601,1,0,0:0:0:0:
128,128,605,1,0,0:0:0:0:
128,128,609,1,0,0:0:0:0:
128,128,613,1,0,0:0:0:0:
128,128,616,1,0,0:0:0:0:
128,128,620,1,0,0:0:0:0:
128,128,624,1,0,0:0:0:0:
128,128,628,1,0,0:0:0:0:
128,128,631,1,0,0:0:0:0:
128,128,635,1,0,0:0:0:0:
128,128,639,1,0,0:0:0:0:
128,128,643,1,0,0:0:0:0:
128,128,646,1,0,0:0:0:0:
144,128,654,1,0,0:0:0:0:
96,112,658,5,0,0:0:0:0:
96,112,661,1,0,0:0:0:0:
96,112,664,1,0,0:0:0:0:
96,112,668,1,0,0:0:0:0:
96,112,672,1,0,0:0:0:0:
96,112,676,1,0,0:0:0:0:
96,112,679,1,0,0:0:0:0:
96,112,683,1,0,0:0:0:0:
96,112,687,1,0,0:0:0:0:
96,112,691,1,0,0:0:0:0:
96,112,694,1,0,0:0:0:0:
96,112,698,1,0,0:0:0:0:
96,112,702,1,0,0:0:0:0:
96,112,706,1,0,0:0:0:0:
96,112,709,1,0,0:0:0:0:
96,112,713,1,0,0:0:0:0:
96,112,717,1,0,0:0:0:0:
96,112,721,1,0,0:0:0:0:
96,112,724,1,0,0:0:0:0:
96,112,728,1,0,0:0:0:0:
96,112,732,1,0,0:0:0:0:
96,112,736,1,0,0:0:0:0:
96,112,739,1,0,0:0:0:0:
96,112,743,1,0,0:0:0:0:
96,112,747,1,0,0:0:0:0:
96,112,751,1,0,0:0:0:0:
96,112,754,1,0,0:0:0:0:
96,112,758,1,0,0:0:0:0:
96,112,762,1,0,0:0:0:0:
96,112,766,1,0,0:0:0:0:
96,112,769,1,0,0:0:0:0:
96,112,773,1,0,0:0:0:0:
96,112,777,1,0,0:0:0:0:
96,112,781,1,0,0:0:0:0:
96,112,784,1,0,0:0:0:0:
112,112,792,1,0,0:0:0:0:
128,128,799,1,0,0:0:0:0:
128,128,803,1,0,0:0:0:0:
128,128,807,1,0,0:0:0:0:
128,128,811,1,0,0:0:0:0:
128,128,814,1,0,0:0:0:0:
128,128,818,1,0,0:0:0:0:
128,128,822,1,0,0:0:0:0:
128,128,826,1,0,0:0:0:0:
128,128,829,1,0,0:0:0:0:
128,128,833,1,0,0:0:0:0:
128,128,837,1,0,0:0:0:0:
128,128,841,1,0,0:0:0:0:
128,128,844,1,0,0:0:0:0:
144,128,852,1,0,0:0:0:0:
96,112,1041,5,0,0:0:0:0:
96,112,1044,1,0,0:0:0:0:
96,112,1047,1,0,0:0:0:0:
96,112,1051,1,0,0:0:0:0:
96,112,1055,1,0,0:0:0:0:
96,112,1059,1,0,0:0:0:0:
96,112,1062,1,0,0:0:0:0:
96,112,1066,1,0,0:0:0:0:
96,112,1070,1,0,0:0:0:0:
96,112,1074,1,0,0:0:0:0:
96,112,1077,1,0,0:0:0:0:
96,112,1081,1,0,0:0:0:0:
96,112,1085,1,0,0:0:0:0:
96,112,1089,1,0,0:0:0:0:
96,112,1092,1,0,0:0:0:0:
96,112,1096,1,0,0:0:0:0:
96,112,1100,1,0,0:0:0:0:
96,112,1104,1,0,0:0:0:0:
96,112,1107,1,0,0:0:0:0:
96,112,1111,1,0,0:0:0:0:
96,112,1115,1,0,0:0:0:0:
96,112,1119,1,0,0:0:0:0:
96,112,1122,1,0,0:0:0:0:
96,112,1126,1,0,0:0:0:0:
96,112,1130,1,0,0:0:0:0:
96,112,1134,1,0,0:0:0:0:
96,112,1137,1,0,0:0:0:0:
96,112,1141,1,0,0:0:0:0:
96,112,1145,1,0,0:0:0:0:
96,112,1149,1,0,0:0:0:0:
96,112,1152,1,0,0:0:0:0:
96,112,1156,1,0,0:0:0:0:
96,112,1160,1,0,0:0:0:0:
96,112,1164,1,0,0:0:0:0:
96,112,1167,1,0,0:0:0:0:
112,112,1175,1,0,0:0:0:0:
128,128,1182,1,0,0:0:0:0:
128,128,1186,1,0,0:0:0:0:
128,128,1190,1,0,0:0:0:0:
128,128,1194,1,0,0:0:0:0:
128,128,1197,1,0,0:0:0:0:
128,128,1201,1,0,0:0:0:0:
128,128,1205,1,0,0:0:0:0:
128,128,1209,1,0,0:0:0:0:
128,128,1212,1,0,0:0:0:0:
128,128,1216,1,0,0:0:0:0:
128,128,1220,1,0,0:0:0:0:
128,128,1224,1,0,0:0:0:0:
128,128,1227,1,0,0:0:0:0:
144,128,1235,1,0,0:0:0:0:
96,112,1239,5,0,0:0:0:0:
96,112,1242,1,0,0:0:0:0:
96,112,1245,1,0,0:0:0:0:
96,112,1249,1,0,0:0:0:0:
96,112,1253,1,0,0:0:0:0:
96,112,1257,1,0,0:0:0:0:
96,112,1260,1,0,0:0:0:0:
96,112,1264,1,0,0:0:0:0:
96,112,1268,1,0,0:0:0:0:
96,112,1272,1,0,0:0:0:0:
96,112,1275,1,0,0:0:0:0:
96,112,1279,1,0,0:0:0:0:
96,112,1283,1,0,0:0:0:0:
96,112,1287,1,0,0:0:0:0:
96,112,1290,1,0,0:0:0:0:
96,112,1294,1,0,0:0:0:0:
96,112,1298,1,0,0:0:0:0:
96,112,1302,1,0,0:0:0:0:
96,112,1305,1,0,0:0:0:0:
96,112,1309,1,0,0:0:0:0:
96,112,1313,1,0,0:0:0:0:
96,112,1317,1,0,0:0:0:0:
96,112,1320,1,0,0:0:0:0:
96,112,1324,1,0,0:0:0:0:
96,112,1328,1,0,0:0:0:0:
96,112,1332,1,0,0:0:0:0:
96,112,1335,1,0,0:0:0:0:
96,112,1339,1,0,0:0:0:0:
96,112,1343,1,0,0:0:0:0:
96,112,1347,1,0,0:0:0:0:
96,112,1350,1,0,0:0:0:0:
96,112,1354,1,0,0:0:0:0:
96,112,1358,1,0,0:0:0:0:
96,112,1362,1,0,0:0:0:0:
96,112,1365,1,0,0:0:0:0:
112,112,1373,1,0,0:0:0:0:
128,128,1380,1,0,0:0:0:0:
128,128,1384,1,0,0:0:0:0:
128,128,1388,1,0,0:0:0:0:
128,128,1392,1,0,0:0:0:0:
128,128,1395,1,0,0:0:0:0:
128,128,1399,1,0,0:0:0:0:
128,128,1403,1,0,0:0:0:0:
128,128,1407,1,0,0:0:0:0:
128,128,1410,1,0,0:0:0:0:
128,128,1414,1,0,0:0:0:0:
128,128,1418,1,0,0:0:0:0:
128,128,1422,1,0,0:0:0:0:
128,128,1425,1,0,0:0:0:0:
144,128,1433,1,0,0:0:0:0:
96,112,1570,5,0,0:0:0:0:
96,112,1573,1,0,0:0:0:0:
96,112,1576,1,0,0:0:0:0:
96,112,1580,1,0,0:0:0:0:
96,112,1584,1,0,0:0:0:0:
96,112,1588,1,0,0:0:0:0:
96,112,1591,1,0,0:0:0:0:
96,112,1595,1,0,0:0:0:0:
96,112,1599,1,0,0:0:0:0:
96,112,1603,1,0,0:0:0:0:
96,112,1606,1,0,0:0:0:0:
96,112,1610,1,0,0:0:0:0:
96,112,1614,1,0,0:0:0:0:
96,112,1618,1,0,0:0:0:0:
96,112,1621,1,0,0:0:0:0:
96,112,1625,1,0,0:0:0:0:
96,112,1629,1,0,0:0:0:0:
96,112,1633,1,0,0:0:0:0:
96,112,1636,1,0,0:0:0:0:
96,112,1640,1,0,0:0:0:0:
96,112,1644,1,0,0:0:0:0:
96,112,1648,1,0,0:0:0:0:
96,112,1651,1,0,0:0:0:0:
96,112,1655,1,0,0:0:0:0:
96,112,1659,1,0,0:0:0:0:
96,112,1663,1,0,0:0:0:0:
96,112,1666,1,0,0:0:0:0:
96,112,1670,1,0,0:0:0:0:
96,112,1674,1,0,0:0:0:0:
96,112,1678,1,0,0:0:0:0:
96,112,1681,1,0,0:0:0:0:
96,112,1685,1,0,0:0:0:0:
96,112,1689,1,0,0:0:0:0:
96,112,1693,1,0,0:0:0:0:
96,112,1696,1,0,0:0:0:0:
112,112,1704,1,0,0:0:0:0:
128,128,1711,1,0,0:0:0:0:
128,128,1715,1,0,0:0:0:0:
128,128,1719,1,0,0:0:0:0:
128,128,1723,1,0,0:0:0:0:
128,128,1726,1,0,0:0:0:0:
128,128,1730,1,0,0:0:0:0:
128,128,1734,1,0,0:0:0:0:
128,128,1738,1,0,0:0:0:0:
128,128,1741,1,0,0:0:0:0:
128,128,1745,1,0,0:0:0:0:
128,128,1749,1,0,0:0:0:0:
128,128,1753,1,0,0:0:0:0:
128,128,1756,1,0,0:0:0:0:
144,128,1764,1,0,0:0:0:0:
96,112,1768,5,0,0:0:0:0:
96,112,1771,1,0,0:0:0:0:
96,112,1774,1,0,0:0:0:0:
96,112,1778,1,0,0:0:0:0:
96,112,1782,1,0,0:0:0:0:
96,112,1786,1,0,0:0:0:0:
96,112,1789,1,0,0:0:0:0:
96,112,1793,1,0,0:0:0:0:
96,112,1797,1,0,0:0:0:0:
96,112,1801,1,0,0:0:0:0:
96,112,1804,1,0,0:0:0:0:
96,112,1808,1,0,0:0:0:0:
96,112,1812,1,0,0:0:0:0:
96,112,1816,1,0,0:0:0:0:
96,112,1819,1,0,0:0:0:0:
96,112,1823,1,0,0:0:0:0:
96,112,1827,1,0,0:0:0:0:
96,112,1831,1,0,0:0:0:0:
96,112,1834,1,0,0:0:0:0:
96,112,1838,1,0,0:0:0:0:
96,112,1842,1,0,0:0:0:0:
96,112,1846,1,0,0:0:0:0:
96,112,1849,1,0,0:0:0:0:
96,112,1853,1,0,0:0:0:0:
96,112,1857,1,0,0:0:0:0:
96,112,1861,1,0,0:0:0:0:
96,112,1864,1,0,0:0:0:0:
96,112,1868,1,0,0:0:0:0:
96,112,1872,1,0,0:0:0:0:
96,112,1876,1,0,0:0:0:0:
96,112,1879,1,0,0:0:0:0:
96,112,1883,1,0,0:0:0:0:
96,112,1887,1,0,0:0:0:0:
96,112,1891,1,0,0:0:0:0:
96,112,1894,1,0,0:0:0:0:
112,112,1902,1,0,0:0:0:0:
128,128,1909,1,0,0:0:0:0:
128,128,1913,1,0,0:0:0:0:
128,128,1917,1,0,0:0:0:0:
128,128,1921,1,0,0:0:0:0:
128,128,1924,1,0,0:0:0:0:
128,128,1928,1,0,0:0:0:0:
128,128,1932,1,0,0:0:0:0:
128,128,1936,1,0,0:0:0:0:
128,128,1939,1,0,0:0:0:0:
128,128,1943,1,0,0:0:0:0:
128,128,1947,1,0,0:0:0:0:
128,128,1951,1,0,0:0:0:0:
128,128,1954,1,0,0:0:0:0:
144,128,1962,1,0,0:0:0:0:
96,112,2030,5,0,0:0:0:0:
96,112,2033,1,0,0:0:0:0:
96,112,2036,1,0,0:0:0:0:
96,112,2040,1,0,0:0:0:0:
96,112,2044,1,0,0:0:0:0:
96,112,2048,1,0,0:0:0:0:
96,112,2051,1,0,0:0:0:0:
96,112,2055,1,0,0:0:0:0:
96,112,2059,1,0,0:0:0:0:
96,112,2063,1,0,0:0:0:0:
96,112,2066,1,0,0:0:0:0:
96,112,2070,1,0,0:0:0:0:
96,112,2074,1,0,0:0:0:0:
96,112,2078,1,0,0:0:0:0:
96,112,2081,1,0,0:0:0:0:
96,112,2085,1,0,0:0:0:0:
96,112,2089,1,0,0:0:0:0:
96,112,2093,1,0,0:0:0:0:
96,112,2096,1,0,0:0:0:0:
96,112,2100,1,0,0:0:0:0:
96,112,2104,1,0,0:0:0:0:
96,112,2108,1,0,0:0:0:0:
96,112,2111,1,0,0:0:0:0:
96,112,2115,1,0,0:0:0:0:
96,112,2119,1,0,0:0:0:0:
96,112,2123,1,0,0:0:0:0:
96,112,2126,1,0,0:0:0:0:
96,112,2130,1,0,0:0:0:0:
96,112,2134,1,0,0:0:0:0:
96,112,2138,1,0,0:0:0:0:
96,112,2141,1,0,0:0:0:0:
96,112,2145,1,0,0:0:0:0:
96,112,2149,1,0,0:0:0:0:
96,112,2153,1,0,0:0:0:0:
96,112,2156,1,0,0:0:0:0:
112,112,2164,1,0,0:0:0:0:
128,128,2171,1,0,0:0:0:0:
128,128,2175,1,0,0:0:0:0:
128,128,2179,1,0,0:0:0:0:
128,128,2183,1,0,0:0:0:0:
128,128,2186,1,0,0:0:0:0:
128,128,2190,1,0,0:0:0:0:
128,128,2194,1,0,0:0:0:0:
128,128,2198,1,0,0:0:0:0:
128,128,2201,1,0,0:0:0:0:
128,128,2205,1,0,0:0:0:0:
128,128,2209,1,0,0:0:0:0:
128,128,2213,1,0,0:0:0:0:
128,128,2216,1,0,0:0:0:0:
144,128,2224,1,0,0:0:0:0:
96,112,2228,5,0,0:0:0:0:
96,112,2231,1,0,0:0:0:0:
96,112,2234,1,0,0:0:0:0:
96,112,2238,1,0,0:0:0:0:
96,112,2242,1,0,0:0:0:0:
96,112,2246,1,0,0:0:0:0:
96,112,2249,1,0,0:0:0:0:
96,112,2253,1,0,0:0:0:0:
96,112,2257,1,0,0:0:0:0:
96,112,2261,1,0,0:0:0:0:
96,112,2264,1,0,0:0:0:0:
96,112,2268,1,0,0:0:0:0:
96,112,2272,1,0,0:0:0:0:
96,112,2276,1,0,0:0:0:0:
96,112,2279,1,0,0:0:0:0:
96,112,2283,1,0,0:0:0:0:
96,112,2287,1,0,0:0:0:0:
96,112,2291,1,0,0:0:0:0:
96,112,2294,1,0,0:0:0:0:
96,112,2298,1,0,0:0:0:0:
96,112,2302,1,0,0:0:0:0:
96,112,2306,1,0,0:0:0:0:
96,112,2309,1,0,0:0:0:0:
96,112,2313,1,0,0:0:0:0:
96,112,2317,1,0,0:0:0:0:
96,112,2321,1,0,0:0:0:0:
96,112,2324,1,0,0:0:0:0:
96,112,2328,1,0,0:0:0:0:
96,112,2332,1,0,0:0:0:0:
96,112,2336,1,0,0:0:0:0:
96,112,2339,1,0,0:0:0:0:
96,112,2343,1,0,0:0:0:0:
96,112,2347,1,0,0:0:0:0:
96,112,2351,1,0,0:0:0:0:
96,112,2354,1,0,0:0:0:0:
112,112,2362,1,0,0:0:0:0:
128,128,2369,1,0,0:0:0:0:
128,128,2373,1,0,0:0:0:0:
128,128,2377,1,0,0:0:0:0:
128,128,2381,1,0,0:0:0:0:
128,128,2384,1,0,0:0:0:0:
128,128,2388,1,0,0:0:0:0:
128,128,2392,1,0,0:0:0:0:
128,128,2396,1,0,0:0:0:0:
128,128,2399,1,0,0:0:0:0:
128,128,2403,1,0,0:0:0:0:
128,128,2407,1,0,0:0:0:0:
128,128,2411,1,0,0:0:0:0:
128,128,2414,1,0,0:0:0:0:
144,128,2422,1,0,0:0:0:0:
96,112,2611,5,0,0:0:0:0:
96,112,2614,1,0,0:0:0:0:
96,112,2617,1,0,0:0:0:0:
96,112,2621,1,0,0:0:0:0:
96,112,2625,1,0,0:0:0:0:
96,112,2629,1,0,0:0:0:0:
96,112,2632,1,0,0:0:0:0:
96,112,2636,1,0,0:0:0:0:
96,112,2640,1,0,0:0:0:0:
96,112,2644,1,0,0:0:0:0:
96,112,2647,1,0,0:0:0:0:
96,112,2651,1,0,0:0:0:0:
96,112,2655,1,0,0:0:0:0:
96,112,2659,1,0,0:0:0:0:
96,112,2662,1,0,0:0:0:0:
96,112,2666,1,0,0:0:0:0:
96,112,2670,1,0,0:0:0:0:
96,112,2674,1,0,0:0:0:0:
96,112,2677,1,0,0:0:0:0:
96,112,2681,1,0,0:0:0:0:
96,112,2685,1,0,0:0:0:0:
96,112,2689,1,0,0:0:0:0:
96,112,2692,1,0,0:0:0:0:
96,112,2696,1,0,0:0:0:0:
96,112,2700,1,0,0:0:0:0:
96,112,2704,1,0,0:0:0:0:
96,112,2707,1,0,0:0:0:0:
96,112,2711,1,0,0:0:0:0:
96,112,2715,1,0,0:0:0:0:
96,112,2719,1,0,0:0:0:0:
96,112,2722,1,0,0:0:0:0:
96,112,2726,1,0,0:0:0:0:
96,112,2730,1,0,0:0:0:0:
96,112,2734,1,0,0:0:0:0:
96,112,2737,1,0,0:0:0:0:
112,112,2745,1,0,0:0:0:0:
128,128,2752,1,0,0:0:0:0:
128,128,2756,1,0,0:0:0:0:
128,128,2760,1,0,0:0:0:0:
128,128,2764,1,0,0:0:0:0:
128,128,2767,1,0,0:0:0:0:
128,128,2771,1,0,0:0:0:0:
128,128,2775,1,0,0:0:0:0:
128,128,2779,1,0,0:0:0:0:
128,128,2782,1,0,0:0:0:0:
128,128,2786,1,0,0:0:0:0:
128,128,2790,1,0,0:0:0:0:
128,128,2794,1,0,0:0:0:0:
128,128,2797,1,0,0:0:0:0:
144,128,2805,1,0,0:0:0:0:
96,112,2809,5,0,0:0:0:0:
96,112,2812,1,0,0:0:0:0:
96,112,2815,1,0,0:0:0:0:
96,112,2819,1,0,0:0:0:0:
96,112,2823,1,0,0:0:0:0:
96,112,2827,1,0,0:0:0:0:
96,112,2830,1,0,0:0:0:0:
96,112,2834,1,0,0:0:0:0:
96,112,2838,1,0,0:0:0:0:
96,112,2842,1,0,0:0:0:0:
96,112,2845,1,0,0:0:0:0:
96,112,2849,1,0,0:0:0:0:
96,112,2853,1,0,0:0:0:0:
96,112,2857,1,0,0:0:0:0:
96,112,2860,1,0,0:0:0:0:
96,112,2864,1,0,0:0:0:0:
96,112,2868,1,0,0:0:0:0:
96,112,2872,1,0,0:0:0:0:
96,112,2875,1,0,0:0:0:0:
96,112,2879,1,0,0:0:0:0:
96,112,2883,1,0,0:0:0:0:
96,112,2887,1,0,0:0:0:0:
96,112,2890,1,0,0:0:0:0:
96,112,2894,1,0,0:0:0:0:
96,112,2898,1,0,0:0:0:0:
96,112,2902,1,0,0:0:0:0:
96,112,2905,1,0,0:0:0:0:
96,112,2909,1,0,0:0:0:0:
96,112,2913,1,0,0:0:0:0:
96,112,2917,1,0,0:0:0:0:
96,112,2920,1,0,0:0:0:0:
96,112,2924,1,0,0:0:0:0:
96,112,2928,1,0,0:0:0:0:
96,112,2932,1,0,0:0:0:0:
96,112,2935,1,0,0:0:0:0:
112,112,2943,1,0,0:0:0:0:
128,128,2950,1,0,0:0:0:0:
128,128,2954,1,0,0:0:0:0:
128,128,2958,1,0,0:0:0:0:
128,128,2962,1,0,0:0:0:0:
128,128,2965,1,0,0:0:0:0:
128,128,2969,1,0,0:0:0:0:
128,128,2973,1,0,0:0:0:0:
128,128,2977,1,0,0:0:0:0:
128,128,2980,1,0,0:0:0:0:
128,128,2984,1,0,0:0:0:0:
128,128,2988,1,0,0:0:0:0:
128,128,2992,1,0,0:0:0:0:
128,128,2995,1,0,0:0:0:0:
144,128,3003,1,0,0:0:0:0:
96,112,3033,5,0,0:0:0:0:
96,112,3036,1,0,0:0:0:0:
96,112,3039,1,0,0:0:0:0:
96,112,3043,1,0,0:0:0:0:
96,112,3047,1,0,0:0:0:0:
96,112,3051,1,0,0:0:0:0:
96,112,3054,1,0,0:0:0:0:
96,112,3058,1,0,0:0:0:0:
96,112,3062,1,0,0:0:0:0:
96,112,3066,1,0,0:0:0:0:
96,112,3069,1,0,0:0:0:0:
96,112,3073,1,0,0:0:0:0:
96,112,3077,1,0,0:0:0:0:
96,112,3081,1,0,0:0:0:0:
96,112,3084,1,0,0:0:0:0:
96,112,3088,1,0,0:0:0:0:
96,112,3092,1,0,0:0:0:0:
96,112,3096,1,0,0:0:0:0:
96,112,3099,1,0,0:0:0:0:
96,112,3103,1,0,0:0:0:0:
96,112,3107,1,0,0:0:0:0:
96,112,3111,1,0,0:0:0:0:
96,112,3114,1,0,0:0:0:0:
96,112,3118,1,0,0:0:0:0:
96,112,3122,1,0,0:0:0:0:
96,112,3126,1,0,0:0:0:0:
96,112,3129,1,0,0:0:0:0:
96,112,3133,1,0,0:0:0:0:
96,112,3137,1,0,0:0:0:0:
96,112,3141,1,0,0:0:0:0:
96,112,3144,1,0,0:0:0:0:
96,112,3148,1,0,0:0:0:0:
96,112,3152,1,0,0:0:0:0:
96,112,3156,1,0,0:0:0:0:
96,112,3159,1,0,0:0:0:0:
112,112,3167,1,0,0:0:0:0:
128,128,3174,1,0,0:0:0:0:
128,128,3178,1,0,0:0:0:0:
128,128,3182,1,0,0:0:0:0:
128,128,3186,1,0,0:0:0:0:
128,128,3189,1,0,0:0:0:0:
128,128,3193,1,0,0:0:0:0:
128,128,3197,1,0,0:0:0:0:
128,128,3201,1,0,0:0:0:0:
128,128,3204,1,0,0:0:0:0:
128,128,3208,1,0,0:0:0:0:
128,128,3212,1,0,0:0:0:0:
128,128,3216,1,0,0:0:0:0:
128,128,3219,1,0,0:0:0:0:
144,128,3227,1,0,0:0:0:0:
96,112,3231,5,0,0:0:0:0:
96,112,3234,1,0,0:0:0:0:
96,112,3237,1,0,0:0:0:0:
96,112,3241,1,0,0:0:0:0:
96,112,3245,1,0,0:0:0:0:
96,112,3249,1,0,0:0:0:0:
96,112,3252,1,0,0:0:0:0:
96,112,3256,1,0,0:0:0:0:
96,112,3260,1,0,0:0:0:0:
96,112,3264,1,0,0:0:0:0:
96,112,3267,1,0,0:0:0:0:
96,112,3271,1,0,0:0:0:0:
96,112,3275,1,0,0:0:0:0:
96,112,3279,1,0,0:0:0:0:
96,112,3282,1,0,0:0:0:0:
96,112,3286,1,0,0:0:0:0:
96,112,3290,1,0,0:0:0:0:
96,112,3294,1,0,0:0:0:0:
96,112,3297,1,0,0:0:0:0:
96,112,3301,1,0,0:0:0:0:
96,112,3305,1,0,0:0:0:0:
96,112,3309,1,0,0:0:0:0:
96,112,3312,1,0,0:0:0:0:
96,112,3316,1,0,0:0:0:0:
96,112,3320,1,0,0:0:0:0:
96,112,3324,1,0,0:0:0:0:
96,112,3327,1,0,0:0:0:0:
96,112,3331,1,0,0:0:0:0:
96,112,3335,1,0,0:0:0:0:
96,112,3339,1,0,0:0:0:0:
96,112,3342,1,0,0:0:0:0:
96,112,3346,1,0,0:0:0:0:
96,112,3350,1,0,0:0:0:0:
96,112,3354,1,0,0:0:0:0:
96,112,3357,1,0,0:0:0:0:
112,112,3365,1,0,0:0:0:0:
128,128,3372,1,0,0:0:0:0:
128,128,3376,1,0,0:0:0:0:
128,128,3380,1,0,0:0:0:0:
128,128,3384,1,0,0:0:0:0:
128,128,3387,1,0,0:0:0:0:
128,128,3391,1,0,0:0:0:0:
128,128,3395,1,0,0:0:0:0:
128,128,3399,1,0,0:0:0:0:
128,128,3402,1,0,0:0:0:0:
128,128,3406,1,0,0:0:0:0:
128,128,3410,1,0,0:0:0:0:
128,128,3414,1,0,0:0:0:0:
128,128,3417,1,0,0:0:0:0:
144,128,3425,1,0,0:0:0:0:
96,112,3493,5,0,0:0:0:0:
96,112,3496,1,0,0:0:0:0:
96,112,3499,1,0,0:0:0:0:
96,112,3503,1,0,0:0:0:0:
96,112,3507,1,0,0:0:0:0:
96,112,3511,1,0,0:0:0:0:
96,112,3514,1,0,0:0:0:0:
96,112,3518,1,0,0:0:0:0:
96,112,3522,1,0,0:0:0:0:
96,112,3526,1,0,0:0:0:0:
96,112,3529,1,0,0:0:0:0:
96,112,3533,1,0,0:0:0:0:
96,112,3537,1,0,0:0:0:0:
96,112,3541,1,0,0:0:0:0:
96,112,3544,1,0,0:0:0:0:
96,112,3548,1,0,0:0:0:0:
96,112,3552,1,0,0:0:0:0:
96,112,3556,1,0,0:0:0:0:
96,112,3559,1,0,0:0:0:0:
96,112,3563,1,0,0:0:0:0:
96,112,3567,1,0,0:0:0:0:
96,112,3571,1,0,0:0:0:0:
96,112,3574,1,0,0:0:0:0:
96,112,3578,1,0,0:0:0:0:
96,112,3582,1,0,0:0:0:0:
96,112,3586,1,0,0:0:0:0:
96,112,3589,1,0,0:0:0:0:
96,112,3593,1,0,0:0:0:0:
96,112,3597,1,0,0:0:0:0:
96,112,3601,1,0,0:0:0:0:
96,112,3604,1,0,0:0:0:0:
96,112,3608,1,0,0:0:0:0:
96,112,3612,1,0,0:0:0:0:
96,112,3616,1,0,0:0:0:0:
96,112,3619,1,0,0:0:0:0:
112,112,3627,1,0,0:0:0:0:
128,128,3634,1,0,0:0:0:0:
128,128,3638,1,0,0:0:0:0:
128,128,3642,1,0,0:0:0:0:
128,128,3646,1,0,0:0:0:0:
128,128,3649,1,0,0:0:0:0:
128,128,3653,1,0,0:0:0:0:
128,128,3657,1,0,0:0:0:0:
128,128,3661,1,0,0:0:0:0:
128,128,3664,1,0,0:0:0:0:
128,128,3668,1,0,0:0:0:0:
128,128,3672,1,0,0:0:0:0:
128,128,3676,1,0,0:0:0:0:
128,128,3679,1,0,0:0:0:0:
144,128,3687,1,0,0:0:0:0:
96,112,3691,5,0,0:0:0:0:
96,112,3694,1,0,0:0:0:0:
96,112,3697,1,0,0:0:0:0:
96,112,3701,1,0,0:0:0:0:
96,112,3705,1,0,0:0:0:0:
96,112,3709,1,0,0:0:0:0:
96,112,3712,1,0,0:0:0:0:
96,112,3716,1,0,0:0:0:0:
96,112,3720,1,0,0:0:0:0:
96,112,3724,1,0,0:0:0:0:
96,112,3727,1,0,0:0:0:0:
96,112,3731,1,0,0:0:0:0:
96,112,3735,1,0,0:0:0:0:
96,112,3739,1,0,0:0:0:0:
96,112,3742,1,0,0:0:0:0:
96,112,3746,1,0,0:0:0:0:
96,112,3750,1,0,0:0:0:0:
96,112,3754,1,0,0:0:0:0:
96,112,3757,1,0,0:0:0:0:
96,112,3761,1,0,0:0:0:0:
96,112,3765,1,0,0:0:0:0:
96,112,3769,1,0,0:0:0:0:
96,112,3772,1,0,0:0:0:0:
96,112,3776,1,0,0:0:0:0:
96,112,3780,1,0,0:0:0:0:
96,112,3784,1,0,0:0:0:0:
96,112,3787,1,0,0:0:0:0:
96,112,3791,1,0,0:0:0:0:
96,112,3795,1,0,0:0:0:0:
96,112,3799,1,0,0:0:0:0:
96,112,3802,1,0,0:0:0:0:
96,112,3806,1,0,0:0:0:0:
96,112,3810,1,0,0:0:0:0:
96,112,3814,1,0,0:0:0:0:
96,112,3817,1,0,0:0:0:0:
112,112,3825,1,0,0:0:0:0:
128,128,3832,1,0,0:0:0:0:
128,128,3836,1,0,0:0:0:0:
128,128,3840,1,0,0:0:0:0:
128,128,3844,1,0,0:0:0:0:
128,128,3847,1,0,0:0:0:0:
128,128,3851,1,0,0:0:0:0:
128,128,3855,1,0,0:0:0:0:
128,128,3859,1,0,0:0:0:0:
128,128,3862,1,0,0:0:0:0:
128,128,3866,1,0,0:0:0:0:
128,128,3870,1,0,0:0:0:0:
128,128,3874,1,0,0:0:0:0:
128,128,3877,1,0,0:0:0:0:
144,128,3885,1,0,0:0:0:0:
96,112,4074,5,0,0:0:0:0:
96,112,4077,1,0,0:0:0:0:
96,112,4080,1,0,0:0:0:0:
96,112,4084,1,0,0:0:0:0:
96,112,4088,1,0,0:0:0:0:
96,112,4092,1,0,0:0:0:0:
96,112,4095,1,0,0:0:0:0:
96,112,4099,1,0,0:0:0:0:
96,112,4103,1,0,0:0:0:0:
96,112,4107,1,0,0:0:0:0:
96,112,4110,1,0,0:0:0:0:
96,112,4114,1,0,0:0:0:0:
96,112,4118,1,0,0:0:0:0:
96,112,4122,1,0,0:0:0:0:
96,112,4125,1,0,0:0:0:0:
96,112,4129,1,0,0:0:0:0:
96,112,4133,1,0,0:0:0:0:
96,112,4137,1,0,0:0:0:0:
96,112,4140,1,0,0:0:0:0:
96,112,4144,1,0,0:0:0:0:
96,112,4148,1,0,0:0:0:0:
96,112,4152,1,0,0:0:0:0:
96,112,4155,1,0,0:0:0:0:
96,112,4159,1,0,0:0:0:0:
96,112,4163,1,0,0:0:0:0:
96,112,4167,1,0,0:0:0:0:
96,112,4170,1,0,0:0:0:0:
96,112,4174,1,0,0:0:0:0:
96,112,4178,1,0,0:0:0:0:
96,112,4182,1,0,0:0:0:0:
96,112,4185,1,0,0:0:0:0:
96,112,4189,1,0,0:0:0:0:
96,112,4193,1,0,0:0:0:0:
96,112,4197,1,0,0:0:0:0:
96,112,4200,1,0,0:0:0:0:
112,112,4208,1,0,0:0:0:0:
128,128,4215,1,0,0:0:0:0:
128,128,4219,1,0,0:0:0:0:
128,128,4223,1,0,0:0:0:0:
128,128,4227,1,0,0:0:0:0:
128,128,4230,1,0,0:0:0:0:
128,128,4234,1,0,0:0:0:0:
128,128,4238,1,0,0:0:0:0:
128,128,4242,1,0,0:0:0:0:
128,128,4245,1,0,0:0:0:0:
128,128,4249,1,0,0:0:0:0:
128,128,4253,1,0,0:0:0:0:
128,128,4257,1,0,0:0:0:0:
128,128,4260,1,0,0:0:0:0:
144,128,4268,1,0,0:0:0:0:
96,112,4272,5,0,0:0:0:0:
96,112,4275,1,0,0:0:0:0:
96,112,4278,1,0,0:0:0:0:
96,112,4282,1,0,0:0:0:0:
96,112,4286,1,0,0:0:0:0:
96,112,4290,1,0,0:0:0:0:
96,112,4293,1,0,0:0:0:0:
96,112,4297,1,0,0:0:0:0:
96,112,4301,1,0,0:0:0:0:
96,112,4305,1,0,0:0:0:0:
96,112,4308,1,0,0:0:0:0:
96,112,4312,1,0,0:0:0:0:
96,112,4316,1,0,0:0:0:0:
96,112,4320,1,0,0:0:0:0:
96,112,4323,1,0,0:0:0:0:
96,112,4327,1,0,0:0:0:0:
96,112,4331,1,0,0:0:0:0:
96,112,4335,1,0,0:0:0:0:
96,112,4338,1,0,0:0:0:0:
96,112,4342,1,0,0:0:0:0:
96,112,4346,1,0,0:0:0:0:
96,112,4350,1,0,0:0:0:0:
96,112,4353,1,0,0:0:0:0:
96,112,4357,1,0,0:0:0:0:
96,112,4361,1,0,0:0:0:0:
96,112,4365,1,0,0:0:0:0:
96,112,4368,1,0,0:0:0:0:
96,112,4372,1,0,0:0:0:0:
96,112,4376,1,0,0:0:0:0:
96,112,4380,1,0,0:0:0:0:
96,112,4383,1,0,0:0:0:0:
96,112,4387,1,0,0:0:0:0:
96,112,4391,1,0,0:0:0:0:
96,112,4395,1,0,0:0:0:0:
96,112,4398,1,0,0:0:0:0:
112,112,4406,1,0,0:0:0:0:
128,128,4413,1,0,0:0:0:0:
128,128,4417,1,0,0:0:0:0:
128,128,4421,1,0,0:0:0:0:
128,128,4425,1,0,0:0:0:0:
128,128,4428,1,0,0:0:0:0:
128,128,4432,1,0,0:0:0:0:
128,128,4436,1,0,0:0:0:0:
128,128,4440,1,0,0:0:0:0:
128,128,4443,1,0,0:0:0:0:
128,128,4447,1,0,0:0:0:0:
128,128,4451,1,0,0:0:0:0:
128,128,4455,1,0,0:0:0:0:
128,128,4458,1,0,0:0:0:0:
144,128,4466,1,0,0:0:0:0:
256,192,4773,12,0,4893,0:0:0:0:
256,192,4893,12,0,5013,0:0:0:0:
256,192,5253,12,0,5313,0:0:0:0:
256,192,5553,12,0,5673,0:0:0:0:
256,192,5973,12,0,6093,0:0:0:0:
256,192,6273,12,0,6393,0:0:0:0:
256,192,6513,12,0,6633,0:0:0:0:
256,192,6813,12,0,6933,0:0:0:0:
256,192,7113,12,0,7233,0:0:0:0:
256,192,7353,12,0,7473,0:0:0:0:
256,192,7533,12,0,7653,0:0:0:0:
256,192,7773,12,0,7893,0:0:0:0:
256,192,8133,12,0,8253,0:0:0:0:
256,192,8433,12,0,8553,0:0:0:0:
256,192,8673,12,0,8793,0:0:0:0:
256,192,8973,12,0,9093,0:0:0:0:
256,192,9273,12,0,9393,0:0:0:0:
256,192,9513,12,0,9633,0:0:0:0:
256,192,9693,12,0,9813,0:0:0:0:
256,192,9933,12,0,10053,0:0:0:0:
256,192,10293,12,0,10413,0:0:0:0:
256,192,10593,12,0,10713,0:0:0:0:
256,192,10833,12,0,10953,0:0:0:0:
256,192,11133,12,0,11253,0:0:0:0:
256,192,11433,12,0,11553,0:0:0:0:
256,192,11673,12,0,11793,0:0:0:0:
256,192,11853,12,0,11973,0:0:0:0:
256,192,12093,12,0,12213,0:0:0:0:
256,192,12393,12,0,12513,0:0:0:0:
256,192,12693,12,0,12813,0:0:0:0:
256,192,12933,12,0,13053,0:0:0:0:
256,192,13233,12,0,13353,0:0:0:0:
256,192,13533,12,0,13653,0:0:0:0:
256,192,13773,12,0,13893,0:0:0:0:
256,192,13953,12,0,14073,0:0:0:0:
256,192,14193,12,0,14313,0:0:0:0:
256,192,14553,12,0,14673,0:0:0:0:
256,192,14853,12,0,14973,0:0:0:0:
256,192,15093,12,0,15213,0:0:0:0:
256,192,15393,12,0,15513,0:0:0:0:
256,192,15693,12,0,15813,0:0:0:0:
256,192,16113,12,0,16233,0:0:0:0:
256,192,16353,12,0,16473,0:0:0:0:
256,192,16713,12,0,16833,0:0:0:0:
256,192,17013,12,0,17133,0:0:0:0:
256,192,17253,12,0,17373,0:0:0:0:
256,192,17613,12,0,17733,0:0:0:0:
256,192,17913,12,0,18033,0:0:0:0:
256,192,18153,12,0,18273,0:0:0:0:
256,192,18453,12,0,18573,0:0:0:0:
256,192,18753,12,0,18873,0:0:0:0:
256,192,19173,12,0,19293,0:0:0:0:
256,192,19413,12,0,19533,0:0:0:0:
256,192,19773,12,0,19893,0:0:0:0:
256,192,20073,12,0,20193,0:0:0:0:
256,192,20313,12,0,20433,0:0:0:0:
256,192,20673,12,0,20793,0:0:0:0:
256,192,20973,12,0,21093,0:0:0:0:
256,192,21213,12,0,21333,0:0:0:0:
256,192,21513,12,0,21633,0:0:0:0:
256,192,21813,12,0,21933,0:0:0:0:
256,192,22233,12,0,22353,0:0:0:0:
256,192,22473,12,0,22593,0:0:0:0:
256,192,22833,12,0,22953,0:0:0:0:
256,192,23133,12,0,23253,0:0:0:0:
256,192,23373,12,0,23493,0:0:0:0:
256,192,23733,12,0,23853,0:0:0:0:
256,192,24033,12,0,24153,0:0:0:0:
256,192,24453,12,0,24573,0:0:0:0:
256,192,24693,12,0,24813,0:0:0:0:
256,192,25053,12,0,25173,0:0:0:0:
256,192,25353,12,0,25473,0:0:0:0:
256,192,25593,12,0,25713,0:0:0:0:
256,192,25953,12,0,26073,0:0:0:0:
256,192,26253,12,0,26373,0:0:0:0:
256,192,26493,12,0,26613,0:0:0:0:
256,192,26793,12,0,26913,0:0:0:0:
256,192,27093,12,0,27213,0:0:0:0:
256,192,27513,12,0,27633,0:0:0:0:
256,192,27753,12,0,27873,0:0:0:0:
256,192,28113,12,0,28233,0:0:0:0:
256,192,28413,12,0,28533,0:0:0:0:
256,192,28653,12,0,28773,0:0:0:0:
256,192,29013,12,0,29133,0:0:0:0:
256,192,29313,12,0,29433,0:0:0:0:
256,192,29733,12,0,29853,0:0:0:0:
256,192,29973,12,0,30093,0:0:0:0:
256,192,30333,12,0,30453,0:0:0:0:
256,192,30633,12,0,30753,0:0:0:0:
256,192,30873,12,0,30993,0:0:0:0:
256,192,31233,12,0,31353,0:0:0:0:
256,192,31713,12,0,31773,0:0:0:0:
256,192,31953,12,0,32013,0:0:0:0:
256,192,32253,12,0,32313,0:0:0:0:
256,192,32373,12,0,32433,0:0:0:0:
256,192,32493,12,0,32553,0:0:0:0:
256,192,32793,12,0,32913,0:0:0:0:
256,192,33093,12,0,33153,0:0:0:0:
256,192,33573,12,0,33633,0:0:0:0:
256,192,34173,12,0,34233,0:0:0:0:
272,80,34773,5,0,0:0:0:0:
