osu file format v14

[General]
AudioFilename: audio.mp3
AudioLeadIn: 0
PreviewTime: -1
Countdown: 1
SampleSet: Soft
StackLeniency: 0.7
Mode: 0
LetterboxInBreaks: 0
WidescreenStoryboard: 0

[Editor]
DistanceSpacing: 1.2
BeatDivisor: 4
GridSize: 16
TimelineZoom: 3.599999

[Metadata]
Title:Taiatari*Romance feat. Ayuru Ouhashi (Short Ver.)
TitleUnicode:たいあたり★ロマンス feat. Ayuru Ouhashi (Short Ver.)
Artist:Trial & Error
ArtistUnicode:Trial & Error
Creator:DogeDrxvmik
Version:Extra
Source:
Tags:drxvmik, drxvmicek, drxo, dogedrxvmik, taitai*romance,たいあたり★ロマンス, trial & error, trial error, featured artist, feat. ayuru ouhashi, short version, ume love story, ume love story web series
BeatmapID:1790927
BeatmapSetID:857165

[Difficulty]
HPDrainRate:5
CircleSize:4
OverallDifficulty:8.7
ApproachRate:9.2
SliderMultiplier:1.4
SliderTickRate:1

[Events]
//Background and Video events
0,0,"1280x720_cute-anime-girlNEWBGPOGFORTAITARI.jpg"
//Break Periods
//Storyboard Layer 0 (Background)
//Storyboard Layer 1 (Fail)
//Storyboard Layer 2 (Pass)
//Storyboard Layer 3 (Foreground)
//Storyboard Layer 4 (Overlay)
//Storyboard Sound Samples

[TimingPoints]
393,352.941176470588,4,2,0,100,1,0
393,-133.333333333333,4,2,0,100,0,0
5687,-100,4,2,0,100,0,0
6040,-66.6666666666667,4,2,0,100,0,0
17334,-83.3333333333333,4,2,0,100,0,0
39480,-83.3333333333333,4,2,0,5,0,0
39745,-83.3333333333333,4,2,0,100,0,0
39922,-222.222222222221,4,2,0,100,0,0
45569,-100,4,2,0,100,0,0
52539,-100,4,2,0,5,0,0
52628,-62.5,4,2,0,100,0,1
55362,-62.5,4,2,0,5,0,1
55451,-62.5,4,2,0,100,0,1
57656,-62.5,4,2,0,5,0,1
57745,-62.5,4,2,0,100,0,1
61009,-62.5,4,2,0,5,0,1
61098,-62.5,4,2,0,100,0,1
63480,-62.5,4,2,0,5,0,1
63569,-62.5,4,2,0,100,0,1
75216,-66.6666666666667,4,2,0,100,0,0
79362,-66.6666666666667,4,2,0,5,0,0
79451,-66.6666666666667,4,2,0,100,0,0

[Colours]
Combo1 : 78,219,36
Combo2 : 255,98,98
Combo3 : 13,128,0
Combo4 : 242,24,57
SliderBorder : 255,250,103
SliderTrackOverride : 0,0,15

[HitObjects]
122,76,393,6,0,P|114:122|106:293,1,210.000008010865,8|0,0:0|0:0,0:0:0:0:
457,142,1804,2,0,B|312:154|456:205|244:189,1,210.000008010865,8|0,0:0|0:0,0:0:0:0:
107,55,3216,2,0,B|152:64|152:64|121:249,1,210.000008010865,8|0,0:0|0:0,0:0:0:0:
326,69,4628,6,0,P|285:59|234:103,1,105.000004005432,8|0,0:0|0:0,0:0:0:0:
364,274,5157,1,0,0:0:0:0:
440,45,5510,1,0,0:0:0:0:
392,115,5687,2,0,L|381:199,1,70,10|0,0:0|0:0,0:0:0:0:
203,286,6040,5,8,0:0:0:0:
252,83,6216,1,2,0:0:0:0:
296,285,6392,1,8,0:0:0:0:
252,71,6569,1,0,0:0:0:0:
133,184,6745,5,8,0:0:0:0:
373,211,6922,1,2,0:0:0:0:
154,97,7098,1,8,0:0:0:0:
385,220,7275,1,0,0:0:0:0:
314,51,7451,5,0,0:0:0:0:
261,272,7628,1,0,0:0:0:0:
232,65,7804,1,0,0:0:0:0:
384,109,7981,2,0,L|503:119,1,105.000004005432
488,117,8245,1,0,0:0:0:0:
488,117,8334,5,0,0:0:0:0:
274,188,8510,1,0,0:0:0:0:
486,218,8687,1,0,0:0:0:0:
391,61,8863,5,0,0:0:0:0:
340,276,9040,1,0,0:0:0:0:
393,50,9216,1,0,0:0:0:0:
430,281,9392,1,0,0:0:0:0:
228,157,9569,5,0,0:0:0:0:
485,165,9745,1,0,0:0:0:0:
232,252,9922,1,0,0:0:0:0:
498,163,10098,1,0,0:0:0:0:
241,50,10275,6,0,L|230:157,1,105.000004005432
384,282,10628,2,0,L|373:159,1,105.000004005432
374,177,10892,1,0,0:0:0:0:
374,177,10981,5,0,0:0:0:0:
224,263,11157,1,0,0:0:0:0:
474,196,11334,1,0,0:0:0:0:
277,125,11510,1,0,0:0:0:0:
277,125,11598,1,0,0:0:0:0:
277,125,11687,5,0,0:0:0:0:
87,189,11863,1,0,0:0:0:0:
336,215,12040,1,0,0:0:0:0:
134,77,12216,1,0,0:0:0:0:
194,280,12392,1,0,0:0:0:0:
231,71,12569,1,0,0:0:0:0:
83,227,12745,1,0,0:0:0:0:
283,221,12922,1,0,0:0:0:0:
107,326,13098,5,0,0:0:0:0:
179,130,13275,1,0,0:0:0:0:
201,345,13451,1,0,0:0:0:0:
87,210,13628,1,0,0:0:0:0:
276,194,13804,1,0,0:0:0:0:
96,318,13981,1,0,0:0:0:0:
169,133,14157,1,0,0:0:0:0:
266,290,14334,1,0,0:0:0:0:
273,109,14510,5,0,0:0:0:0:
152,258,14687,1,0,0:0:0:0:
188,86,14863,1,0,0:0:0:0:
270,254,15040,1,0,0:0:0:0:
78,156,15216,2,0,L|85:30,1,105.000004005432
324,172,15569,5,0,0:0:0:0:
178,88,15745,1,0,0:0:0:0:
470,226,15922,2,0,B|337:224|452:282|228:265,1,210.000008010865
178,88,16451,2,0,P|269:89|302:192,1,210.000008010865
59,248,16981,2,0,L|67:129,1,105.000004005432
137,71,17334,6,0,P|196:84|219:186,1,167.999994873047
296,66,17863,1,0,0:0:0:0:
437,144,18040,2,0,P|375:166|354:264,1,167.999994873047
351,257,18481,1,0,0:0:0:0:
351,257,18569,1,0,0:0:0:0:
238,66,18745,6,0,L|217:253,1,167.999994873047
331,77,19275,1,0,0:0:0:0:
457,211,19451,2,0,P|370:209|333:278,1,167.999994873047
333,272,19892,1,0,0:0:0:0:
333,272,19981,1,0,0:0:0:0:
255,81,20157,5,0,0:0:0:0:
212,241,20334,1,0,0:0:0:0:
256,72,20510,1,0,0:0:0:0:
126,211,20687,1,0,0:0:0:0:
340,84,20863,2,0,L|342:182,1,83.9999974365235
133,36,21216,2,0,L|120:123,1,83.9999974365235
120,119,21481,1,0,0:0:0:0:
120,119,21569,5,0,0:0:0:0:
231,247,21745,1,0,0:0:0:0:
225,96,21922,1,0,0:0:0:0:
232,256,22098,2,0,L|240:355,1,83.9999974365235
308,178,22451,5,0,0:0:0:0:
140,210,22628,1,0,0:0:0:0:
320,177,22804,1,0,0:0:0:0:
105,87,22981,6,0,B|247:60|89:132|291:101,1,167.999994873047
63,170,23510,1,0,0:0:0:0:
170,307,23687,2,0,P|220:258|161:194,1,167.999994873047
167,194,24128,1,0,0:0:0:0:
167,194,24216,1,0,0:0:0:0:
359,289,24392,6,0,L|371:101,1,167.999994873047
461,225,24922,1,0,0:0:0:0:
270,109,25098,2,0,P|325:47|434:57,1,167.999994873047
405,42,25540,1,0,0:0:0:0:
405,42,25628,1,0,0:0:0:0:
248,205,25804,6,0,L|228:292,1,83.9999974365235
344,247,26157,2,0,L|354:344,1,83.9999974365235
485,153,26510,2,0,P|426:112|351:177,1,167.999994873047
458,238,27040,1,0,0:0:0:0:
211,237,27216,5,0,0:0:0:0:
264,59,27392,1,0,0:0:0:0:
294,269,27569,1,0,0:0:0:0:
266,47,27745,2,0,L|458:53,1,167.999994873047
231,143,28275,5,0,0:0:0:0:
378,204,28451,1,0,0:0:0:0:
190,255,28628,5,0,0:0:0:0:
390,205,28804,1,0,0:0:0:0:
274,326,28981,1,0,0:0:0:0:
103,157,29157,2,0,L|283:169,1,167.999994873047
62,264,29687,5,0,0:0:0:0:
276,163,29863,2,0,P|332:144|368:152,1,83.9999974365235
214,299,30216,1,0,0:0:0:0:
172,49,30392,2,0,L|156:218,1,167.999994873047
156,216,30834,1,0,0:0:0:0:
156,216,30922,5,0,0:0:0:0:
330,174,31098,1,0,0:0:0:0:
148,123,31275,1,0,0:0:0:0:
272,313,31451,5,0,0:0:0:0:
250,117,31628,1,0,0:0:0:0:
275,323,31804,2,0,L|384:313,1,83.9999974365235
243,121,32157,5,0,0:0:0:0:
179,187,32334,2,0,L|172:292,1,83.9999974365235
346,130,32687,6,0,P|420:123|432:211,1,167.999994873047
268,57,33216,1,0,0:0:0:0:
226,241,33392,2,0,L|338:255,1,83.9999974365235
176,154,33745,2,0,L|83:165,1,83.9999974365235
92,163,34010,1,0,0:0:0:0:
92,163,34098,1,0,0:0:0:0:
245,211,34275,6,0,P|277:156|210:82,2,167.999994873047
397,242,35157,1,0,0:0:0:0:
379,71,35334,1,0,0:0:0:0:
481,206,35510,1,0,0:0:0:0:
481,206,35598,1,0,0:0:0:0:
481,206,35687,5,0,0:0:0:0:
309,141,35863,2,0,L|196:155,1,83.9999974365235
416,40,36216,2,0,P|488:32|513:45,1,83.9999974365235
478,217,36569,2,0,P|431:221|393:202,1,83.9999974365235
315,52,36922,1,0,0:0:0:0:
315,52,37010,1,0,0:0:0:0:
315,52,37098,6,0,B|279:81|279:81|251:227,1,167.999994873047
368,193,37628,1,0,0:0:0:0:
224,305,37804,1,0,0:0:0:0:
182,313,37892,1,0,0:0:0:0:
141,306,37980,1,0,0:0:0:0:
104,287,38068,1,0,0:0:0:0:
76,256,38156,1,0,0:0:0:0:
60,218,38245,5,0,0:0:0:0:
57,176,38333,1,0,0:0:0:0:
69,136,38421,1,0,0:0:0:0:
94,102,38509,5,0,0:0:0:0:
364,232,39216,2,0,L|380:88,1,125.999996154785,0|0,0:0|2:0,0:0:0:0:
260,188,39745,1,0,0:0:0:0:
74,64,39922,6,0,P|118:54|234:133,1,188.999994232178
358,261,41334,2,0,B|339:255|339:255|321:83,1,188.999994232178
153,221,42745,2,0,P|186:203|224:209,1,62.9999980773926
98,291,43451,2,0,P|77:279|68:239,1,62.9999980773926
247,124,44157,2,0,B|405:142|250:175|427:181,1,188.999994232178
427,170,45569,5,0,0:0:0:0:
340,319,45745,1,0,0:0:0:0:
250,149,45922,2,0,P|314:149|343:159,1,70
193,292,46275,1,0,0:0:0:0:
130,200,46451,2,0,L|133:121,1,70
298,285,46804,6,0,P|362:304|424:250,1,140
374,38,47334,2,0,B|368:76|368:76|386:112|386:112|373:197,1,140
376,172,47775,1,0,0:0:0:0:
376,172,47863,5,0,0:0:0:0:
247,131,48040,1,0,0:0:0:0:
462,125,48216,1,0,0:0:0:0:
295,254,48392,5,0,0:0:0:0:
343,67,48569,1,0,0:0:0:0:
390,296,48745,5,0,0:0:0:0:
259,140,48922,1,0,0:0:0:0:
440,216,49098,5,0,0:0:0:0:
253,303,49275,1,0,0:0:0:0:
374,130,49451,5,0,0:0:0:0:
363,330,49628,1,0,0:0:0:0:
237,343,49804,5,0,0:0:0:0:
463,216,49981,1,0,0:0:0:0:
205,212,50157,5,0,0:0:0:0:
468,324,50334,1,0,0:0:0:0:
305,126,50510,5,0,0:0:0:0:
160,324,50687,1,0,0:0:0:0:
424,166,50863,5,0,0:0:0:0:
180,88,51040,1,0,0:0:0:0:
512,343,51216,5,0,0:0:0:0:
485,245,51392,1,0,0:0:0:0:
411,340,51569,1,0,0:0:0:0:
378,217,51745,1,0,0:0:0:0:
304,342,51922,1,0,0:0:0:0:
280,180,52098,1,0,0:0:0:0:
207,340,52275,6,0,P|143:343|133:286,1,105,0|0,0:0|2:0,0:0:0:0:
159,241,52628,6,0,B|356:249|172:296|389:293,1,224
366,293,53069,1,0,0:0:0:0:
366,293,53157,1,0,0:0:0:0:
371,153,53334,1,0,0:0:0:0:
486,222,53510,2,0,L|471:352,1,112
374,142,53863,6,0,P|285:154|275:291,1,224
28,128,54392,2,0,P|57:189|49:244,1,112
171,44,54745,2,0,P|150:126|154:166,1,112
453,200,55098,2,0,B|334:204|450:253|274:259,1,168,0|0,0:0|2:0,0:0:0:0:
260,168,55451,6,0,L|247:292,1,112
342,54,55804,2,0,P|421:45|461:77,1,112
445,60,56069,1,0,0:0:0:0:
445,60,56157,5,0,0:0:0:0:
259,110,56334,1,0,0:0:0:0:
477,161,56510,5,0,0:0:0:0:
286,33,56687,1,0,0:0:0:0:
378,319,56863,6,0,L|403:74,1,224
291,231,57392,2,0,P|202:220|147:301,1,168,0|0,0:0|2:0,0:0:0:0:
94,327,57745,2,0,B|53:293|53:293|70:110,1,224
256,75,58275,6,0,P|182:57|136:93,1,112
333,205,58628,1,0,0:0:0:0:
383,66,58804,1,0,0:0:0:0:
330,214,58981,6,0,L|202:223,1,112
387,59,59334,2,0,L|510:76,1,112
338,340,59687,5,0,0:0:0:0:
285,124,59863,1,0,0:0:0:0:
215,341,60040,1,0,0:0:0:0:
376,65,60216,2,0,P|440:118|412:273,1,224
121,202,60745,2,0,L|307:223,1,168,0|0,0:0|2:0,0:0:0:0:
355,156,61098,5,0,0:0:0:0:
192,300,61275,1,0,0:0:0:0:
421,217,61451,5,0,0:0:0:0:
218,135,61628,1,0,0:0:0:0:
413,118,61804,5,0,0:0:0:0:
320,313,61981,1,0,0:0:0:0:
314,106,62157,5,0,0:0:0:0:
491,199,62334,1,0,0:0:0:0:
235,244,62510,5,0,0:0:0:0:
443,100,62687,1,0,0:0:0:0:
196,120,62863,5,0,0:0:0:0:
333,331,63040,1,0,0:0:0:0:
106,106,63216,2,0,B|252:106|106:170|257:173|284:170,1,168,0|0,0:0|2:0,0:0:0:0:
414,87,63569,1,0,0:0:0:0:
362,105,63657,1,0,0:0:0:0:
330,150,63745,1,0,0:0:0:0:
330,205,63833,1,0,0:0:0:0:
362,250,63922,6,0,L|376:132,1,112
464,226,64275,2,0,L|474:344,1,112
473,337,64540,1,0,0:0:0:0:
473,337,64628,5,0,0:0:0:0:
277,289,64804,1,0,0:0:0:0:
468,219,64981,1,0,0:0:0:0:
270,296,65157,2,0,P|179:304|224:191,1,224
363,223,65687,6,0,L|351:348,1,112
444,141,66040,2,0,L|463:253,1,112
358,34,66392,2,0,L|333:156,1,112
117,160,66745,6,0,B|185:132|185:132|368:146,1,224
110,251,67275,2,0,P|8:240|40:149,1,224
35,151,67716,1,0,0:0:0:0:
35,151,67804,1,0,0:0:0:0:
219,232,67981,1,0,0:0:0:0:
165,72,68157,5,0,0:0:0:0:
98,271,68334,1,0,0:0:0:0:
68,73,68510,1,0,0:0:0:0:
196,274,68687,2,0,L|438:260,1,224
204,166,69216,2,0,P|128:178|103:236,1,112
344,91,69569,5,0,0:0:0:0:
149,62,69745,1,0,0:0:0:0:
354,97,69922,1,0,0:0:0:0:
51,118,70098,2,0,L|167:150,1,112
279,253,70451,5,0,0:0:0:0:
255,75,70628,1,0,0:0:0:0:
185,249,70804,1,0,0:0:0:0:
365,102,70981,5,0,0:0:0:0:
130,135,71157,1,0,0:0:0:0:
352,186,71334,1,0,0:0:0:0:
129,57,71510,2,0,L|104:286,1,224
249,87,72040,1,0,0:0:0:0:
214,255,72216,1,0,0:0:0:0:
371,69,72392,5,0,0:0:0:0:
314,264,72569,1,0,0:0:0:0:
371,57,72745,1,0,0:0:0:0:
412,268,72922,1,0,0:0:0:0:
265,148,73098,5,0,0:0:0:0:
472,159,73275,1,0,0:0:0:0:
254,234,73451,1,0,0:0:0:0:
487,157,73628,1,0,0:0:0:0:
357,39,73804,5,0,0:0:0:0:
340,298,73981,1,0,0:0:0:0:
265,60,74157,1,0,0:0:0:0:
427,243,74334,1,0,0:0:0:0:
171,222,74510,5,0,0:0:0:0:
160,167,74598,1,0,0:0:0:0:
172,113,74686,1,0,0:0:0:0:
205,68,74774,1,0,0:0:0:0:
252,39,74862,1,0,0:0:0:0:
308,33,74951,1,0,0:0:0:0:
361,49,75039,1,0,0:0:0:0:
403,84,75127,1,0,0:0:0:0:
428,134,75215,5,0,0:0:0:0:
240,220,75392,1,0,0:0:0:0:
469,239,75569,5,0,0:0:0:0:
280,127,75745,1,0,0:0:0:0:
372,317,75922,1,0,0:0:0:0:
493,105,76098,2,0,L|355:118,1,105.000004005432
178,237,76451,6,0,P|257:216|356:318,1,210.000008010865
212,96,76981,1,0,0:0:0:0:
67,77,77157,2,0,B|50:135|50:135|69:175|69:175|33:297,1,210.000008010865
214,87,77687,1,0,0:0:0:0:
265,92,77775,1,0,0:0:0:0:
303,127,77863,1,0,0:0:0:0:
314,178,77951,1,0,0:0:0:0:
293,225,78039,1,0,0:0:0:0:
306,243,78745,6,0,L|317:183,3,52.5000020027161
277,111,79098,2,0,P|201:102|159:200,1,157.500006008148,0|0,0:0|2:0,0:0:0:0:
100,295,79451,5,0,0:0:0:0:
52,98,79628,1,0,0:0:0:0:
176,339,79804,5,0,0:0:0:0:
234,127,79981,1,0,0:0:0:0:
