osu file format v14

[General]
AudioFilename: audio.mp3
AudioLeadIn: 0
PreviewTime: 52540
Countdown: 0
SampleSet: Soft
StackLeniency: 0.3
Mode: 0
LetterboxInBreaks: 0
EpilepsyWarning: 1
WidescreenStoryboard: 1

[Editor]
Bookmarks: 22981
DistanceSpacing: 0.9
BeatDivisor: 2
GridSize: 4
TimelineZoom: 2.1

[Metadata]
Title:Taiatari*Romance feat. Ayuru Ouhashi (Short Ver.)
TitleUnicode:たいあたり★ロマンス feat. Ayuru Ouhashi (Short Ver.)
Artist:Trial & Error
ArtistUnicode:Trial & Error
Creator:Affirmation
Version:Normal
Source:osu!
Tags:Featured Artist [_Kuro_Usagi_]
BeatmapID:1672218
BeatmapSetID:796338

[Difficulty]
HPDrainRate:4
CircleSize:3.5
OverallDifficulty:4
ApproachRate:5
SliderMultiplier:1
SliderTickRate:1

[Events]
//Background and Video events
0,0,"BG.jpg",0,0
//Break Periods
//Storyboard Layer 0 (Background)
//Storyboard Layer 1 (Fail)
//Storyboard Layer 2 (Pass)
//Storyboard Layer 3 (Foreground)
//Storyboard Sound Samples

[TimingPoints]
393,352.941176470588,4,2,1,50,1,0
5687,-90.9090909090909,4,2,71,80,0,0
5951,-90.9090909090909,4,2,71,5,0,0
6040,-90.9090909090909,4,2,1,50,0,0
11687,-90.9090909090909,4,2,1,60,0,0
17334,-90.9090909090909,4,2,1,40,0,0
28628,-90.9090909090909,4,2,1,50,0,0
39922,-90.9090909090909,4,2,1,35,0,0
45213,-90.9090909090909,4,2,71,80,0,0
45481,-90.9090909090909,4,2,71,5,0,0
45569,-90.9090909090909,4,2,1,50,0,0
52628,-90.9090909090909,4,2,1,70,0,1
63569,-90.9090909090909,4,2,1,70,0,0
63922,-90.9090909090909,4,2,1,70,0,1
75216,-90.9090909090909,4,2,1,60,0,0
78733,352.941176470588,4,2,1,50,1,0
78733,-90.9090909090909,4,2,1,50,0,0
78922,352.941176470588,4,2,1,50,1,0
78922,-90.9090909090909,4,2,1,50,0,0
79363,-90.9090909090909,4,2,1,5,0,0
79451,-90.9090909090909,4,2,1,70,0,0

[Colours]
Combo1 : 255,255,138
Combo2 : 168,168,255
Combo3 : 166,255,255
Combo4 : 247,106,128
SliderTrackOverride : 0,0,0
SliderBorder : 255,255,255

[HitObjects]
214,378,393,5,4,1:2:0:0:
251,296,1804,1,4,1:2:0:0:
198,222,3216,5,4,1:2:0:0:
235,140,4627,1,4,1:2:0:0:
475,316,5687,1,4,0:0:0:0:
512,224,6040,6,0,P|458:217|409:241,1,110.000003356934,4|0,1:2|1:2,0:0:0:0:
342,314,6745,2,0,P|288:320|239:296,1,110.000003356934,0|0,1:0|1:2,0:0:0:0:
148,256,7451,2,0,L|154:365,2,110.000003356934,0|0|0,1:0|1:2|1:0,0:0:0:0:
219,186,8510,1,0,1:2:0:0:
148,116,8863,6,0,L|154:6,1,110.000003356934,4|0,1:2|1:2,0:0:0:0:
250,28,9569,2,0,P|293:60|346:58,1,110.000003356934,0|0,1:2|1:2,0:0:0:0:
418,129,10275,2,0,P|385:172|387:225,1,110.000003356934,4|0,1:2|1:0,0:0:0:0:
451,301,10981,2,0,P|427:315|401:322,1,55.0000016784668,0|0,1:0|0:0,0:0:0:0:
353,312,11334,2,0,P|329:297|303:290,1,55.0000016784668,0|0,1:3|0:3,0:0:0:0:
258,311,11687,6,0,L|262:201,2,110.000003356934,4|8|0,1:2|0:0|1:0,0:0:0:0:
221,344,12569,1,0,0:0:0:0:
128,308,12922,1,0,0:0:0:0:
128,308,13098,2,0,L|18:312,2,110.000003356934,4|8|0,1:2|0:0|1:0,0:0:0:0:
159,269,13981,1,0,0:0:0:0:
93,192,14334,1,0,0:0:0:0:
93,192,14510,6,0,P|75:142|97:93,2,110.000003356934,4|8|0,1:2|0:0|1:0,0:0:0:0:
126,231,15392,1,0,0:0:0:0:
207,174,15745,1,0,0:0:0:0:
207,174,15922,2,0,L|316:182,1,110.000003356934,4|8,1:2|0:0,0:0:0:0:
365,175,16451,2,0,P|337:221|341:275,1,110.000003356934,0|10,1:0|1:2,0:0:0:0:
381,305,16981,1,10,0:0:0:0:
461,248,17334,6,0,P|487:171|457:95,1,165.000005035401,6|0,1:2|0:0,0:0:0:0:
416,68,18040,2,0,L|306:76,1,110.000003356934,0|8,1:0|0:2,0:0:0:0:
223,131,18745,2,0,L|58:118,1,165.000005035401,2|0,1:2|0:0,0:0:0:0:
15,94,19451,2,0,L|23:203,1,110.000003356934,0|8,1:0|0:2,0:0:0:0:
79,284,20157,6,0,P|132:273|182:295,1,110.000003356934,2|8,1:2|0:2,0:0:0:0:
260,357,20863,2,0,P|309:379|362:368,1,110.000003356934,0|8,1:0|0:2,0:0:0:0:
389,273,21569,2,0,L|385:218,1,55.0000016784668,2|0,1:2|0:0,0:0:0:0:
345,188,21922,2,0,L|348:133,1,55.0000016784668,8|0,0:2|0:0,0:0:0:0:
383,97,22275,2,0,L|437:93,2,55.0000016784668,0|2|10,1:2|0:2|0:2,0:0:0:0:
298,44,22981,6,0,P|225:81|146:66,1,165.000005035401,6|0,1:2|0:0,0:0:0:0:
111,30,23687,2,0,L|118:139,1,110.000003356934,0|8,1:2|0:2,0:0:0:0:
64,220,24392,2,0,B|104:205|145:232|145:232|177:253|222:240,1,165.000005035401,2|0,1:2|0:0,0:0:0:0:
257,206,25098,2,0,L|249:315,1,110.000003356934,0|8,1:0|0:2,0:0:0:0:
341,353,25804,6,0,L|348:243,1,110.000003356934,2|8,1:2|0:2,0:0:0:0:
440,206,26510,2,0,L|432:96,1,110.000003356934,0|10,1:0|0:2,0:0:0:0:
338,61,27216,2,0,P|310:56|283:59,1,55.0000016784668,2|0,1:2|0:0,0:0:0:0:
245,91,27569,2,0,P|217:94|190:89,1,55.0000016784668,8|0,0:2|0:0,0:0:0:0:
148,63,27922,2,0,P|152:35|146:8,2,55.0000016784668,0|2|10,1:0|0:0|0:2,0:0:0:0:
94,145,28628,6,0,P|75:196|93:247,1,110.000003356934,4|8,1:2|0:0,0:0:0:0:
133,277,29157,2,0,L|241:260,1,110.000003356934,0|0,1:0|1:0,0:0:0:0:
277,225,29687,1,8,0:0:0:0:
350,291,30040,2,0,L|458:307,2,110.000003356934,0|8|0,1:2|0:0|1:0,0:0:0:0:
277,225,31098,1,8,0:0:0:0:
363,178,31451,6,0,P|376:124|367:71,1,110.000003356934,0|8,1:2|0:0,0:0:0:0:
286,13,32157,2,0,P|232:3|179:16,1,110.000003356934,0|8,1:0|0:0,0:0:0:0:
120,96,32863,2,0,L|130:205,1,110.000003356934,2|10,1:2|0:2,0:0:0:0:
175,225,33392,2,0,L|164:334,1,110.000003356934,2|2,0:2|1:2,0:0:0:0:
187,378,33922,1,8,0:0:0:0:
261,314,34275,6,0,P|313:298|364:317,1,110.000003356934,6|8,1:2|0:0,0:0:0:0:
441,255,34981,2,0,P|425:203|444:152,1,110.000003356934,0|8,1:0|0:0,0:0:0:0:
473,57,35687,2,0,P|421:69|370:51,1,110.000003356934,2|8,1:2|0:0,0:0:0:0:
327,25,36216,2,0,P|274:12|223:30,1,110.000003356934,0|0,0:0|0:0,0:0:0:0:
190,68,36745,1,8,0:0:0:0:
267,129,37098,6,0,P|273:183|267:238,1,110.000003356934,2|2,1:2|1:2,0:0:0:0:
192,303,37804,2,0,L|137:297,1,55.0000016784668,0|8,1:2|1:2,0:0:0:0:
106,258,38157,2,0,L|51:263,1,55.0000016784668,0|8,1:2|1:2,0:0:0:0:
20,223,38510,1,12,1:2:0:0:
163,86,39216,2,0,P|170:45|165:5,2,82.5000025177003,0|0|0,1:0|1:0|1:0,0:0:0:0:
130,123,39922,5,4,1:2:0:0:
130,123,40981,1,8,0:0:0:0:
227,107,41334,1,2,1:2:0:0:
227,107,42392,1,8,0:0:0:0:
262,199,42745,5,2,1:2:0:0:
262,199,43804,1,8,0:0:0:0:
192,269,44157,1,2,1:2:0:0:
192,269,45216,1,4,0:0:0:0:
286,301,45569,6,0,P|292:246|286:191,1,110.000003356934,4|8,1:2|1:2,0:0:0:0:
223,114,46275,2,0,L|113:121,1,110.000003356934,0|8,1:0|1:2,0:0:0:0:
126,23,46981,2,0,L|235:15,2,110.000003356934,0|8|0,1:0|1:2|1:0,0:0:0:0:
34,61,48040,1,8,1:2:0:0:
112,120,48392,6,0,P|132:171|120:224,1,110.000003356934,4|8,1:2|1:2,0:0:0:0:
196,286,49098,2,0,P|246:266|299:278,1,110.000003356934,4|8,1:2|1:2,0:0:0:0:
397,265,49804,2,0,L|400:210,1,55.0000016784668,4|0,0:0|1:0,0:0:0:0:
364,175,50157,2,0,L|360:120,1,55.0000016784668,8|0,0:0|1:0,0:0:0:0:
387,78,50510,2,0,P|413:85|440:84,2,55.0000016784668,8|0|8,0:0|1:0|0:0,0:0:0:0:
303,23,51216,5,0,1:0:0:0:
303,23,51392,2,0,L|193:31,1,110.000003356934,0|0,1:0|1:0,0:0:0:0:
154,63,51922,2,0,L|99:58,2,55.0000016784668,0|0|0,1:0|1:0|1:0,0:0:0:0:
225,131,52628,6,0,P|244:181|232:234,2,110.000003356934,4|8|0,1:2|0:0|1:0,0:0:0:0:
189,96,53510,1,0,0:0:0:0:
105,148,53863,1,0,0:3:0:0:
105,148,54040,2,0,L|119:257,1,110.000003356934,2|8,1:2|0:0,0:0:0:0:
194,321,54745,2,0,P|244:301|297:313,1,110.000003356934,0|8,1:0|0:0,0:0:0:0:
385,358,55451,6,0,L|377:248,1,110.000003356934,4|8,1:2|0:0,0:0:0:0:
332,225,55981,2,0,L|339:115,1,110.000003356934,0|0,1:0|0:0,0:0:0:0:
352,67,56510,1,8,0:0:0:0:
257,37,56863,6,0,P|203:27|153:47,1,110.000003356934,4|8,1:2|0:0,0:0:0:0:
120,84,57392,2,0,L|127:193,1,110.000003356934,4|2,1:2|1:2,0:0:0:0:
134,243,57922,1,10,0:0:0:0:
204,312,58275,6,0,P|254:291|307:301,2,110.000003356934,4|8|0,1:2|0:0|1:0,0:0:0:0:
125,373,59334,1,8,0:0:0:0:
38,324,59687,2,0,L|30:214,1,110.000003356934,2|8,1:2|0:0,0:0:0:0:
78,201,60216,2,0,L|85:91,1,110.000003356934,0|0,1:3|0:2,0:0:0:0:
85,41,60745,1,8,0:0:0:0:
175,78,61098,6,0,P|223:103|275:87,1,110.000003356934,4|8,1:2|0:0,0:0:0:0:
352,24,61804,2,0,L|406:27,2,55.0000016784668,4|0|8,1:2|1:0|0:0,0:0:0:0:
370,121,62510,1,4,1:2:0:0:
370,121,62687,2,0,L|479:128,2,110.000003356934,0|4|0,1:0|1:2|1:0,0:0:0:0:
333,155,63569,2,0,P|327:181|330:209,1,55.0000016784668,10|10,0:0|0:0,0:0:0:0:
360,249,63922,6,0,P|308:232|257:250,1,110.000003356934,4|8,1:2|0:0,0:0:0:0:
187,319,64628,2,0,P|136:337|84:320,1,110.000003356934,0|8,1:3|0:0,0:0:0:0:
21,243,65334,2,0,L|17:133,2,110.000003356934,2|8|0,1:2|0:0|1:0,0:0:0:0:
84,320,66392,1,8,0:0:0:0:
116,224,66745,6,0,L|119:114,1,110.000003356934,4|8,1:2|0:0,0:0:0:0:
110,64,67275,2,0,P|161:81|212:62,1,110.000003356934,0|0,1:0|0:0,0:0:0:0:
242,23,67804,1,8,0:0:0:0:
325,75,68157,2,0,L|321:184,1,110.000003356934,4|8,1:2|0:0,0:0:0:0:
273,199,68687,2,0,L|276:308,1,110.000003356934,4|2,1:2|1:2,0:0:0:0:
256,354,69216,1,10,0:0:0:0:
170,304,69569,6,0,P|119:285|68:303,1,110.000003356934,4|8,1:2|0:0,0:0:0:0:
3,228,70275,2,0,P|21:177|3:126,1,110.000003356934,0|8,1:0|0:0,0:0:0:0:
73,56,70981,2,0,L|182:59,2,110.000003356934,2|8|0,1:2|0:0|1:0,0:0:0:0:
3,126,72040,1,10,0:0:0:0:
73,196,72392,6,0,L|182:192,1,110.000003356934,4|8,1:2|0:0,0:0:0:0:
260,132,73098,2,0,L|369:135,1,110.000003356934,4|8,1:2|0:0,0:0:0:0:
442,203,73804,2,0,P|468:155|463:100,2,110.000003356934,4|8|4,1:2|0:2|1:2,0:0:0:0:
375,275,74863,2,0,L|320:273,1,55.0000016784668,10|10,0:0|0:0,0:0:0:0:
272,258,75216,6,0,L|275:367,2,110.000003356934,4|8|0,1:2|0:0|1:0,0:0:0:0:
264,208,76098,1,0,0:0:0:0:
324,129,76451,1,0,0:0:0:0:
324,129,76628,2,0,P|273:109|220:119,1,110.000003356934,4|8,1:2|0:0,0:0:0:0:
177,145,77157,2,0,P|123:155|73:135,1,110.000003356934,0|2,1:0|0:0,0:0:0:0:
38,99,77687,1,10,0:0:0:0:
7,193,78040,5,4,1:2:0:0:
129,343,78733,1,0,0:0:0:0:
129,343,78922,2,0,P|181:355|227:327,1,110.000003356934,2|0,1:2|0:0,0:0:0:0:
258,288,79451,2,0,L|263:342,2,55.0000016784668,8|0|0,0:0|1:2|1:0,0:0:0:0:
251,238,79981,1,12,0:0:0:0:
