osu file format v14

[General]
AudioFilename: audio.mp3
AudioLeadIn: 0
PreviewTime: 52540
Countdown: 0
SampleSet: Soft
StackLeniency: 0.3
Mode: 0
LetterboxInBreaks: 0
EpilepsyWarning: 1
WidescreenStoryboard: 1

[Editor]
Bookmarks: 22981
DistanceSpacing: 1
BeatDivisor: 2
GridSize: 4
TimelineZoom: 2.1

[Metadata]
Title:Taiatari*Romance feat. Ayuru Ouhashi (Short Ver.)
TitleUnicode:たいあたり★ロマンス feat. Ayuru Ouhashi (Short Ver.)
Artist:Trial & Error
ArtistUnicode:Trial & Error
Creator:Affirmation
Version:Easy
Source:osu!
Tags:Featured Artist [_Kuro_Usagi_]
BeatmapID:1672215
BeatmapSetID:796338

[Difficulty]
HPDrainRate:3
CircleSize:3
OverallDifficulty:2
ApproachRate:3.3
SliderMultiplier:1
SliderTickRate:1

[Events]
//Background and Video events
0,0,"BG.jpg",0,0
//Break Periods
//Storyboard Layer 0 (Background)
//Storyboard Layer 1 (Fail)
//Storyboard Layer 2 (Pass)
//Storyboard Layer 3 (Foreground)
//Storyboard Sound Samples

[TimingPoints]
393,352.941176470588,4,2,1,50,1,0
5687,-111.111111111111,4,2,71,80,0,0
5951,-111.111111111111,4,2,71,5,0,0
6040,-111.111111111111,4,2,1,50,0,0
11687,-111.111111111111,4,2,1,60,0,0
17334,-111.111111111111,4,2,1,40,0,0
28628,-111.111111111111,4,2,1,50,0,0
39922,-111.111111111111,4,2,1,35,0,0
45213,-111.111111111111,4,2,71,80,0,0
45481,-111.111111111111,4,2,71,5,0,0
45569,-111.111111111111,4,2,1,50,0,0
52628,-111.111111111111,4,2,1,70,0,1
63569,-111.111111111111,4,2,1,70,0,0
63922,-111.111111111111,4,2,1,70,0,1
75216,-111.111111111111,4,2,1,60,0,0
78733,352.941176470588,4,2,1,50,1,0
78922,352.941176470588,4,2,1,50,1,0
79363,-111.111111111111,4,2,1,5,0,0
79451,-111.111111111111,4,2,1,70,0,0

[Colours]
Combo1 : 255,255,138
Combo2 : 168,168,255
Combo3 : 166,255,255
Combo4 : 247,106,128
SliderTrackOverride : 0,0,0
SliderBorder : 255,255,255

[HitObjects]
112,198,393,5,4,1:2:0:0:
112,198,1804,1,4,1:2:0:0:
112,198,3216,5,4,1:2:0:0:
112,198,4627,1,4,1:2:0:0:
311,15,5687,1,4,0:2:0:0:
393,50,6040,6,0,L|373:228,1,179.999994506836,4|0,1:2|1:2,0:2:0:0:
304,287,7098,1,0,1:2:0:0:
367,350,7451,2,0,P|432:357|488:322,2,134.999995880127,0|0|0,1:2|0:2|1:2,0:2:0:0:
304,287,8863,6,0,B|255:274|219:305|219:305|182:336|134:324,1,179.999994506836,4|0,1:2|1:2,0:2:0:0:
64,269,9922,1,0,1:2:0:0:
127,205,10275,2,0,L|131:115,1,89.9999972534181,4|0,1:2|1:2,0:2:0:0:
89,34,10981,2,0,P|131:22|174:35,1,89.9999972534181,0|0,1:2|1:2,0:2:0:0:
246,90,11687,5,4,1:2:0:0:
317,35,12040,2,0,P|360:22|403:35,2,89.9999972534181,8|0|8,0:2|1:2|0:2,0:2:0:0:
361,115,13098,1,4,1:2:0:0:
319,195,13451,2,0,P|362:207|405:195,2,89.9999972534181,8|0|8,0:2|1:2|0:2,0:2:0:0:
247,140,14510,5,4,1:2:0:0:
192,211,14863,2,0,L|196:300,2,89.9999972534181,8|0|8,0:2|1:2|0:2,0:2:0:0:
125,151,15922,2,0,P|183:121|247:140,2,134.999995880127,4|0|10,1:2|1:2|0:2,0:2:0:0:
87,233,17334,6,0,L|78:53,1,179.999994506836,6|0,1:2|1:2,0:2:0:0:
253,17,18745,2,0,P|339:31|377:109,1,179.999994506836,2|0,1:2|1:2,0:2:0:0:
361,287,20157,6,0,P|405:298|449:289,2,89.9999972534181,2|8|0,1:2|0:2|1:2,0:2:0:0:
289,234,21216,1,8,0:2:0:0:
232,302,21569,2,0,P|170:326|109:301,2,134.999995880127,2|0|10,1:2|1:2|0:2,0:2:0:0:
289,234,22981,6,0,L|299:54,1,179.999994506836,6|0,1:2|1:2,0:2:0:0:
124,16,24392,2,0,L|134:195,1,179.999994506836,2|0,1:2|1:2,0:2:0:0:
44,351,25804,6,0,P|32:308|42:264,2,89.9999972534181,2|8|0,1:2|0:2|1:2,0:2:0:0:
123,306,26863,1,10,0:2:0:0:
205,343,27216,2,0,L|339:350,2,134.999995880127,2|0|10,1:2|1:2|0:2,0:2:0:0:
196,253,28628,6,0,P|281:238|316:159,1,179.999994506836,4|0,1:2|1:2,0:2:0:0:
227,168,29687,1,8,0:2:0:0:
137,182,30040,2,0,P|105:240|120:305,2,134.999995880127,0|0|8,1:2|1:2|0:2,0:2:0:0:
227,168,31451,6,0,L|227:78,1,89.9999972534181,0|8,1:2|0:2,0:2:0:0:
298,22,32157,2,0,P|316:63|312:107,1,89.9999972534181,0|8,1:2|0:2,0:2:0:0:
361,183,32863,2,0,P|422:156|484:178,2,134.999995880127,2|2|8,1:2|1:2|0:2,0:2:0:0:
289,239,34275,6,0,L|199:245,1,89.9999972534181,6|8,1:2|0:2,0:2:0:0:
115,275,34981,2,0,P|111:231|129:190,1,89.9999972534181,0|8,1:2|0:2,0:2:0:0:
193,127,35687,2,0,P|132:100|70:122,2,134.999995880127,2|0|8,1:2|1:2|0:2,0:2:0:0:
271,170,37098,6,0,L|266:259,1,89.9999972534181,0|8,1:2|0:2,0:2:0:0:
303,341,37804,2,0,P|259:350|218:336,1,89.9999972534181,0|8,1:0|0:0,0:0:0:0:
135,301,38510,1,12,0:0:0:0:
135,301,39922,6,0,B|199:278|272:320|272:320|333:358|393:330,1,269.999991760254,4|8,1:2|0:2,0:2:0:0:
451,262,41334,2,0,P|470:130|412:10,1,269.999991760254,2|8,1:2|0:2,0:2:0:0:
323,19,42745,6,0,L|53:39,1,269.999991760254,2|8,1:2|0:2,0:2:0:0:
13,119,44157,2,0,P|-1:207|17:294,1,179.999994506836,2|2,1:2|0:2,0:2:0:0:
87,352,45216,1,4,0:2:0:0:
152,288,45569,6,0,L|241:292,1,89.9999972534181,4|8,1:2|1:2,0:2:0:0:
305,356,46275,2,0,L|439:348,2,134.999995880127,0|2|8,1:2|1:2|1:2,0:2:0:0:
241,292,47687,2,0,P|231:248|240:204,1,89.9999972534181,0|8,1:2|1:2,0:2:0:0:
305,142,48392,6,0,L|394:146,1,89.9999972534181,4|8,1:2|1:2,0:2:0:0:
416,59,49098,2,0,L|326:54,1,89.9999972534181,4|8,1:2|1:2,0:2:0:0:
240,80,49804,2,0,P|160:118|81:82,1,179.999994506836,4|8,0:2|0:2,0:2:0:0:
17,147,50863,1,8,0:2:0:0:
83,207,51216,6,0,L|66:340,2,134.999995880127,0|0|0,1:2|1:2|1:2,0:2:0:0:
172,216,52628,6,0,L|160:305,1,89.9999972534181,4|8,1:2|0:2,0:2:0:0:
244,340,53334,2,0,P|286:327|330:335,1,89.9999972534181,0|8,1:2|0:2,0:2:0:0:
413,371,54040,1,2,1:2:0:0:
487,320,54392,2,0,L|493:230,2,89.9999972534181,8|0|8,0:2|1:2|0:2,0:2:0:0:
404,283,55451,6,0,L|414:148,2,134.999995880127,4|0|8,1:2|1:2|0:2,0:2:0:0:
330,335,56863,2,0,P|264:330|211:370,2,134.999995880127,4|4|10,1:2|1:2|0:2,0:2:0:0:
412,370,58275,6,0,P|421:327|405:285,1,89.9999972534181,4|8,1:2|0:2,0:2:0:0:
329,236,58981,2,0,P|319:192|335:150,1,89.9999972534181,0|8,1:2|0:2,0:2:0:0:
422,125,59687,2,0,P|440:62|413:2,2,134.999995880127,2|0|8,1:2|1:2|0:2,0:2:0:0:
334,151,61098,5,4,1:2:0:0:
245,143,61451,1,8,0:2:0:0:
196,67,61804,2,0,L|106:75,1,89.9999972534181,4|8,1:2|0:2,0:2:0:0:
94,163,62510,2,0,P|36:129|17:66,2,134.999995880127,4|4|10,1:2|1:2|0:2,0:2:0:0:
172,206,63922,6,0,L|164:295,1,89.9999972534181,4|8,1:2|0:2,0:2:0:0:
251,319,64628,2,0,L|258:229,1,89.9999972534181,0|8,1:2|0:2,0:2:0:0:
331,177,65334,1,2,1:2:0:0:
398,236,65687,2,0,P|441:243|482:225,2,89.9999972534181,8|0|8,0:2|1:2|0:2,0:2:0:0:
331,177,66745,6,0,L|341:42,2,134.999995880127,4|0|8,1:2|1:2|0:2,0:2:0:0:
258,230,68157,2,0,L|268:364,2,134.999995880127,4|4|10,1:2|1:2|0:2,0:2:0:0:
193,167,69569,5,4,1:2:0:0:
143,241,69922,2,0,P|101:255|57:248,2,89.9999972534181,8|0|8,0:2|1:2|0:2,0:2:0:0:
193,167,70981,2,0,L|200:77,1,89.9999972534181,2|8,1:2|0:2,0:2:0:0:
289,62,71687,2,0,L|296:151,1,89.9999972534181,0|10,1:2|0:2,0:2:0:0:
381,181,72392,5,4,1:2:0:0:
385,270,72745,1,8,0:2:0:0:
309,317,73098,2,0,L|219:309,1,89.9999972534181,4|8,1:2|0:2,0:2:0:0:
130,305,73804,1,4,1:2:0:0:
134,216,74158,1,8,0:2:0:0:
57,169,74510,2,0,L|49:79,1,89.9999972534181,4|10,1:2|0:2,0:2:0:0:
127,32,75216,5,4,1:2:0:0:
201,82,75569,2,0,L|290:74,2,89.9999972534181,8|0|8,0:2|1:2|0:2,0:2:0:0:
213,172,76628,2,0,L|347:161,2,134.999995880127,4|0|10,1:2|1:2|0:2,0:2:0:0:
134,216,78040,5,4,1:2:0:0:
134,216,79451,2,0,P|198:198|259:226,1,134.999995880127,8|12,0:2|0:2,0:2:0:0:
