osu file format v14

[General]
AudioFilename: audio.mp3
AudioLeadIn: 0
PreviewTime: 54175
Countdown: 0
SampleSet: Normal
StackLeniency: 0.7
Mode: 1
LetterboxInBreaks: 0
WidescreenStoryboard: 0

[Editor]
Bookmarks: 5952,17449,28946,40443,46192,54814,66311,77808,89305
DistanceSpacing: 0.22
BeatDivisor: 4
GridSize: 4
TimelineZoom: 1

[Metadata]
Title:Sore ga Zenbu, Yume ni Tsunagaru (Short Ver.)
TitleUnicode:それが全部、夢につながる (Short Ver.)
Artist:Trial & Error
ArtistUnicode:Trial & Error
Creator:DakeDekaane
Version:Oni
Source:
Tags:bunny kaisui Souichi Sakagami featured artist pop japanese
BeatmapID:2533759
BeatmapSetID:1217811

[Difficulty]
HPDrainRate:6
CircleSize:2
OverallDifficulty:6
ApproachRate:10
SliderMultiplier:1.4
SliderTickRate:1

[Events]
//Background and Video events
0,0,"mocha.jpg",0,75
//Break Periods
//Storyboard Layer 0 (Background)
//Storyboard Layer 1 (Fail)
//Storyboard Layer 2 (Pass)
//Storyboard Layer 3 (Foreground)
//Storyboard Layer 4 (Overlay)
//Storyboard Sound Samples

[TimingPoints]
204,359.281437125748,4,1,0,85,1,0
54635,-100,4,1,0,85,0,1
54814,359.281437125748,4,1,0,85,1,0
54814,-100,4,1,0,85,0,1
77808,-100,4,1,0,85,0,0

[HitObjects]
256,192,204,5,12,0:0:0:0:
256,192,1461,1,4,0:0:0:0:
256,192,2718,1,0,0:0:0:0:
256,192,3078,1,12,0:0:0:0:
256,192,4335,1,4,0:0:0:0:
256,192,4695,1,12,0:0:0:0:
256,192,4874,1,12,0:0:0:0:
256,192,5233,1,8,0:0:0:0:
256,192,5413,1,8,0:0:0:0:
256,192,5593,1,0,0:0:0:0:
256,192,5653,1,0,0:0:0:0:
256,192,5712,1,0,0:0:0:0:
256,192,5772,1,0,0:0:0:0:
256,192,5952,5,4,0:0:0:0:
256,192,6311,1,8,0:0:0:0:
256,192,6671,1,0,0:0:0:0:
256,192,6850,1,0,0:0:0:0:
256,192,7030,1,8,0:0:0:0:
256,192,7389,1,0,0:0:0:0:
256,192,7748,1,8,0:0:0:0:
256,192,8108,1,0,0:0:0:0:
256,192,8198,1,0,0:0:0:0:
256,192,8288,1,0,0:0:0:0:
256,192,8467,1,8,0:0:0:0:
256,192,8826,1,0,0:0:0:0:
256,192,9186,1,8,0:0:0:0:
256,192,9545,1,0,0:0:0:0:
256,192,9724,1,0,0:0:0:0:
256,192,9904,1,8,0:0:0:0:
256,192,10263,1,0,0:0:0:0:
256,192,10353,1,0,0:0:0:0:
256,192,10443,1,0,0:0:0:0:
256,192,10623,1,8,0:0:0:0:
256,192,10802,1,8,0:0:0:0:
256,192,11162,1,0,0:0:0:0:
256,192,11341,1,8,0:0:0:0:
256,192,11701,1,0,0:0:0:0:
256,192,11880,1,0,0:0:0:0:
256,192,11970,1,0,0:0:0:0:
256,192,12060,1,8,0:0:0:0:
256,192,12419,1,0,0:0:0:0:
256,192,12599,1,8,0:0:0:0:
256,192,12958,1,8,0:0:0:0:
256,192,13138,1,0,0:0:0:0:
256,192,13317,1,0,0:0:0:0:
256,192,13407,1,0,0:0:0:0:
256,192,13497,1,8,0:0:0:0:
256,192,13856,1,0,0:0:0:0:
256,192,14036,1,8,0:0:0:0:
256,192,14395,1,8,0:0:0:0:
256,192,14575,1,0,0:0:0:0:
256,192,14665,1,0,0:0:0:0:
256,192,14754,1,0,0:0:0:0:
256,192,14934,1,8,0:0:0:0:
256,192,15114,1,0,0:0:0:0:
256,192,15293,1,8,0:0:0:0:
256,192,15383,1,8,0:0:0:0:
256,192,15473,1,8,0:0:0:0:
256,192,15653,1,0,0:0:0:0:
256,192,15832,1,12,0:0:0:0:
256,192,16192,1,12,0:0:0:0:
256,192,16371,1,12,0:0:0:0:
256,192,16551,1,12,0:0:0:0:
256,192,16910,1,8,0:0:0:0:
256,192,17090,1,8,0:0:0:0:
256,192,17449,5,0,0:0:0:0:
256,192,17808,1,0,0:0:0:0:
256,192,18168,1,0,0:0:0:0:
256,192,18347,1,8,0:0:0:0:
256,192,18527,1,0,0:0:0:0:
256,192,18706,1,8,0:0:0:0:
256,192,18886,1,0,0:0:0:0:
256,192,19245,1,0,0:0:0:0:
256,192,19605,1,0,0:0:0:0:
256,192,19964,1,0,0:0:0:0:
256,192,20144,1,8,0:0:0:0:
256,192,20323,1,0,0:0:0:0:
256,192,20683,1,0,0:0:0:0:
256,192,21042,1,0,0:0:0:0:
256,192,21401,1,0,0:0:0:0:
256,192,21581,1,8,0:0:0:0:
256,192,21760,1,0,0:0:0:0:
256,192,21940,1,8,0:0:0:0:
256,192,22120,1,0,0:0:0:0:
256,192,22479,1,0,0:0:0:0:
256,192,23018,1,8,0:0:0:0:
256,192,23198,1,0,0:0:0:0:
256,192,23557,1,0,0:0:0:0:
256,192,23736,1,8,0:0:0:0:
256,192,23916,1,0,0:0:0:0:
256,192,24455,1,8,0:0:0:0:
256,192,24635,1,0,0:0:0:0:
256,192,24994,1,0,0:0:0:0:
256,192,25174,1,8,0:0:0:0:
256,192,25353,1,0,0:0:0:0:
256,192,25892,1,8,0:0:0:0:
256,192,26072,1,0,0:0:0:0:
256,192,26431,1,0,0:0:0:0:
256,192,26790,1,8,0:0:0:0:
256,192,27150,1,0,0:0:0:0:
256,192,27509,1,12,0:0:0:0:
256,192,28407,1,0,0:0:0:0:
256,192,28587,1,8,0:0:0:0:
256,192,28946,5,4,0:0:0:0:
256,192,29305,1,8,0:0:0:0:
256,192,29665,1,0,0:0:0:0:
256,192,29844,1,0,0:0:0:0:
256,192,30024,1,8,0:0:0:0:
256,192,30203,1,0,0:0:0:0:
256,192,30383,1,0,0:0:0:0:
256,192,30742,1,8,0:0:0:0:
256,192,31102,1,0,0:0:0:0:
256,192,31281,1,0,0:0:0:0:
256,192,31461,1,8,0:0:0:0:
256,192,31641,1,0,0:0:0:0:
256,192,32000,1,0,0:0:0:0:
256,192,32180,1,8,0:0:0:0:
256,192,32539,1,0,0:0:0:0:
256,192,32898,1,8,0:0:0:0:
256,192,33078,1,8,0:0:0:0:
256,192,33257,1,0,0:0:0:0:
256,192,33437,1,0,0:0:0:0:
256,192,33617,1,8,0:0:0:0:
256,192,33796,1,0,0:0:0:0:
256,192,34335,1,8,0:0:0:0:
256,192,34515,1,8,0:0:0:0:
256,192,34695,1,0,0:0:0:0:
256,192,35054,1,8,0:0:0:0:
256,192,35233,1,0,0:0:0:0:
256,192,35593,1,0,0:0:0:0:
256,192,35772,1,8,0:0:0:0:
256,192,35952,1,8,0:0:0:0:
256,192,36132,1,0,0:0:0:0:
256,192,36491,1,8,0:0:0:0:
256,192,36671,1,0,0:0:0:0:
256,192,37030,1,0,0:0:0:0:
256,192,37209,1,8,0:0:0:0:
256,192,37389,1,8,0:0:0:0:
256,192,37569,1,0,0:0:0:0:
256,192,37928,1,8,0:0:0:0:
256,192,38287,1,0,0:0:0:0:
256,192,38647,1,8,0:0:0:0:
256,192,39006,1,12,0:0:0:0:
256,192,39186,1,12,0:0:0:0:
256,192,39365,1,4,0:0:0:0:
256,192,39545,1,12,0:0:0:0:
256,192,40443,5,0,0:0:0:0:
256,192,40802,1,0,0:0:0:0:
256,192,40982,1,0,0:0:0:0:
256,192,41162,1,8,0:0:0:0:
256,192,41521,1,8,0:0:0:0:
256,192,41880,1,0,0:0:0:0:
256,192,42239,1,0,0:0:0:0:
256,192,42419,1,8,0:0:0:0:
256,192,42958,1,8,0:0:0:0:
256,192,43138,1,8,0:0:0:0:
256,192,43317,1,0,0:0:0:0:
256,192,43677,1,0,0:0:0:0:
256,192,43856,1,0,0:0:0:0:
256,192,44036,1,8,0:0:0:0:
256,192,44395,1,8,0:0:0:0:
256,192,44754,1,0,0:0:0:0:
256,192,45293,1,0,0:0:0:0:
256,192,45473,1,0,0:0:0:0:
256,192,45832,1,12,0:0:0:0:
256,192,46192,5,0,0:0:0:0:
256,192,46551,1,8,0:0:0:0:
256,192,46910,1,0,0:0:0:0:
256,192,47090,1,0,0:0:0:0:
256,192,47269,1,8,0:0:0:0:
256,192,47449,1,0,0:0:0:0:
256,192,47629,1,0,0:0:0:0:
256,192,47988,1,8,0:0:0:0:
256,192,48347,1,0,0:0:0:0:
256,192,48527,1,0,0:0:0:0:
256,192,48706,1,8,0:0:0:0:
256,192,48886,1,8,0:0:0:0:
256,192,49066,1,0,0:0:0:0:
256,192,49425,1,8,0:0:0:0:
256,192,49784,1,0,0:0:0:0:
256,192,49964,1,8,0:0:0:0:
256,192,50323,1,8,0:0:0:0:
256,192,50503,1,0,0:0:0:0:
256,192,50862,1,8,0:0:0:0:
256,192,51042,1,8,0:0:0:0:
256,192,51221,1,0,0:0:0:0:
256,192,51401,1,8,0:0:0:0:
256,192,51581,1,8,0:0:0:0:
256,192,51760,1,0,0:0:0:0:
256,192,52120,1,0,0:0:0:0:
256,192,52299,2,0,B|512:192|512:192|512:160,1,280
256,192,53377,1,12,0:0:0:0:
256,192,53557,1,12,0:0:0:0:
256,192,53916,1,12,0:0:0:0:
256,192,54275,1,4,0:0:0:0:
256,192,54455,1,12,0:0:0:0:
256,192,54635,5,4,0:0:0:0:
256,192,54993,1,0,0:0:0:0:
256,192,55083,1,0,0:0:0:0:
256,192,55173,1,0,0:0:0:0:
256,192,55352,1,0,0:0:0:0:
256,192,55442,1,0,0:0:0:0:
256,192,55532,1,0,0:0:0:0:
256,192,55712,1,8,0:0:0:0:
256,192,55891,1,0,0:0:0:0:
256,192,56071,1,8,0:0:0:0:
256,192,56430,1,8,0:0:0:0:
256,192,56520,1,8,0:0:0:0:
256,192,56610,1,8,0:0:0:0:
256,192,56790,1,0,0:0:0:0:
256,192,56969,1,8,0:0:0:0:
256,192,57149,1,8,0:0:0:0:
256,192,57239,1,8,0:0:0:0:
256,192,57328,1,0,0:0:0:0:
256,192,57508,1,8,0:0:0:0:
256,192,57867,1,0,0:0:0:0:
256,192,57957,1,0,0:0:0:0:
256,192,58047,1,0,0:0:0:0:
256,192,58227,1,0,0:0:0:0:
256,192,58316,1,0,0:0:0:0:
256,192,58406,1,0,0:0:0:0:
256,192,58586,1,8,0:0:0:0:
256,192,58766,1,0,0:0:0:0:
256,192,58945,1,8,0:0:0:0:
256,192,59305,1,8,0:0:0:0:
256,192,59394,1,0,0:0:0:0:
256,192,59484,1,8,0:0:0:0:
256,192,59664,1,8,0:0:0:0:
256,192,59843,1,8,0:0:0:0:
256,192,59933,1,8,0:0:0:0:
256,192,60023,1,8,0:0:0:0:
256,192,60203,1,8,0:0:0:0:
256,192,60382,1,0,0:0:0:0:
256,192,60921,1,12,0:0:0:0:
256,192,61281,1,8,0:0:0:0:
256,192,61370,1,8,0:0:0:0:
256,192,61460,1,8,0:0:0:0:
256,192,61640,1,8,0:0:0:0:
256,192,61819,1,0,0:0:0:0:
256,192,62358,1,12,0:0:0:0:
256,192,63077,1,8,0:0:0:0:
256,192,63257,1,8,0:0:0:0:
256,192,63436,1,0,0:0:0:0:
256,192,63796,1,0,0:0:0:0:
256,192,64155,1,0,0:0:0:0:
256,192,64245,1,0,0:0:0:0:
256,192,64334,1,0,0:0:0:0:
256,192,64514,1,8,0:0:0:0:
256,192,64604,1,8,0:0:0:0:
256,192,64694,1,8,0:0:0:0:
256,192,64873,1,4,0:0:0:0:
256,192,65053,1,4,0:0:0:0:
256,192,65233,1,4,0:0:0:0:
256,192,65412,1,12,0:0:0:0:
256,192,65772,1,8,0:0:0:0:
256,192,66131,5,4,0:0:0:0:
256,192,66490,1,0,0:0:0:0:
256,192,66580,1,8,0:0:0:0:
256,192,66670,1,8,0:0:0:0:
256,192,66849,1,0,0:0:0:0:
256,192,66939,1,0,0:0:0:0:
256,192,67029,1,0,0:0:0:0:
256,192,67209,1,8,0:0:0:0:
256,192,67388,1,0,0:0:0:0:
256,192,67568,1,8,0:0:0:0:
256,192,67927,1,8,0:0:0:0:
256,192,68017,1,8,0:0:0:0:
256,192,68107,1,8,0:0:0:0:
256,192,68287,1,0,0:0:0:0:
256,192,68466,1,8,0:0:0:0:
256,192,68646,1,8,0:0:0:0:
256,192,68736,1,8,0:0:0:0:
256,192,68825,1,0,0:0:0:0:
256,192,69005,1,8,0:0:0:0:
256,192,69364,1,0,0:0:0:0:
256,192,69454,1,8,0:0:0:0:
256,192,69544,1,8,0:0:0:0:
256,192,69724,1,0,0:0:0:0:
256,192,69813,1,0,0:0:0:0:
256,192,69903,1,0,0:0:0:0:
256,192,70083,1,8,0:0:0:0:
256,192,70263,1,0,0:0:0:0:
256,192,70442,1,8,0:0:0:0:
256,192,70802,1,8,0:0:0:0:
256,192,70891,1,0,0:0:0:0:
256,192,70981,1,8,0:0:0:0:
256,192,71161,1,8,0:0:0:0:
256,192,71340,1,8,0:0:0:0:
256,192,71430,1,8,0:0:0:0:
256,192,71520,1,8,0:0:0:0:
256,192,71700,1,8,0:0:0:0:
256,192,71879,1,0,0:0:0:0:
256,192,72418,1,12,0:0:0:0:
256,192,72778,1,8,0:0:0:0:
256,192,72867,1,8,0:0:0:0:
256,192,72957,1,8,0:0:0:0:
256,192,73137,1,8,0:0:0:0:
256,192,73316,1,0,0:0:0:0:
256,192,73855,1,12,0:0:0:0:
256,192,74574,1,8,0:0:0:0:
256,192,74754,1,8,0:0:0:0:
256,192,74933,1,0,0:0:0:0:
256,192,75293,1,0,0:0:0:0:
256,192,75652,1,0,0:0:0:0:
256,192,75742,1,0,0:0:0:0:
256,192,75831,1,0,0:0:0:0:
256,192,76011,1,8,0:0:0:0:
256,192,76101,1,8,0:0:0:0:
256,192,76191,1,8,0:0:0:0:
256,192,76370,1,4,0:0:0:0:
256,192,76550,1,4,0:0:0:0:
256,192,76730,1,4,0:0:0:0:
256,192,77089,1,0,0:0:0:0:
256,192,77269,1,0,0:0:0:0:
256,192,77448,1,8,0:0:0:0:
256,192,77628,12,0,80322,0:0:0:0:
256,192,80682,5,0,0:0:0:0:
256,192,81041,1,8,0:0:0:0:
256,192,81400,1,0,0:0:0:0:
256,192,81580,1,0,0:0:0:0:
256,192,81760,1,8,0:0:0:0:
256,192,82119,1,0,0:0:0:0:
256,192,82209,1,0,0:0:0:0:
256,192,82299,1,0,0:0:0:0:
256,192,82478,1,8,0:0:0:0:
256,192,82658,1,8,0:0:0:0:
256,192,83017,1,0,0:0:0:0:
256,192,83197,1,8,0:0:0:0:
256,192,83556,1,0,0:0:0:0:
256,192,83736,1,0,0:0:0:0:
256,192,83825,1,0,0:0:0:0:
256,192,83915,1,8,0:0:0:0:
256,192,84275,1,0,0:0:0:0:
256,192,84454,1,8,0:0:0:0:
256,192,84813,1,8,0:0:0:0:
256,192,84993,1,0,0:0:0:0:
256,192,85173,1,0,0:0:0:0:
256,192,85263,1,0,0:0:0:0:
256,192,85352,1,8,0:0:0:0:
256,192,85712,1,0,0:0:0:0:
256,192,85891,1,8,0:0:0:0:
256,192,86251,1,8,0:0:0:0:
256,192,86430,1,0,0:0:0:0:
256,192,86790,1,8,0:0:0:0:
256,192,87149,1,0,0:0:0:0:
256,192,87239,1,0,0:0:0:0:
256,192,87328,1,0,0:0:0:0:
256,192,87508,1,8,0:0:0:0:
256,192,87867,1,8,0:0:0:0:
256,192,88227,1,0,0:0:0:0:
256,192,88586,1,0,0:0:0:0:
256,192,88676,1,0,0:0:0:0:
256,192,88766,1,0,0:0:0:0:
256,192,88945,1,8,0:0:0:0:
256,192,89305,1,0,0:0:0:0:
256,192,89664,1,8,0:0:0:0:
256,192,90023,1,0,0:0:0:0:
256,192,90113,1,0,0:0:0:0:
256,192,90203,1,0,0:0:0:0:
256,192,90382,1,8,0:0:0:0:
256,192,90742,1,8,0:0:0:0:
256,192,90921,1,0,0:0:0:0:
256,192,91101,1,8,0:0:0:0:
256,192,91281,1,0,0:0:0:0:
256,192,91460,1,0,0:0:0:0:
256,192,91640,1,0,0:0:0:0:
256,192,91730,1,0,0:0:0:0:
256,192,91819,1,0,0:0:0:0:
256,192,91999,1,0,0:0:0:0:
256,192,92179,5,12,0:0:0:0:
256,192,93017,1,4,0:0:0:0:
