osu file format v14

[General]
AudioFilename: audio.mp3
AudioLeadIn: 0
PreviewTime: 54175
Countdown: 0
SampleSet: Normal
StackLeniency: 0.7
Mode: 1
LetterboxInBreaks: 0
WidescreenStoryboard: 1

[Editor]
Bookmarks: 5952,17449,28946,40443,46192,54814,66311,77808,89305
DistanceSpacing: 0.22
BeatDivisor: 2
GridSize: 32
TimelineZoom: 1

[Metadata]
Title:Sore ga Zenbu, Yume ni Tsunagaru (Short Ver.)
TitleUnicode:それが全部、夢につながる (Short Ver.)
Artist:Trial & Error
ArtistUnicode:Trial & Error
Creator:DakeDekaane
Version:Futsuu
Source:
Tags:bunny kaisui Souichi Sakagami featured artist pop japanese
BeatmapID:2533756
BeatmapSetID:1217811

[Difficulty]
HPDrainRate:7
CircleSize:2
OverallDifficulty:4
ApproachRate:10
SliderMultiplier:1.4
SliderTickRate:1

[Events]
//Background and Video events
0,0,"mocha.jpg",0,75
//Break Periods
//Storyboard Layer 0 (Background)
//Storyboard Layer 1 (Fail)
//Storyboard Layer 2 (Pass)
//Storyboard Layer 3 (Foreground)
//Storyboard Layer 4 (Overlay)
//Storyboard Sound Samples

[TimingPoints]
204,359.281437125748,4,1,0,85,1,0
54635,-100,4,1,0,85,0,1
54814,359.281437125748,4,1,0,85,1,0
54814,-100,4,1,0,85,0,1
77808,-100,4,1,0,85,0,0

[HitObjects]
256,192,204,5,12,0:0:0:0:
256,192,1461,1,4,0:0:0:0:
256,192,3078,1,12,0:0:0:0:
256,192,4335,1,4,0:0:0:0:
256,192,4695,12,0,5593,0:0:0:0:
256,192,5952,5,0,0:0:0:0:
256,192,6671,1,8,0:0:0:0:
256,192,7389,1,8,0:0:0:0:
256,192,7748,1,8,0:0:0:0:
256,192,8108,1,0,0:0:0:0:
256,192,8467,1,8,0:0:0:0:
256,192,8826,1,0,0:0:0:0:
256,192,9545,1,0,0:0:0:0:
256,192,10263,1,8,0:0:0:0:
256,192,10623,1,0,0:0:0:0:
256,192,10802,1,0,0:0:0:0:
256,192,12060,1,8,0:0:0:0:
256,192,12419,1,8,0:0:0:0:
256,192,12599,1,8,0:0:0:0:
256,192,13497,1,8,0:0:0:0:
256,192,13856,1,8,0:0:0:0:
256,192,14036,1,8,0:0:0:0:
256,192,14575,1,0,0:0:0:0:
256,192,15293,1,0,0:0:0:0:
256,192,15832,1,12,0:0:0:0:
256,192,17449,5,0,0:0:0:0:
256,192,18168,1,0,0:0:0:0:
256,192,18527,1,0,0:0:0:0:
256,192,18886,1,0,0:0:0:0:
256,192,19605,1,0,0:0:0:0:
256,192,19964,1,0,0:0:0:0:
256,192,20323,1,8,0:0:0:0:
256,192,21401,1,8,0:0:0:0:
256,192,21760,1,0,0:0:0:0:
256,192,23198,1,0,0:0:0:0:
256,192,23916,1,0,0:0:0:0:
256,192,24635,1,8,0:0:0:0:
256,192,25353,1,8,0:0:0:0:
256,192,26072,1,0,0:0:0:0:
256,192,26431,1,0,0:0:0:0:
256,192,26790,1,8,0:0:0:0:
256,192,27509,1,12,0:0:0:0:
256,192,28946,5,0,0:0:0:0:
256,192,29665,1,0,0:0:0:0:
256,192,30024,1,8,0:0:0:0:
256,192,30203,1,0,0:0:0:0:
256,192,31102,1,0,0:0:0:0:
256,192,31461,1,8,0:0:0:0:
256,192,31641,1,0,0:0:0:0:
256,192,32898,1,8,0:0:0:0:
256,192,33257,1,0,0:0:0:0:
256,192,33437,1,0,0:0:0:0:
256,192,33796,1,8,0:0:0:0:
256,192,34695,1,0,0:0:0:0:
256,192,35054,1,0,0:0:0:0:
256,192,35233,1,0,0:0:0:0:
256,192,36132,1,0,0:0:0:0:
256,192,36491,1,8,0:0:0:0:
256,192,36671,1,8,0:0:0:0:
256,192,37569,1,0,0:0:0:0:
256,192,37928,1,0,0:0:0:0:
256,192,38287,1,8,0:0:0:0:
256,192,38647,1,8,0:0:0:0:
256,192,39006,1,4,0:0:0:0:
256,192,40443,5,0,0:0:0:0:
256,192,41162,1,8,0:0:0:0:
256,192,41880,1,0,0:0:0:0:
256,192,43317,1,0,0:0:0:0:
256,192,44036,1,8,0:0:0:0:
256,192,44754,1,0,0:0:0:0:
256,192,46192,5,0,0:0:0:0:
256,192,46910,1,0,0:0:0:0:
256,192,47269,1,0,0:0:0:0:
256,192,47629,1,8,0:0:0:0:
256,192,48347,1,8,0:0:0:0:
256,192,48706,1,8,0:0:0:0:
256,192,49066,1,0,0:0:0:0:
256,192,49784,1,8,0:0:0:0:
256,192,50862,1,8,0:0:0:0:
256,192,51221,1,0,0:0:0:0:
256,192,51760,1,0,0:0:0:0:
256,192,52120,1,0,0:0:0:0:
256,192,52299,12,0,53377,0:0:0:0:
256,192,54635,5,4,0:0:0:0:
256,192,55173,1,0,0:0:0:0:
256,192,55532,1,0,0:0:0:0:
256,192,55712,1,0,0:0:0:0:
256,192,56071,1,8,0:0:0:0:
256,192,57149,1,8,0:0:0:0:
256,192,57508,1,0,0:0:0:0:
256,192,58047,1,0,0:0:0:0:
256,192,58406,1,0,0:0:0:0:
256,192,58586,1,0,0:0:0:0:
256,192,58945,1,8,0:0:0:0:
256,192,59843,1,0,0:0:0:0:
256,192,60203,1,0,0:0:0:0:
256,192,60382,1,0,0:0:0:0:
256,192,60921,1,12,0:0:0:0:
256,192,61281,1,0,0:0:0:0:
256,192,61640,1,0,0:0:0:0:
256,192,61819,1,0,0:0:0:0:
256,192,62358,1,12,0:0:0:0:
256,192,63077,1,0,0:0:0:0:
256,192,63436,1,0,0:0:0:0:
256,192,63796,1,0,0:0:0:0:
256,192,64155,1,8,0:0:0:0:
256,192,64514,1,8,0:0:0:0:
256,192,64873,1,4,0:0:0:0:
256,192,66131,5,4,0:0:0:0:
256,192,66670,1,0,0:0:0:0:
256,192,67029,1,0,0:0:0:0:
256,192,67209,1,0,0:0:0:0:
256,192,67568,1,8,0:0:0:0:
256,192,68646,1,8,0:0:0:0:
256,192,69005,1,0,0:0:0:0:
256,192,69544,1,0,0:0:0:0:
256,192,69903,1,0,0:0:0:0:
256,192,70083,1,0,0:0:0:0:
256,192,70442,1,8,0:0:0:0:
256,192,71340,1,0,0:0:0:0:
256,192,71700,1,0,0:0:0:0:
256,192,71879,1,0,0:0:0:0:
256,192,72418,1,12,0:0:0:0:
256,192,72778,1,0,0:0:0:0:
256,192,73137,1,0,0:0:0:0:
256,192,73316,1,0,0:0:0:0:
256,192,73855,1,12,0:0:0:0:
256,192,74574,1,0,0:0:0:0:
256,192,74933,1,0,0:0:0:0:
256,192,75293,1,0,0:0:0:0:
256,192,75652,1,8,0:0:0:0:
256,192,76011,1,8,0:0:0:0:
256,192,76370,1,4,0:0:0:0:
256,192,77808,12,0,80322,0:0:0:0:
256,192,80682,5,0,0:0:0:0:
256,192,81400,1,0,0:0:0:0:
256,192,82119,1,8,0:0:0:0:
256,192,82478,1,0,0:0:0:0:
256,192,82658,1,0,0:0:0:0:
256,192,83915,1,8,0:0:0:0:
256,192,84275,1,8,0:0:0:0:
256,192,84454,1,8,0:0:0:0:
256,192,85352,1,8,0:0:0:0:
256,192,85712,1,8,0:0:0:0:
256,192,85891,1,8,0:0:0:0:
256,192,86430,1,0,0:0:0:0:
256,192,86790,1,0,0:0:0:0:
256,192,87149,1,0,0:0:0:0:
256,192,87508,1,0,0:0:0:0:
256,192,87867,1,8,0:0:0:0:
256,192,88227,1,8,0:0:0:0:
256,192,88586,1,8,0:0:0:0:
256,192,88945,1,8,0:0:0:0:
256,192,89305,1,0,0:0:0:0:
256,192,89664,1,0,0:0:0:0:
256,192,90023,1,0,0:0:0:0:
256,192,90382,1,0,0:0:0:0:
256,192,90742,1,8,0:0:0:0:
256,192,91101,1,8,0:0:0:0:
256,192,91460,1,8,0:0:0:0:
256,192,91819,1,8,0:0:0:0:
256,192,92179,5,12,0:0:0:0:
256,192,93017,1,4,0:0:0:0:
