osu file format v14

[General]
AudioFilename: audio.mp3
AudioLeadIn: 0
PreviewTime: 54275
Countdown: 0
SampleSet: Soft
StackLeniency: 0.7
Mode: 0
LetterboxInBreaks: 0
WidescreenStoryboard: 1

[Editor]
DistanceSpacing: 0.9
BeatDivisor: 4
GridSize: 32
TimelineZoom: 2.5

[Metadata]
Title:Sore ga Zenbu, Yume ni Tsunagaru (Short Ver.)
TitleUnicode:それが全部、夢につながる (Short Ver.)
Artist:Trial & Error
ArtistUnicode:Trial & Error
Creator:Agatsu
Version:Normal
Source:osu!
Tags:mappers guild mappers' featured artist fa japanese vocals vocaloid cover
BeatmapID:2342061
BeatmapSetID:1120862

[Difficulty]
HPDrainRate:3
CircleSize:3.5
OverallDifficulty:4
ApproachRate:5
SliderMultiplier:1.1
SliderTickRate:1

[Events]
//Background and Video events
0,0,"quino-al-mBQIfKlvowM-unsplash.jpg",0,0
//Break Periods
//Storyboard Layer 0 (Background)
//Storyboard Layer 1 (Fail)
//Storyboard Layer 2 (Pass)
//Storyboard Layer 3 (Foreground)
//Storyboard Layer 4 (Overlay)
//Storyboard Sound Samples

[TimingPoints]
204,359.281437125748,4,2,1,70,1,0
204,-100,4,2,1,70,0,0
4335,-100,4,2,1,70,0,0
17449,-100,4,2,1,50,0,0
28946,-100,4,2,1,55,0,0
40443,-111.111111111111,4,2,1,50,0,0
46192,-100,4,2,1,55,0,0
54635,-100,4,2,1,70,0,1
65772,-100,4,2,1,70,0,0
66132,-100,4,2,1,70,0,1
77808,-100,4,2,1,70,0,0
92180,-100,4,2,1,70,0,0
95593,-100,4,2,1,25,0,0

[Colours]
Combo1 : 255,150,100
Combo2 : 121,183,227
Combo3 : 153,227,234
Combo4 : 241,165,199

[HitObjects]
418,366,204,6,0,B|408:208|504:275|483:84,1,275,6|0,1:2|0:0,0:0:0:0:
414,38,1461,2,0,B|259:-7|261:138|73:69,1,330,6|0,1:2|0:0,0:0:0:0:
53,52,2718,1,2,1:2:0:0:
3,137,3078,6,0,L|15:376,1,220,6|0,1:2|0:0,0:0:0:0:
113,360,4156,1,8,0:0:0:0:
113,360,4335,2,0,P|183:340|255:362,1,110,6|8,1:2|0:0,0:0:0:0:
264,363,4874,1,8,0:0:0:0:
356,327,5233,2,0,L|427:332,1,55,8|8,0:0|0:0,0:0:0:0:
460,333,5593,1,0,1:0:0:0:
503,244,5952,6,0,P|507:180|487:129,1,110,6|10,1:2|0:0,0:0:0:0:
409,81,6671,1,2,1:2:0:0:
311,96,7030,1,10,0:0:0:0:
272,186,7389,2,0,L|263:308,1,110,2|10,1:2|0:2,0:0:0:0:
183,353,8108,1,2,1:2:0:0:
84,343,8467,1,10,0:0:0:0:
28,261,8826,6,0,P|19:195|39:141,1,110,2|8,1:2|0:0,0:0:0:0:
104,87,9545,2,0,L|250:84,1,110,2|8,1:2|0:0,0:0:0:0:
295,140,10263,2,0,P|310:213|299:260,1,110,2|8,1:2|0:0,0:0:0:0:
273,286,10802,2,0,L|403:297,1,110,2|0,0:0|0:0,0:0:0:0:
426,317,11341,1,8,0:0:0:0:
497,248,11701,6,0,L|503:180,1,55,0|2,1:0|0:0,0:0:0:0:
509,144,12060,1,10,0:0:0:0:
471,58,12419,1,2,1:2:0:0:
471,58,12599,2,0,P|427:39|355:45,1,110,2|2,0:0|0:0,0:0:0:0:
321,62,13138,2,0,L|315:138,1,55,0|2,1:0|0:0,0:0:0:0:
312,166,13497,1,10,0:0:0:0:
242,235,13856,1,2,1:2:0:0:
242,235,14036,2,0,L|248:350,1,110,2|0,0:0|0:0,0:0:0:0:
206,371,14575,5,2,1:2:0:0:
107,367,14934,1,10,0:0:0:0:
34,299,15293,2,0,L|30:233,1,55,2|0,1:2|1:0,0:0:0:0:
57,201,15653,1,10,0:0:0:0:
57,201,15832,2,0,L|72:80,1,110,6|10,1:2|0:0,0:0:0:0:
82,43,16371,1,10,0:0:0:0:
82,43,16551,1,10,0:0:0:0:
179,23,16910,2,0,L|246:17,1,55,8|8,0:0|0:0,0:0:0:0:
323,60,17449,6,0,P|344:117|334:182,1,110,4|2,1:2|1:2,0:0:0:0:
264,229,18168,1,0,1:2:0:0:
264,229,18347,1,2,0:0:0:0:
319,311,18706,2,0,P|376:322|432:303,1,110,2|0,0:0|0:0,0:0:0:0:
468,284,19245,1,0,1:0:0:0:
494,188,19605,2,0,L|484:68,1,110,0|0,1:0|0:0,0:0:0:0:
478,29,20144,6,0,P|423:18|365:41,1,110,2|0,0:0|0:0,0:0:0:0:
338,70,20683,1,0,1:0:0:0:
295,159,21042,1,0,1:0:0:0:
331,250,21401,1,2,1:2:0:0:
280,335,21760,2,0,P|210:353|152:333,1,110,2|0,1:2|1:0,0:0:0:0:
133,317,22299,2,0,L|125:178,1,110,2|0,0:0|0:0,0:0:0:0:
121,157,22838,1,0,1:2:0:0:
124,57,23198,6,0,P|194:39|252:59,1,110,2|0,1:2|1:0,0:0:0:0:
271,73,23737,2,0,L|395:67,1,110,2|0,0:0|0:0,0:0:0:0:
467,126,24455,1,2,0:0:0:0:
467,126,24635,2,0,L|462:237,1,110,2|0,1:2|1:0,0:0:0:0:
443,282,25174,2,0,P|380:295|318:273,1,110,2|0,0:0|0:0,0:0:0:0:
274,214,25892,1,2,0:0:0:0:
274,214,26072,6,0,L|282:95,1,110,2|2,1:2|1:2,0:0:0:0:
209,36,26790,1,2,1:2:0:0:
110,48,27150,1,2,1:2:0:0:
35,115,27509,2,0,P|18:183|34:235,1,110,6|0,1:2|0:0,0:0:0:0:
92,294,28227,2,0,L|171:289,1,55,2|0,0:0|1:0,0:0:0:0:
195,301,28587,1,8,0:0:0:0:
275,243,28946,6,0,P|287:177|266:123,1,110,4|10,1:2|0:0,0:0:0:0:
321,49,29665,2,0,L|445:44,1,110,0|8,1:2|0:0,0:0:0:0:
479,39,30203,2,0,L|485:162,1,110,2|0,0:0|0:0,0:0:0:0:
485,198,30742,1,8,0:0:0:0:
439,286,31102,2,0,P|374:295|309:270,1,110,0|8,1:0|0:0,0:0:0:0:
290,257,31641,1,2,0:0:0:0:
290,257,31820,6,0,L|285:144,1,110,0|8,1:0|0:0,0:0:0:0:
240,58,32539,1,0,1:0:0:0:
142,40,32898,1,10,0:0:0:0:
55,87,33257,2,0,P|42:155|61:216,1,110,0|8,1:2|0:0,0:0:0:0:
77,235,33796,2,0,L|209:225,1,110,2|0,0:0|0:0,0:0:0:0:
233,209,34335,1,8,0:0:0:0:
313,150,34695,6,0,P|390:145|441:176,1,110,2|8,1:2|0:0,0:0:0:0:
453,192,35233,2,0,L|459:318,1,110,2|0,0:0|0:0,0:0:0:0:
462,351,35772,1,8,0:0:0:0:
363,363,36132,1,2,1:2:0:0:
272,322,36491,1,8,0:0:0:0:
272,322,36671,2,0,P|258:263|284:199,1,110,2|0,0:0|0:0,0:0:0:0:
297,175,37209,1,8,0:0:0:0:
240,93,37569,5,2,1:2:0:0:
143,72,37928,1,10,0:0:0:0:
54,116,38287,2,0,L|40:240,1,110,2|10,1:2|0:0,0:0:0:0:
94,309,39006,2,0,L|100:366,2,55,10|8|2,0:0|0:0|0:0,0:0:0:0:
133,278,39545,2,0,P|206:265|255:289,1,110,12|0,0:0|1:0,0:0:0:0:
276,308,40084,1,8,0:0:0:0:
348,360,40443,6,0,L|459:353,1,98.9999969787599,6|2,1:2|0:0,0:0:0:0:
495,278,41162,1,2,1:3:0:0:
485,189,41521,1,2,0:0:0:0:
422,125,41880,2,0,P|357:121|312:146,1,98.9999969787599,2|0,1:2|0:0,0:0:0:0:
291,160,42419,2,0,L|284:272,1,98.9999969787599,2|0,1:2|0:0,0:0:0:0:
282,303,42958,1,2,0:0:0:0:
205,349,43317,6,0,P|135:360|86:337,1,98.9999969787599,2|2,1:2|0:0,0:0:0:0:
48,286,44036,1,2,1:3:0:0:
41,197,44395,1,2,0:0:0:0:
93,124,44754,2,0,L|211:115,1,98.9999969787599,2|0,1:2|0:0,0:0:0:0:
236,114,45293,1,0,1:0:0:0:
236,114,45473,1,2,1:3:0:0:
302,55,45832,1,8,0:0:0:0:
389,101,46192,6,0,P|408:175|395:217,1,110,6|8,1:2|0:0,0:0:0:0:
314,255,46910,1,2,1:2:0:0:
229,202,47269,1,10,0:0:0:0:
137,239,47629,2,0,L|18:231,1,110,2|8,1:2|0:0,0:0:0:0:
4,327,48347,1,2,1:2:0:0:
90,375,48706,1,10,0:0:0:0:
179,332,49066,6,0,P|257:325|302:343,1,110,2|8,1:2|0:0,0:0:0:0:
330,357,49605,1,0,0:0:0:0:
330,357,49784,2,0,L|339:228,1,110,2|8,1:2|0:0,0:0:0:0:
264,180,50503,2,0,P|210:166|145:177,1,110,0|8,1:0|0:0,0:0:0:0:
62,203,51221,2,0,L|56:285,2,55,0|2|8,1:2|0:0|0:0,0:0:0:0:
21,184,51760,1,2,0:0:0:0:
21,184,51940,6,0,L|13:68,1,110,0|10,1:0|0:0,0:0:0:0:
96,20,52659,1,0,1:0:0:0:
189,52,53018,2,0,L|254:45,1,55,8|0,0:0|0:0,0:0:0:0:
282,19,53377,1,8,0:0:0:0:
282,19,53557,1,8,0:0:0:0:
385,32,53916,1,8,0:0:0:0:
465,88,54275,2,0,L|475:165,1,55,0|8,0:0|0:0,0:0:0:0:
498,184,54635,6,0,P|428:178|372:211,1,110,6|2,1:2|0:0,0:0:0:0:
358,228,55174,1,10,0:0:0:0:
286,295,55533,2,0,P|216:301|160:268,1,110,0|8,1:0|0:0,0:0:0:0:
156,242,56072,2,0,L|170:115,1,110,2|2,0:0|0:0,0:0:0:0:
176,83,56611,1,8,0:0:0:0:
94,27,56970,1,0,1:0:0:0:
22,95,57329,1,8,0:0:0:0:
22,95,57509,6,0,L|24:218,1,110,2|2,0:0|0:0,0:0:0:0:
28,254,58048,1,10,0:0:0:0:
86,334,58407,2,0,P|151:345|223:324,1,110,0|8,1:0|0:0,0:0:0:0:
232,306,58946,2,0,L|242:178,1,110,2|2,0:0|0:0,0:0:0:0:
224,149,59485,2,0,L|221:60,1,55,8|2,0:0|0:0,0:0:0:0:
206,47,59844,1,0,1:0:0:0:
302,25,60203,1,8,0:0:0:0:
302,25,60383,6,0,P|368:26|434:60,1,110,2|0,0:0|0:0,0:0:0:0:
447,72,60922,2,0,L|455:150,1,55,14|0,0:0|0:0,0:0:0:0:
471,172,61281,1,2,1:2:0:0:
417,255,61641,1,8,0:0:0:0:
417,255,61820,2,0,L|286:262,1,110,2|0,0:0|0:0,0:0:0:0:
257,261,62359,2,0,L|245:335,1,55,14|0,0:0|0:0,0:0:0:0:
242,364,62718,1,0,1:0:0:0:
339,382,63078,1,10,0:0:0:0:
434,355,63437,6,0,P|457:288|435:221,1,110,2|10,1:2|0:0,0:0:0:0:
362,206,64156,1,2,1:2:0:0:
417,124,64515,1,10,0:0:0:0:
335,67,64874,2,0,L|344:0,2,55,8|10|8,0:0|0:0|0:0,0:0:0:0:
293,93,65413,1,10,0:0:0:0:
203,50,65772,1,8,0:0:0:0:
114,95,66132,6,0,P|38:102|3:145,1,110,6|2,1:2|0:0,0:0:0:0:
11,172,66671,1,10,0:0:0:0:
40,266,67030,2,0,L|175:276,1,110,0|8,1:0|0:0,0:0:0:0:
187,306,67569,2,0,L|321:296,1,110,2|2,0:0|0:0,0:0:0:0:
343,282,68108,1,8,0:0:0:0:
436,314,68467,2,0,P|452:355|455:384,2,55,0|2|8,1:0|0:0|0:0,0:0:0:0:
467,275,69006,6,0,L|477:149,1,110,2|2,0:0|0:0,0:0:0:0:
484,116,69545,1,10,0:0:0:0:
448,23,69904,2,0,P|399:19|334:42,1,110,0|8,1:0|0:0,0:0:0:0:
304,70,70443,2,0,L|317:191,1,110,2|2,0:0|0:0,0:0:0:0:
327,227,70982,1,8,0:0:0:0:
290,319,71341,2,0,P|203:340|149:319,1,110,2|8,1:2|0:0,0:0:0:0:
151,299,71880,6,0,L|32:288,1,110,2|0,0:0|0:0,0:0:0:0:
4,255,72419,2,0,L|15:172,1,55,14|0,0:0|0:0,0:0:0:0:
16,151,72778,1,2,1:2:0:0:
4,52,73138,1,8,0:0:0:0:
4,52,73317,2,0,L|147:46,1,110,2|0,0:0|0:0,0:0:0:0:
156,21,73856,2,0,L|292:34,1,110,14|0,0:0|1:0,0:0:0:0:
343,92,74575,2,0,L|421:87,1,55,10|0,0:0|0:0,0:0:0:0:
446,96,74934,6,0,P|468:139|454:218,1,110,2|10,1:2|0:0,0:0:0:0:
382,256,75653,1,2,1:2:0:0:
296,206,76012,1,10,0:0:0:0:
217,266,76371,2,0,L|217:330,1,55,10|10,0:0|0:0,0:0:0:0:
223,370,76730,1,10,0:0:0:0:
319,349,77090,2,0,L|441:340,1,110,2|8,0:0|0:0,0:0:0:0:
477,333,77629,1,2,0:0:0:0:
477,333,77808,5,6,1:2:0:0:
510,239,78168,1,10,0:0:0:0:
446,163,78527,2,0,P|439:105|453:45,1,110,2|10,1:2|0:0,0:0:0:0:
364,4,79245,1,2,1:2:0:0:
277,52,79605,1,10,0:0:0:0:
185,13,79964,2,0,P|111:20|82:53,1,110,2|10,1:2|0:0,0:0:0:0:
40,130,80683,6,0,L|31:249,1,110,2|8,1:2|0:0,0:0:0:0:
67,332,81401,2,0,P|137:350|206:328,1,110,2|8,1:2|0:0,0:0:0:0:
221,254,82120,2,0,L|214:132,1,110,2|10,1:2|0:0,0:0:0:0:
216,94,82659,2,0,P|283:78|337:94,1,110,2|0,0:0|0:0,0:0:0:0:
364,112,83198,1,8,0:0:0:0:
444,169,83557,6,0,L|438:238,1,55,0|2,1:0|0:0,0:0:0:0:
435,273,83916,1,10,0:0:0:0:
377,353,84275,1,2,1:2:0:0:
377,353,84455,2,0,P|310:365|242:342,1,110,2|2,0:0|0:0,0:0:0:0:
233,322,84994,2,0,L|229:243,1,55,2|2,1:2|0:0,0:0:0:0:
234,217,85353,1,10,0:0:0:0:
288,134,85712,1,2,1:2:0:0:
288,134,85892,2,0,P|294:72|257:17,1,110,2|0,0:0|0:0,0:0:0:0:
226,13,86431,5,2,1:2:0:0:
127,2,86790,1,10,0:0:0:0:
59,74,87150,2,0,L|52:200,1,110,2|10,1:2|0:0,0:0:0:0:
5,270,87868,1,2,1:2:0:0:
54,355,88227,1,10,0:0:0:0:
153,349,88587,2,0,P|171:289|154:220,1,110,2|10,1:2|0:0,0:0:0:0:
113,158,89305,5,2,1:2:0:0:
162,71,89665,1,10,0:0:0:0:
260,80,90024,2,0,L|374:74,1,110,2|10,1:2|0:0,0:0:0:0:
457,119,90742,1,2,1:2:0:0:
501,207,91102,1,10,0:0:0:0:
465,299,91461,2,0,L|389:303,1,55,10|8,0:0|0:0,0:0:0:0:
374,336,91820,2,0,L|319:333,1,55,10|8,0:0|0:0,0:0:0:0:
287,294,92180,6,0,B|155:253|174:346|29:300,1,261.25,6|2,1:2|0:0,0:0:0:0:
256,192,93078,12,0,95593,0:0:0:0:
