osu file format v14

[General]
AudioFilename: audio.mp3
AudioLeadIn: 0
PreviewTime: 42331
Countdown: 0
SampleSet: Normal
StackLeniency: 0.7
Mode: 1
LetterboxInBreaks: 0
WidescreenStoryboard: 0

[Editor]
DistanceSpacing: 1
BeatDivisor: 4
GridSize: 32
TimelineZoom: 1

[Metadata]
Title:Hitori ja... Issho nara! (TV Size)
TitleUnicode:ひとりじゃ...いっしょなら!(TV Size)
Artist:Trial & Error
ArtistUnicode:Trial & Error
Creator:DakeDekaane
Version:Oni
Source:
Tags:Ruby Airan Souichi Sakagami featured artist fa pop japanese and
BeatmapID:2603750
BeatmapSetID:1252845

[Difficulty]
HPDrainRate:7
CircleSize:2
OverallDifficulty:6
ApproachRate:10
SliderMultiplier:1.4
SliderTickRate:1

[Events]
//Background and Video events
0,0,"65655098_p0.jpg",0,0
//Break Periods
//Storyboard Layer 0 (Background)
//Storyboard Layer 1 (Fail)
//Storyboard Layer 2 (Pass)
//Storyboard Layer 3 (Foreground)
//Storyboard Layer 4 (Overlay)
//Storyboard Sound Samples

[TimingPoints]
-7331,625,4,1,0,70,1,0
42669,-100,4,1,0,80,0,1
82669,-100,4,1,0,70,0,0

[HitObjects]
256,192,1419,5,8,0:0:0:0:
256,192,1887,1,8,0:0:0:0:
256,192,2356,1,8,0:0:0:0:
256,192,2669,1,0,0:0:0:0:
256,192,3294,1,0,0:0:0:0:
256,192,3919,1,0,0:0:0:0:
256,192,4231,1,0,0:0:0:0:
256,192,4387,1,0,0:0:0:0:
256,192,4544,1,0,0:0:0:0:
256,192,4856,1,8,0:0:0:0:
256,192,5169,1,0,0:0:0:0:
256,192,5794,1,0,0:0:0:0:
256,192,6419,1,0,0:0:0:0:
256,192,6731,1,0,0:0:0:0:
256,192,6887,1,0,0:0:0:0:
256,192,7044,1,8,0:0:0:0:
256,192,7200,1,0,0:0:0:0:
256,192,7356,1,8,0:0:0:0:
256,192,7669,1,0,0:0:0:0:
256,192,8294,1,0,0:0:0:0:
256,192,8919,1,0,0:0:0:0:
256,192,9231,1,0,0:0:0:0:
256,192,9544,1,8,0:0:0:0:
256,192,9856,1,8,0:0:0:0:
256,192,10169,1,0,0:0:0:0:
256,192,10794,1,0,0:0:0:0:
256,192,11419,1,8,0:0:0:0:
256,192,12044,1,8,0:0:0:0:
256,192,12669,1,0,0:0:0:0:
256,192,13606,1,8,0:0:0:0:
256,192,13919,1,0,0:0:0:0:
256,192,14231,1,0,0:0:0:0:
256,192,14387,1,0,0:0:0:0:
256,192,14544,1,0,0:0:0:0:
256,192,14856,1,8,0:0:0:0:
256,192,15169,1,0,0:0:0:0:
256,192,15481,1,0,0:0:0:0:
256,192,15794,1,0,0:0:0:0:
256,192,16106,1,8,0:0:0:0:
256,192,16731,1,8,0:0:0:0:
256,192,16887,1,8,0:0:0:0:
256,192,17044,1,8,0:0:0:0:
256,192,17356,1,8,0:0:0:0:
256,192,17669,1,0,0:0:0:0:
256,192,18294,1,0,0:0:0:0:
256,192,18919,1,0,0:0:0:0:
256,192,19544,1,8,0:0:0:0:
256,192,19856,12,0,21106,0:0:0:0:
256,192,21419,5,8,0:0:0:0:
256,192,21887,1,8,0:0:0:0:
256,192,22356,1,8,0:0:0:0:
256,192,22669,1,0,0:0:0:0:
256,192,23137,1,0,0:0:0:0:
256,192,23606,1,0,0:0:0:0:
256,192,24544,1,8,0:0:0:0:
256,192,25169,1,0,0:0:0:0:
256,192,25637,1,0,0:0:0:0:
256,192,26106,1,0,0:0:0:0:
256,192,26731,1,8,0:0:0:0:
256,192,26887,1,8,0:0:0:0:
256,192,27044,1,8,0:0:0:0:
256,192,27200,1,8,0:0:0:0:
256,192,27356,1,8,0:0:0:0:
256,192,27669,1,0,0:0:0:0:
256,192,28137,1,0,0:0:0:0:
256,192,28606,1,0,0:0:0:0:
256,192,29544,1,8,0:0:0:0:
256,192,30169,1,0,0:0:0:0:
256,192,30637,1,0,0:0:0:0:
256,192,31106,1,0,0:0:0:0:
256,192,32044,1,8,0:0:0:0:
256,192,32669,1,4,0:0:0:0:
256,192,33137,1,4,0:0:0:0:
256,192,33606,1,4,0:0:0:0:
256,192,34231,1,0,0:0:0:0:
256,192,34387,1,0,0:0:0:0:
256,192,34544,1,8,0:0:0:0:
256,192,34700,1,8,0:0:0:0:
256,192,34856,1,0,0:0:0:0:
256,192,35169,1,4,0:0:0:0:
256,192,35637,1,4,0:0:0:0:
256,192,36106,1,4,0:0:0:0:
256,192,36731,1,8,0:0:0:0:
256,192,36887,1,8,0:0:0:0:
256,192,37044,1,0,0:0:0:0:
256,192,37200,1,0,0:0:0:0:
256,192,37356,1,8,0:0:0:0:
256,192,37669,1,4,0:0:0:0:
256,192,38137,1,4,0:0:0:0:
256,192,38606,1,4,0:0:0:0:
256,192,39231,1,0,0:0:0:0:
256,192,39544,1,0,0:0:0:0:
256,192,39856,1,12,0:0:0:0:
256,192,40481,1,0,0:0:0:0:
256,192,40794,1,0,0:0:0:0:
256,192,41106,1,0,0:0:0:0:
256,192,41731,1,8,0:0:0:0:
256,192,42044,1,8,0:0:0:0:
256,192,42669,5,0,0:0:0:0:
256,192,42981,1,0,0:0:0:0:
256,192,43137,1,0,0:0:0:0:
256,192,43294,1,0,0:0:0:0:
256,192,43606,1,8,0:0:0:0:
256,192,43919,1,0,0:0:0:0:
256,192,44231,1,8,0:0:0:0:
256,192,44387,1,8,0:0:0:0:
256,192,44544,1,0,0:0:0:0:
256,192,44856,1,8,0:0:0:0:
256,192,45169,1,0,0:0:0:0:
256,192,45481,1,0,0:0:0:0:
256,192,45794,1,8,0:0:0:0:
256,192,46106,1,8,0:0:0:0:
256,192,46419,2,0,L|416:192,1,140
256,192,47669,1,0,0:0:0:0:
256,192,47981,1,0,0:0:0:0:
256,192,48137,1,0,0:0:0:0:
256,192,48294,1,0,0:0:0:0:
256,192,48606,1,8,0:0:0:0:
256,192,48919,1,0,0:0:0:0:
256,192,49231,1,8,0:0:0:0:
256,192,49387,1,8,0:0:0:0:
256,192,49544,1,0,0:0:0:0:
256,192,49856,1,8,0:0:0:0:
256,192,50169,1,0,0:0:0:0:
256,192,50481,1,0,0:0:0:0:
256,192,50794,1,8,0:0:0:0:
256,192,51106,1,8,0:0:0:0:
256,192,51419,2,0,L|416:192,1,140
256,192,52669,1,0,0:0:0:0:
256,192,52981,1,0,0:0:0:0:
256,192,53137,1,0,0:0:0:0:
256,192,53450,1,0,0:0:0:0:
256,192,53606,1,8,0:0:0:0:
256,192,54231,1,0,0:0:0:0:
256,192,54544,1,8,0:0:0:0:
256,192,54856,1,0,0:0:0:0:
256,192,55169,1,0,0:0:0:0:
256,192,55481,1,0,0:0:0:0:
256,192,55637,1,0,0:0:0:0:
256,192,55950,1,0,0:0:0:0:
256,192,56106,1,8,0:0:0:0:
256,192,56731,1,0,0:0:0:0:
256,192,57044,1,8,0:0:0:0:
256,192,57356,1,0,0:0:0:0:
256,192,57669,1,0,0:0:0:0:
256,192,58294,1,0,0:0:0:0:
256,192,58919,1,8,0:0:0:0:
256,192,59544,1,8,0:0:0:0:
256,192,59856,1,8,0:0:0:0:
256,192,60169,1,0,0:0:0:0:
256,192,60481,1,0,0:0:0:0:
256,192,60794,1,8,0:0:0:0:
256,192,61106,1,0,0:0:0:0:
256,192,61262,1,0,0:0:0:0:
256,192,61419,1,8,0:0:0:0:
256,192,61731,1,0,0:0:0:0:
256,192,61887,1,8,0:0:0:0:
256,192,62200,1,0,0:0:0:0:
256,192,62356,1,8,0:0:0:0:
256,192,62512,1,8,0:0:0:0:
256,192,62669,5,0,0:0:0:0:
256,192,62981,1,0,0:0:0:0:
256,192,63137,1,0,0:0:0:0:
256,192,63294,1,0,0:0:0:0:
256,192,63606,1,8,0:0:0:0:
256,192,63919,1,0,0:0:0:0:
256,192,64231,1,8,0:0:0:0:
256,192,64387,1,8,0:0:0:0:
256,192,64544,1,0,0:0:0:0:
256,192,64856,1,8,0:0:0:0:
256,192,65169,1,0,0:0:0:0:
256,192,65481,1,0,0:0:0:0:
256,192,65794,1,8,0:0:0:0:
256,192,66106,1,8,0:0:0:0:
256,192,66419,2,0,L|416:192,1,140
256,192,67669,1,0,0:0:0:0:
256,192,67981,1,0,0:0:0:0:
256,192,68137,1,0,0:0:0:0:
256,192,68294,1,0,0:0:0:0:
256,192,68606,1,8,0:0:0:0:
256,192,68919,1,0,0:0:0:0:
256,192,69231,1,8,0:0:0:0:
256,192,69387,1,8,0:0:0:0:
256,192,69544,1,0,0:0:0:0:
256,192,69856,1,8,0:0:0:0:
256,192,70169,1,0,0:0:0:0:
256,192,70481,1,0,0:0:0:0:
256,192,70794,1,8,0:0:0:0:
256,192,71106,1,8,0:0:0:0:
256,192,71419,2,0,L|416:192,1,140
256,192,72669,1,0,0:0:0:0:
256,192,72981,1,0,0:0:0:0:
256,192,73137,1,0,0:0:0:0:
256,192,73450,1,0,0:0:0:0:
256,192,73606,1,8,0:0:0:0:
256,192,74231,1,0,0:0:0:0:
256,192,74544,1,8,0:0:0:0:
256,192,74856,1,8,0:0:0:0:
256,192,75012,1,8,0:0:0:0:
256,192,75169,1,0,0:0:0:0:
256,192,75481,1,0,0:0:0:0:
256,192,75637,1,0,0:0:0:0:
256,192,75950,1,0,0:0:0:0:
256,192,76106,1,8,0:0:0:0:
256,192,76731,1,0,0:0:0:0:
256,192,77044,1,8,0:0:0:0:
256,192,77356,1,8,0:0:0:0:
256,192,77669,1,0,0:0:0:0:
256,192,78294,1,0,0:0:0:0:
256,192,78606,1,8,0:0:0:0:
256,192,78762,1,8,0:0:0:0:
256,192,78919,1,8,0:0:0:0:
256,192,79231,1,0,0:0:0:0:
256,192,79544,1,0,0:0:0:0:
256,192,79856,1,0,0:0:0:0:
256,192,80169,1,12,0:0:0:0:
256,192,80794,1,4,0:0:0:0:
