osu file format v14

[General]
AudioFilename: audio.mp3
AudioLeadIn: 0
PreviewTime: 42331
Countdown: 0
SampleSet: Normal
StackLeniency: 0.7
Mode: 1
LetterboxInBreaks: 0
WidescreenStoryboard: 1

[Editor]
Bookmarks: 2669,22669,42669,62669,82669
DistanceSpacing: 0.5
BeatDivisor: 4
GridSize: 32
TimelineZoom: 0.3

[Metadata]
Title:Hitori ja... Issho nara! (TV Size)
TitleUnicode:ひとりじゃ...いっしょなら!(TV Size)
Artist:Trial & Error
ArtistUnicode:Trial & Error
Creator:DakeDekaane
Version:Kantan
Source:
Tags:Ruby Airan Souichi Sakagami featured artist fa pop japanese and
BeatmapID:2603748
BeatmapSetID:1252845

[Difficulty]
HPDrainRate:8.5
CircleSize:2
OverallDifficulty:3
ApproachRate:10
SliderMultiplier:1.4
SliderTickRate:1

[Events]
//Background and Video events
0,0,"65655098_p0.jpg",0,0
//Break Periods
//Storyboard Layer 0 (Background)
//Storyboard Layer 1 (Fail)
//Storyboard Layer 2 (Pass)
//Storyboard Layer 3 (Foreground)
//Storyboard Layer 4 (Overlay)
//Storyboard Sound Samples

[TimingPoints]
-7331,625,4,1,0,70,1,0
42669,-100,4,1,0,80,0,1
82669,-100,4,1,0,70,0,0

[HitObjects]
256,192,2669,5,0,0:0:0:0:
256,192,3919,1,0,0:0:0:0:
256,192,5169,1,0,0:0:0:0:
256,192,7044,1,8,0:0:0:0:
256,192,7669,1,0,0:0:0:0:
256,192,8919,1,0,0:0:0:0:
256,192,10169,1,0,0:0:0:0:
256,192,11419,1,8,0:0:0:0:
256,192,12044,1,8,0:0:0:0:
256,192,12669,1,0,0:0:0:0:
256,192,13919,1,0,0:0:0:0:
256,192,15169,1,0,0:0:0:0:
256,192,17044,1,8,0:0:0:0:
256,192,17669,1,0,0:0:0:0:
256,192,18919,1,8,0:0:0:0:
256,192,20169,1,0,0:0:0:0:
256,192,22669,1,0,0:0:0:0:
256,192,25169,1,0,0:0:0:0:
256,192,27044,1,8,0:0:0:0:
256,192,27669,1,0,0:0:0:0:
256,192,30169,1,0,0:0:0:0:
256,192,32669,1,4,0:0:0:0:
256,192,35169,1,4,0:0:0:0:
256,192,37669,1,12,0:0:0:0:
256,192,39856,12,0,41106,0:0:0:0:
256,192,42669,5,0,0:0:0:0:
256,192,43919,1,0,0:0:0:0:
256,192,45169,1,0,0:0:0:0:
256,192,45794,1,0,0:0:0:0:
256,192,46419,1,8,0:0:0:0:
256,192,47669,1,0,0:0:0:0:
256,192,48919,1,0,0:0:0:0:
256,192,50169,1,0,0:0:0:0:
256,192,50794,1,0,0:0:0:0:
256,192,51419,1,8,0:0:0:0:
256,192,52669,1,0,0:0:0:0:
256,192,55169,1,8,0:0:0:0:
256,192,57669,1,0,0:0:0:0:
256,192,58294,1,0,0:0:0:0:
256,192,58919,1,0,0:0:0:0:
256,192,60169,12,0,61419,0:0:0:0:
256,192,62669,5,0,0:0:0:0:
256,192,63919,1,0,0:0:0:0:
256,192,65169,1,0,0:0:0:0:
256,192,65794,1,0,0:0:0:0:
256,192,66419,1,8,0:0:0:0:
256,192,67669,1,0,0:0:0:0:
256,192,68919,1,0,0:0:0:0:
256,192,70169,1,0,0:0:0:0:
256,192,70794,1,0,0:0:0:0:
256,192,71419,1,8,0:0:0:0:
256,192,72669,1,0,0:0:0:0:
256,192,75169,1,8,0:0:0:0:
256,192,77669,1,0,0:0:0:0:
256,192,78919,1,8,0:0:0:0:
256,192,80169,1,12,0:0:0:0:
256,192,80794,1,4,0:0:0:0:
