osu file format v14

[General]
AudioFilename: audio.mp3
AudioLeadIn: 0
PreviewTime: 42331
Countdown: 0
SampleSet: Normal
StackLeniency: 0.7
Mode: 1
LetterboxInBreaks: 0
WidescreenStoryboard: 1

[Editor]
DistanceSpacing: 1
BeatDivisor: 4
GridSize: 32
TimelineZoom: 1

[Metadata]
Title:Hitori ja... Issho nara! (TV Size)
TitleUnicode:ひとりじゃ...いっしょなら!(TV Size)
Artist:Trial & Error
ArtistUnicode:Trial & Error
Creator:DakeDekaane
Version:Futsuu
Source:
Tags:Ruby Airan Souichi Sakagami featured artist fa pop japanese and
BeatmapID:2603747
BeatmapSetID:1252845

[Difficulty]
HPDrainRate:8
CircleSize:2
OverallDifficulty:4
ApproachRate:10
SliderMultiplier:1.4
SliderTickRate:1

[Events]
//Background and Video events
0,0,"65655098_p0.jpg",0,0
//Break Periods
//Storyboard Layer 0 (Background)
//Storyboard Layer 1 (Fail)
//Storyboard Layer 2 (Pass)
//Storyboard Layer 3 (Foreground)
//Storyboard Layer 4 (Overlay)
//Storyboard Sound Samples

[TimingPoints]
-7331,625,4,1,0,70,1,0
42669,-100,4,1,0,80,0,1
82669,-100,4,1,0,70,0,0

[HitObjects]
256,192,2669,5,0,0:0:0:0:
256,192,3294,1,0,0:0:0:0:
256,192,3919,1,0,0:0:0:0:
256,192,5169,1,0,0:0:0:0:
256,192,5794,1,0,0:0:0:0:
256,192,6419,1,8,0:0:0:0:
256,192,7669,1,0,0:0:0:0:
256,192,8294,1,0,0:0:0:0:
256,192,8919,1,0,0:0:0:0:
256,192,10169,1,0,0:0:0:0:
256,192,10794,1,0,0:0:0:0:
256,192,11419,1,8,0:0:0:0:
256,192,12044,1,8,0:0:0:0:
256,192,12669,1,0,0:0:0:0:
256,192,13919,1,0,0:0:0:0:
256,192,14544,1,8,0:0:0:0:
256,192,15169,1,0,0:0:0:0:
256,192,15794,1,8,0:0:0:0:
256,192,16106,1,8,0:0:0:0:
256,192,17669,1,0,0:0:0:0:
256,192,18294,1,0,0:0:0:0:
256,192,18919,1,0,0:0:0:0:
256,192,19544,1,8,0:0:0:0:
256,192,19856,12,0,21419,0:0:0:0:
256,192,22669,5,0,0:0:0:0:
256,192,23606,1,0,0:0:0:0:
256,192,25169,1,0,0:0:0:0:
256,192,26106,1,0,0:0:0:0:
256,192,27044,1,8,0:0:0:0:
256,192,27669,1,0,0:0:0:0:
256,192,28606,1,0,0:0:0:0:
256,192,30169,1,0,0:0:0:0:
256,192,31106,1,0,0:0:0:0:
256,192,32044,1,8,0:0:0:0:
256,192,32669,1,4,0:0:0:0:
256,192,33606,1,4,0:0:0:0:
256,192,34544,1,8,0:0:0:0:
256,192,35169,1,4,0:0:0:0:
256,192,36106,1,4,0:0:0:0:
256,192,37044,1,8,0:0:0:0:
256,192,37669,1,4,0:0:0:0:
256,192,38606,1,4,0:0:0:0:
256,192,39856,12,0,41106,0:0:0:0:
256,192,42669,5,0,0:0:0:0:
256,192,43294,1,8,0:0:0:0:
256,192,43919,1,0,0:0:0:0:
256,192,44544,1,8,0:0:0:0:
256,192,45169,1,0,0:0:0:0:
256,192,45481,1,0,0:0:0:0:
256,192,45794,1,0,0:0:0:0:
256,192,46419,1,8,0:0:0:0:
256,192,47669,1,0,0:0:0:0:
256,192,48294,1,8,0:0:0:0:
256,192,48919,1,0,0:0:0:0:
256,192,49544,1,8,0:0:0:0:
256,192,50169,1,0,0:0:0:0:
256,192,50481,1,0,0:0:0:0:
256,192,50794,1,0,0:0:0:0:
256,192,51419,1,8,0:0:0:0:
256,192,52669,1,0,0:0:0:0:
256,192,53294,1,8,0:0:0:0:
256,192,53919,1,0,0:0:0:0:
256,192,55169,1,0,0:0:0:0:
256,192,55794,1,8,0:0:0:0:
256,192,56419,1,0,0:0:0:0:
256,192,57669,1,0,0:0:0:0:
256,192,58294,1,0,0:0:0:0:
256,192,58919,1,8,0:0:0:0:
256,192,59544,1,8,0:0:0:0:
256,192,60169,12,0,62044,0:0:0:0:
256,192,62669,5,0,0:0:0:0:
256,192,63294,1,8,0:0:0:0:
256,192,63919,1,0,0:0:0:0:
256,192,64544,1,8,0:0:0:0:
256,192,65169,1,0,0:0:0:0:
256,192,65481,1,0,0:0:0:0:
256,192,65794,1,0,0:0:0:0:
256,192,66419,1,8,0:0:0:0:
256,192,67669,1,0,0:0:0:0:
256,192,68294,1,8,0:0:0:0:
256,192,68919,1,0,0:0:0:0:
256,192,69544,1,8,0:0:0:0:
256,192,70169,1,0,0:0:0:0:
256,192,70481,1,0,0:0:0:0:
256,192,70794,1,0,0:0:0:0:
256,192,71419,1,8,0:0:0:0:
256,192,72669,1,0,0:0:0:0:
256,192,73294,1,8,0:0:0:0:
256,192,73919,1,0,0:0:0:0:
256,192,75169,1,0,0:0:0:0:
256,192,75794,1,8,0:0:0:0:
256,192,76419,1,0,0:0:0:0:
256,192,77669,1,0,0:0:0:0:
256,192,78606,1,8,0:0:0:0:
256,192,78919,1,8,0:0:0:0:
256,192,79544,1,0,0:0:0:0:
256,192,79856,1,0,0:0:0:0:
256,192,80169,1,12,0:0:0:0:
256,192,80794,1,4,0:0:0:0:
