osu file format v14

[General]
AudioFilename: audio.mp3
AudioLeadIn: 0
PreviewTime: 59670
Countdown: 0
SampleSet: Soft
StackLeniency: 0.7
Mode: 0
LetterboxInBreaks: 0
WidescreenStoryboard: 1

[Editor]
Bookmarks: 352,5806,16715,27624,38533,49442,65806
DistanceSpacing: 1
BeatDivisor: 2
GridSize: 32
TimelineZoom: 1.6

[Metadata]
Title:DREAMING COLOR (Short ver.)
TitleUnicode:DREAMING COLOR (Short ver.)
Artist:Trial & Error
ArtistUnicode:Trial & Error
Creator:SENSEABEL
Version:Normal
Source:
Tags:featured artist electronic tandess souichi sakagami takigyousou natsume umi
BeatmapID:1795254
BeatmapSetID:859108

[Difficulty]
HPDrainRate:3.5
CircleSize:3.2
OverallDifficulty:4
ApproachRate:5
SliderMultiplier:1
SliderTickRate:1

[Events]
//Background and Video events
0,0,"bg.jpg",0,0
//Break Periods
//Storyboard Layer 0 (Background)
//Storyboard Layer 1 (Fail)
//Storyboard Layer 2 (Pass)
//Storyboard Layer 3 (Foreground)
//Storyboard Sound Samples

[TimingPoints]
340,340.909090909091,4,2,1,40,1,0
5794,-100,4,2,1,60,0,0
16192,-100,4,3,1,60,0,0
16703,-100,4,2,1,60,0,0
27271,-100,4,3,1,60,0,0
27612,-100,4,2,1,60,0,0
38180,-100,4,3,1,60,0,0
38521,-100,4,2,1,40,0,0
49430,-100,4,2,1,40,0,0
60340,-100,4,2,1,60,0,1
70567,-100,4,3,1,60,0,1
71249,-100,4,2,1,60,0,1
73635,-100,4,3,1,60,0,1
74999,-100,4,2,1,60,0,1
81476,-100,4,2,1,60,0,0
86930,-166.666666666667,4,2,1,40,0,0
87101,-166.666666666667,4,2,1,20,0,0
87271,-166.666666666667,4,2,1,5,0,0

[Colours]
Combo1 : 197,254,109
Combo2 : 255,120,55
Combo3 : 255,255,128
Combo4 : 250,72,5

[HitObjects]
55,159,340,6,0,P|49:97|57:-23,2,100,8|8|2,0:0|0:0|0:0,0:0:0:0:
89,188,1192,1,8,0:0:0:0:
166,142,1533,2,0,P|245:125|352:277,1,250,8|2,0:0|0:0,0:0:0:0:
501,131,3067,6,0,P|507:69|499:-51,2,100,8|8|2,0:0|0:0|0:0,0:0:0:0:
467,160,3919,1,8,0:0:0:0:
390,114,4260,2,0,P|311:97|204:249,1,250,8|0,0:0|0:0,0:0:0:0:
32,268,5794,6,0,P|92:249|164:324,1,150,8|0,0:0|0:0,0:0:0:0:
184,332,6475,1,0,0:0:0:0:
263,289,6817,2,0,B|374:259|321:353|464:315,1,200,8|8,0:0|0:0,0:0:0:0:
408,238,7840,2,0,P|382:180|408:114,1,100,0|8,0:0|0:0,0:0:0:0:
425,64,8521,2,0,P|357:55|310:95,1,100,2|8,0:0|0:0,0:0:0:0:
292,100,9033,1,0,0:0:0:0:
218,160,9374,5,2,0:0:0:0:
168,152,9544,2,0,P|119:138|81:3,1,200,8|2,0:0|0:0,0:0:0:0:
169,49,10566,1,2,0:0:0:0:
265,22,10908,1,8,0:0:0:0:
357,60,11249,6,0,P|347:111|352:178,1,100,2|8,0:0|0:0,0:0:0:0:
393,248,11930,1,0,0:0:0:0:
294,232,12271,2,0,P|198:243|168:265,1,100,8|0,0:0|0:0,0:0:0:0:
129,317,12953,1,8,0:0:0:0:
37,276,13294,2,0,P|42:312|27:356,2,50,0|2|8,0:0|0:0|0:0,0:0:0:0:
15,178,13976,6,0,P|12:130|19:79,1,100,2|8,0:0|0:0,0:0:0:0:
40,33,14487,1,2,0:0:0:0:
125,85,14828,1,2,0:0:0:0:
174,75,14999,2,0,B|269:79|206:137|344:139,1,150,8|8,0:0|0:0,0:0:0:0:
354,134,15680,1,2,0:0:0:0:
398,109,15851,2,0,P|398:70|391:47,2,50,2|8|8,0:0|0:0|0:0,0:0:0:0:
469,179,16533,5,8,0:0:0:0:
432,213,16703,2,0,P|419:275|424:338,1,100,2|8,0:0|0:0,0:0:0:0:
320,295,17385,1,0,0:0:0:0:
292,253,17555,2,0,P|290:205|284:174,2,50,2|8|0,0:0|0:0|0:0,0:0:0:0:
241,258,18067,6,0,P|159:271|130:321,1,100,0|8,0:0|0:0,0:0:0:0:
56,318,18749,2,0,P|58:366|64:401,2,50,0|0|8,0:0|0:0|0:0,0:0:0:0:
78,220,19430,6,0,P|65:138|16:109,1,100,2|8,0:0|0:0,0:0:0:0:
15,37,20112,1,0,0:0:0:0:
112,60,20453,2,0,P|136:59|160:52,1,50,8|2,0:0|0:0,0:0:0:0:
208,35,20794,6,0,P|277:37|299:80,1,100,0|8,0:0|0:0,0:0:0:0:
390,33,21476,2,0,L|382:96,1,50,0|2,0:0|0:0,0:0:0:0:
413,178,21987,1,0,0:0:0:0:
380,216,22158,6,0,P|376:258|386:328,1,100,2|8,0:0|0:0,0:0:0:0:
291,272,22840,2,0,P|281:240|266:217,2,50,0|2|8,0:0|0:0|0:0,0:0:0:0:
222,344,23521,6,0,P|169:350|110:335,1,100,2|8,0:0|0:0,0:0:0:0:
23,341,24203,1,0,0:0:0:0:
61,248,24544,2,0,B|54:208|36:187,1,50,8|0,0:0|0:0,0:0:0:0:
22,155,24885,6,0,P|67:141|131:160,1,100,2|8,0:0|0:0,0:0:0:0:
155,185,25396,1,0,0:0:0:0:
241,135,25737,1,2,0:0:0:0:
273,173,25908,2,0,P|276:221|276:241,2,50,8|0|2,0:0|0:0|0:0,0:0:0:0:
366,137,26590,1,8,0:0:0:0:
451,187,26930,2,0,L|448:236,1,50,2|8,0:0|0:0,0:0:0:0:
400,250,27271,2,0,L|406:317,1,50,8|8,0:0|0:0,0:0:0:0:
362,327,27612,6,0,P|297:303|245:305,1,100,2|8,0:0|0:0,0:0:0:0:
173,340,28294,1,0,0:0:0:0:
175,240,28635,2,0,P|166:202|150:175,1,50,8|0,0:0|0:0,0:0:0:0:
203,165,28976,6,0,P|210:86|218:60,1,100,2|8,0:0|0:0,0:0:0:0:
130,16,29658,1,0,0:0:0:0:
50,76,29999,2,0,P|61:114|63:131,1,50,8|0,0:0|0:0,0:0:0:0:
96,160,30339,6,0,P|78:241|85:277,1,100,2|8,0:0|0:0,0:0:0:0:
137,338,31021,1,0,0:0:0:0:
217,278,31362,2,0,P|253:274|283:279,1,50,8|0,0:0|0:0,0:0:0:0:
313,256,31703,6,0,P|323:299|301:362,1,100,2|0,0:0|0:0,0:0:0:0:
406,330,32385,2,0,P|401:303|402:278,1,50,0|2,0:0|0:0,0:0:0:0:
441,250,32726,2,0,P|445:222|444:197,1,50,8|0,0:0|0:0,0:0:0:0:
428,153,33067,6,0,B|417:105|417:105|440:39,2,100,2|8|0,0:0|0:0|0:0,0:0:0:0:
332,185,34090,2,0,B|314:122,1,50,8|2,0:0|0:0,0:0:0:0:
291,95,34430,6,0,P|226:78|198:96,2,100,0|2|8,0:0|0:3|0:0,0:0:0:0:
239,181,35453,1,8,0:0:0:0:
151,132,35794,6,0,P|104:124|51:151,1,100,2|8,0:0|0:0,0:0:0:0:
65,244,36476,2,0,P|49:268|46:297,2,50,0|2|8,0:0|0:0|0:0,0:0:0:0:
138,312,37158,6,0,P|199:318|238:286,1,100,2|8,0:0|0:0,0:0:0:0:
294,221,37840,2,0,L|289:171,2,50,8|0|0,0:0|0:0|0:0,0:0:0:0:
335,249,38351,1,8,0:0:0:0:
383,260,38521,5,0,0:0:0:0:
478,229,38862,2,0,L|482:288,2,50,0|0|8,0:0|0:0|0:0,0:0:0:0:
401,164,39544,2,0,B|341:153|359:188|295:178,1,100,2|2,0:0|0:0,0:0:0:0:
257,163,40055,2,0,P|262:135|262:114,2,50,8|0|0,0:0|0:0|0:0,0:0:0:0:
210,142,40567,2,0,P|176:138|118:176,2,100,8|2|2,0:0|0:0|0:0,0:0:0:0:
243,236,41590,5,2,0:0:0:0:
189,320,41931,1,8,0:0:0:0:
89,310,42271,1,2,0:0:0:0:
53,216,42612,2,0,P|61:176|72:145,2,50,2|8|0,0:0|0:0|0:0,0:0:0:0:
153,209,43294,6,0,P|164:257|162:307,1,100,8|2,0:0|0:0,0:0:0:0:
261,288,43976,1,2,0:0:0:0:
340,227,44317,2,0,B|394:226|373:261|456:258,1,100,2|8,0:0|0:0,0:0:0:0:
486,173,44998,1,2,0:0:0:0:
389,145,45339,6,0,P|353:113|360:43,1,100,2|2,0:0|0:0,0:0:0:0:
443,27,46021,2,0,P|478:58|471:128,2,100,8|2|2,0:0|0:0|0:0,0:0:0:0:
349,63,47044,2,0,P|317:98|247:91,2,100,2|8|2,0:0|0:0|0:0,0:0:0:0:
422,131,48067,2,0,P|389:167|391:216,2,100,2|0|0,0:0|0:0|0:0,0:0:0:0:
447,87,48919,2,0,P|483:78|510:81,2,50,2|8|0,0:0|0:0|0:0,0:0:0:0:
397,78,49430,5,2,0:0:0:0:
301,107,49771,2,0,P|255:82|250:22,2,100,8|0|8,0:0|0:0|0:0,0:0:0:0:
337,200,50794,2,0,P|332:250|342:309,1,100,0|8,0:0|0:0,0:0:0:0:
428,345,51476,2,0,P|473:324|519:286,1,100,2|8,0:0|0:0,0:0:0:0:
507,193,52158,2,0,P|466:163|410:142,1,100,2|8,0:0|0:0,0:0:0:0:
381,237,52840,2,0,P|331:230|271:238,1,100,2|8,0:0|0:0,0:0:0:0:
322,326,53521,2,0,P|277:349|234:391,1,100,0|8,0:0|0:0,0:0:0:0:
164,317,54203,2,0,P|128:276|69:265,1,100,2|8,0:0|0:0,0:0:0:0:
115,168,54885,6,0,B|65:192|70:161|14:188,2,100,2|8|0,0:0|0:0|0:0,0:0:0:0:
207,129,55908,1,8,0:0:0:0:
298,170,56249,2,0,B|303:95|321:58,1,100,0|8,0:0|0:0,0:0:0:0:
218,44,56930,6,0,P|175:18|128:1,2,100,2|8|2,0:0|0:0|0:0,0:0:0:0:
315,71,57953,1,8,0:0:0:0:
410,39,58294,1,2,0:0:0:0:
400,138,58635,1,8,0:0:0:0:
463,214,58976,2,0,P|470:256|465:280,2,50,2|8|2,0:0|0:0|0:0,0:0:0:0:
371,255,59658,2,0,P|319:219|315:125,1,150,8|2,0:0|0:0,0:0:0:0:
342,99,60340,6,0,P|331:39|302:-9,2,100,2|8|0,0:0|0:0|0:0,0:0:0:0:
243,80,61362,2,0,P|209:54|151:71,1,100,8|0,0:0|0:0,0:0:0:0:
56,69,62044,1,8,0:0:0:0:
109,153,62385,6,0,P|106:213|96:273,1,100,0|8,0:0|0:0,0:0:0:0:
56,342,63067,2,0,P|24:333|-11:331,2,50,2|0|8,0:0|0:0|0:0,0:0:0:0:
103,358,63578,1,0,0:0:0:0:
246,315,64090,2,0,B|278:271|282:311|336:245,2,100,8|0|8,0:0|0:0|0:0,0:0:0:0:
252,215,65112,1,8,0:0:0:0:
198,130,65453,1,8,0:0:0:0:
288,86,65794,6,0,P|310:44|353:-10,2,100,8|8|8,0:0|0:0|0:0,0:0:0:0:
385,109,66817,2,0,P|410:124|434:195,1,100,10|0,0:0|0:0,0:0:0:0:
340,221,67499,6,0,B|341:258|341:258|351:276|351:276|354:332,2,100,8|0|0,0:0|0:0|0:0,0:0:0:0:
283,138,68521,2,0,B|221:136|256:171|174:172,1,100,2|8,0:0|0:0,0:0:0:0:
91,176,69203,5,2,0:0:0:0:
162,246,69544,2,0,P|194:283|205:331,1,100,8|0,0:0|0:0,0:0:0:0:
168,366,70055,2,0,P|132:369|101:362,2,50,8|0|8,0:0|0:0|0:0,0:0:0:0:
218,372,70567,1,0,0:0:0:0:
293,306,70908,1,0,0:0:0:0:
325,211,71249,6,0,P|323:158|304:110,2,100,2|8|0,0:0|0:0|0:0,0:0:0:0:
391,285,72271,2,0,B|420:296|420:296|487:286,1,100,8|0,0:0|0:0,0:0:0:0:
504,238,72783,1,8,0:0:0:0:
482,192,72953,2,0,P|479:156|485:121,1,50,2|0,0:0|0:0,0:0:0:0:
487,92,73294,1,8,0:0:0:0:
405,34,73635,5,2,0:0:0:0:
315,79,73976,2,0,P|319:104|318:146,2,50,8|0|0,0:0|0:0|0:0,0:0:0:0:
272,52,74487,2,0,P|213:39|158:56,1,100,8|0,0:0|0:0,0:0:0:0:
133,76,74999,1,8,0:0:0:0:
147,123,75169,6,0,P|151:164|145:227,1,100,0|0,0:0|0:0,0:0:0:0:
134,271,75680,1,8,0:0:0:0:
232,252,76021,1,8,0:0:0:0:
315,306,76362,1,8,0:0:0:0:
404,261,76703,2,0,P|401:224|408:151,2,100,2|8|0,0:0|0:0|0:0,0:0:0:0:
323,200,77726,6,0,P|289:193|242:235,1,100,8|2,0:0|0:0,0:0:0:0:
223,278,78237,1,0,0:0:0:0:
198,321,78408,2,0,B|139:329|168:294|90:306,1,100,8|2,0:0|0:0,0:0:0:0:
25,240,79090,1,8,0:0:0:0:
118,200,79430,6,0,P|170:234|178:272,1,100,10|0,0:0|0:0,0:0:0:0:
203,271,79942,2,0,P|201:303|190:336,1,50,2|2,0:0|0:0,0:0:0:0:
104,360,80453,6,0,P|51:325|43:287,1,100,10|0,0:0|0:0,0:0:0:0:
19,289,80965,2,0,P|20:256|31:223,1,50,8|0,0:0|0:0,0:0:0:0:
124,230,81476,2,0,P|144:204|172:184,2,50,8|8|2,0:0|0:0|0:0,0:0:0:0:
256,192,81902,12,0,87271,0:0:0:0:
