osu file format v14

[General]
AudioFilename: audio.mp3
AudioLeadIn: 0
PreviewTime: 59670
Countdown: 0
SampleSet: Soft
StackLeniency: 0.7
Mode: 0
LetterboxInBreaks: 0
WidescreenStoryboard: 1

[Editor]
Bookmarks: 352,5806,16715,27624,38533,49442,65806
DistanceSpacing: 0.8
BeatDivisor: 4
GridSize: 32
TimelineZoom: 1.6

[Metadata]
Title:DREAMING COLOR (Short ver.)
TitleUnicode:DREAMING COLOR (Short ver.)
Artist:Trial & Error
ArtistUnicode:Trial & Error
Creator:SENSEABEL
Version:Hard
Source:
Tags:featured artist electronic tandess souichi sakagami takigyousou natsume umi
BeatmapID:1795252
BeatmapSetID:859108

[Difficulty]
HPDrainRate:6
CircleSize:4
OverallDifficulty:7
ApproachRate:7.5
SliderMultiplier:1.6
SliderTickRate:1

[Events]
//Background and Video events
0,0,"bg.jpg",0,0
//Break Periods
//Storyboard Layer 0 (Background)
//Storyboard Layer 1 (Fail)
//Storyboard Layer 2 (Pass)
//Storyboard Layer 3 (Foreground)
//Storyboard Sound Samples

[TimingPoints]
340,340.909090909091,4,2,1,40,1,0
340,-100,4,2,1,40,0,0
5794,-83.3333333333333,4,2,1,60,0,0
16192,-83.3333333333333,4,3,1,60,0,0
16703,-83.3333333333333,4,2,1,60,0,0
27271,-83.3333333333333,4,3,1,60,0,0
27612,-83.3333333333333,4,2,1,60,0,0
38180,-83.3333333333333,4,3,1,60,0,0
38521,-83.3333333333333,4,2,1,40,0,0
60340,-83.3333333333333,4,2,1,60,0,1
70567,-83.3333333333333,4,3,1,60,0,1
71249,-83.3333333333333,4,2,1,60,0,1
73635,-83.3333333333333,4,3,1,60,0,1
74999,-83.3333333333333,4,2,1,60,0,1
79430,-83.3333333333333,4,2,1,60,0,1
81476,-100,4,2,1,60,0,0
86930,-166.666666666667,4,2,1,40,0,0
87101,-166.666666666667,4,2,1,20,0,0
87271,-166.666666666667,4,2,1,5,0,0

[Colours]
Combo1 : 197,254,109
Combo2 : 255,120,55
Combo3 : 255,255,128
Combo4 : 250,72,5

[HitObjects]
42,116,340,5,8,0:0:0:0:
120,101,680,1,8,0:0:0:0:
198,115,1021,1,2,0:0:0:0:
198,115,1192,2,0,P|202:187|201:277,1,160,8|8,0:0|0:0,0:0:0:0:
358,315,1874,2,0,L|355:219,1,80,8|8,0:0|0:0,0:0:0:0:
440,91,2215,2,0,L|443:187,1,80,0|2,0:0|0:0,0:0:0:0:
360,79,2555,2,0,P|297:84|266:84,1,80,8|0,0:0|0:0,0:0:0:0:
204,80,2896,5,0,0:0:0:0:
204,80,2982,1,8,0:0:0:0:
204,80,3067,5,8,0:0:0:0:
282,65,3407,1,8,0:0:0:0:
360,79,3748,1,2,0:0:0:0:
360,79,3919,2,0,P|364:151|363:241,1,160,8|8,0:0|0:0,0:0:0:0:
225,321,4601,5,0,0:0:0:0:
183,252,4771,1,0,0:0:0:0:
214,178,4941,1,0,0:0:0:0:
290,152,5112,1,0,0:0:0:0:
364,181,5283,1,0,0:0:0:0:
364,181,5453,2,0,L|357:238,3,40,0|0|0|0,0:0|0:0|0:0|0:0,0:0:0:0:
406,166,5794,6,0,P|346:147|215:207,1,191.999994140625,8|2,0:0|0:0,0:0:0:0:
190,278,6305,2,0,P|202:215|188:165,1,95.9999970703126,0|0,0:0|0:0,0:0:0:0:
144,103,6646,1,0,0:0:0:0:
144,103,6817,6,0,B|280:79|197:153|338:122|338:119,1,191.999994140625,8|0,0:0|0:0,0:0:0:0:
399,87,7328,2,0,P|410:149|397:200,2,95.9999970703126,2|8|0,0:0|0:0|0:0,0:0:0:0:
330,50,7840,2,0,P|275:81|245:124,1,95.9999970703126,0|2,0:0|0:0,0:0:0:0:
217,172,8180,2,0,P|259:193|291:228,1,95.9999970703126,8|0,0:0|0:0,0:0:0:0:
259,298,8521,6,0,B|383:237|323:331|450:262|449:259,1,191.999994140625,2|8,0:0|0:0,0:0:0:0:
508,129,9203,2,0,P|506:176|509:224,1,95.9999970703126,0|2,0:0|0:0,0:0:0:0:
435,168,9544,6,0,P|391:140|224:153,1,191.999994140625,8|0,0:0|0:0,0:0:0:0:
185,170,10055,1,0,0:0:0:0:
185,170,10226,2,0,P|115:195|52:197,1,95.9999970703126,2|8,0:0|0:0,0:0:0:0:
38,130,10567,2,0,P|51:56|81:1,1,95.9999970703126,2|8,0:0|0:0,0:0:0:0:
143,15,10908,1,8,0:0:0:0:
288,68,11249,6,0,P|261:167|269:289,1,191.999994140625,2|8,0:0|0:0,0:0:0:0:
336,232,11760,2,0,P|403:233|444:241,1,95.9999970703126,0|0,0:0|0:0,0:0:0:0:
505,258,12101,1,0,0:0:0:0:
505,258,12271,2,0,P|505:162|479:69,1,191.999994140625,8|0,0:0|0:0,0:0:0:0:
425,14,12783,2,0,P|362:16|321:73,1,95.9999970703126,2|8,0:0|0:0,0:0:0:0:
295,99,13124,1,0,0:0:0:0:
295,99,13294,2,0,P|230:92|182:94,2,95.9999970703126,0|2|8,0:0|0:0|0:0,0:0:0:0:
314,173,13805,5,0,0:0:0:0:
314,173,13975,2,0,P|379:166|427:168,1,95.9999970703126,2|0,0:0|0:0,0:0:0:0:
264,254,14317,2,0,P|238:195|225:149,1,95.9999970703126,8|2,0:0|0:0,0:0:0:0:
358,262,14658,2,0,P|319:314|286:348,1,95.9999970703126,8|2,0:0|0:0,0:0:0:0:
183,325,14999,6,0,B|78:294|119:383|-24:334,1,191.999994140625,8|0,0:0|0:0,0:0:0:0:
0,341,15510,1,8,0:0:0:0:
34,272,15680,1,2,0:0:0:0:
40,195,15851,2,0,L|36:137,2,47.9999985351563,2|0|8,0:0|0:0|0:0,0:0:0:0:
105,236,16192,1,8,0:0:0:0:
105,236,16362,2,0,P|165:233|208:240,1,95.9999970703126,0|8,0:0|0:0,0:0:0:0:
272,265,16703,6,0,P|353:283|495:287,1,191.999994140625,2|8,0:0|0:0,0:0:0:0:
435,216,17215,1,0,0:0:0:0:
435,216,17385,2,0,P|437:168|445:120,1,95.9999970703126,0|2,0:0|0:0,0:0:0:0:
367,121,17726,2,0,P|364:73|356:25,1,95.9999970703126,8|0,0:0|0:0,0:0:0:0:
289,63,18067,6,0,B|184:32|225:121|82:72,1,191.999994140625,0|8,0:0|0:0,0:0:0:0:
33,48,18578,1,2,0:0:0:0:
33,48,18749,2,0,P|15:92|15:139,1,95.9999970703126
44,211,19090,2,0,P|85:186|133:179,1,95.9999970703126,8|0,0:0|0:0,0:0:0:0:
208,181,19430,6,0,B|271:185|271:185|328:224|328:224|415:230,1,191.999994140625,2|8,0:0|0:0,0:0:0:0:
463,241,19942,1,0,0:0:0:0:
463,241,20112,2,0,P|453:301|456:345,1,95.9999970703126,0|2,0:0|0:0,0:0:0:0:
379,317,20453,2,0,P|343:285|301:262,1,95.9999970703126,8|2,0:0|0:0,0:0:0:0:
231,228,20794,6,0,P|141:206|39:246,1,191.999994140625,0|8,0:0|0:0,0:0:0:0:
8,303,21305,1,0,0:0:0:0:
17,226,21476,1,0,0:0:0:0:
17,226,21647,1,2,0:0:0:0:
86,194,21817,1,8,0:0:0:0:
86,194,21988,1,0,0:0:0:0:
95,117,22158,6,0,P|241:124|292:135,1,191.999994140625,2|8,0:0|0:0,0:0:0:0:
260,206,22669,1,0,0:0:0:0:
260,206,22840,2,0,P|244:276|236:327,1,95.9999970703126,0|2,0:0|0:0,0:0:0:0:
176,343,23180,2,0,P|163:296|155:249,1,95.9999970703126,8|0,0:0|0:0,0:0:0:0:
137,174,23521,6,0,B|117:124|138:71|138:71|190:57|247:81,1,191.999994140625,2|8,0:0|0:0,0:0:0:0:
295,101,24033,1,0,0:0:0:0:
295,101,24203,2,0,B|328:103|389:85,1,95.9999970703126,0|2,0:0|0:0,0:0:0:0:
460,55,24544,2,0,B|441:82|426:144,1,95.9999970703126,8|0,0:0|0:0,0:0:0:0:
410,220,24885,6,0,P|323:258|299:372,1,191.999994140625,2|8,0:0|0:0,0:0:0:0:
220,323,25396,1,0,0:0:0:0:
220,323,25567,2,0,P|158:311|103:311,1,95.9999970703126,0|2,0:0|0:0,0:0:0:0:
48,304,25908,2,0,P|69:261|84:216,1,95.9999970703126,8|0,0:0|0:0,0:0:0:0:
102,140,26249,5,2,0:0:0:0:
239,208,26590,1,8,0:0:0:0:
245,54,26930,1,2,0:0:0:0:
168,46,27101,1,8,0:0:0:0:
95,71,27271,1,8,0:0:0:0:
18,65,27442,1,8,0:0:0:0:
18,65,27612,6,0,P|32:146|26:289,1,191.999994140625,2|8,0:0|0:0,0:0:0:0:
107,243,28124,1,0,0:0:0:0:
107,243,28294,2,0,P|186:248|215:251,1,95.9999970703126,0|2,0:0|0:0,0:0:0:0:
279,256,28635,2,0,B|324:282|324:282|352:333,1,95.9999970703126,8|0,0:0|0:0,0:0:0:0:
418,343,28976,6,0,P|415:247|430:152,1,191.999994140625,2|8,0:0|0:0,0:0:0:0:
453,78,29487,1,2,0:0:0:0:
453,78,29658,6,0,P|362:81|339:80,1,95.9999970703126,0|2,0:0|0:0,0:0:0:0:
300,132,29999,2,0,P|252:130|204:133,1,95.9999970703126,8|0,0:0|0:0,0:0:0:0:
182,208,30340,6,0,P|227:216|321:328,1,191.999994140625,2|8,0:0|0:0,0:0:0:0:
243,331,30851,1,0,0:0:0:0:
243,331,31021,2,0,P|195:326|147:321,1,95.9999970703126,0|2,0:0|0:0,0:0:0:0:
109,254,31362,2,0,P|61:258|13:263,1,95.9999970703126,8|0,0:0|0:0,0:0:0:0:
13,263,31703,6,0,B|-19:161|40:191|8:75,1,191.999994140625,2|0,0:0|0:0,0:0:0:0:
55,13,32215,1,0,0:0:0:0:
130,22,32385,1,0,0:0:0:0:
130,22,32555,1,2,0:0:0:0:
181,78,32726,1,8,0:0:0:0:
181,78,32896,1,0,0:0:0:0:
173,154,33067,6,0,B|279:160|229:205|350:217,1,191.999994140625,2|8,0:0|0:0,0:0:0:0:
436,220,33578,1,2,0:0:0:0:
436,220,33749,2,0,B|446:169|446:169|426:115,1,95.9999970703126,0|2,0:0|0:0,0:0:0:0:
344,124,34090,2,0,B|334:175|334:175|354:229,1,95.9999970703126,8|2,0:0|0:0,0:0:0:0:
296,284,34430,2,0,L|199:279,1,95.9999970703126
185,194,34772,2,0,P|91:198|29:268,1,191.999994140625,2|8,0:3|0:0,0:0:0:0:
76,334,35283,1,2,0:0:0:0:
76,334,35453,2,0,L|193:345,1,95.9999970703126,8|0,0:0|0:0,0:0:0:0:
234,297,35794,6,0,P|329:293|430:281,1,191.999994140625,2|8,0:0|0:0,0:0:0:0:
497,307,36305,1,0,0:0:0:0:
497,307,36476,2,0,L|507:188,1,95.9999970703126,0|2,0:0|0:0,0:0:0:0:
464,146,36817,2,0,L|454:27,1,95.9999970703126,8|0,0:0|0:0,0:0:0:0:
455,50,37158,6,0,P|394:44|307:144,1,191.999994140625,2|8,0:0|0:0,0:0:0:0:
302,208,37669,1,0,0:0:0:0:
302,208,37840,1,8,0:0:0:0:
182,111,38180,5,0,0:0:0:0:
198,35,38351,1,8,0:0:0:0:
198,35,38521,6,0,P|255:23|302:41,1,95.9999970703126
365,47,38862,2,0,P|394:97|391:147,1,95.9999970703126
343,193,39203,5,8,0:0:0:0:
198,244,39544,1,2,0:0:0:0:
64,168,39885,5,2,0:0:0:0:
96,237,40055,1,8,0:0:0:0:
96,237,40226,1,0,0:0:0:0:
98,313,40396,1,0,0:0:0:0:
167,280,40567,1,8,0:0:0:0:
135,129,40908,2,0,P|196:123|283:223,1,191.999994140625,2|2,0:0|0:0,0:0:0:0:
332,355,41590,5,2,0:0:0:0:
360,203,41931,1,8,0:0:0:0:
493,125,42272,5,2,0:0:0:0:
350,82,42613,1,2,0:0:0:0:
350,82,42783,1,8,0:0:0:0:
310,147,42953,2,0,P|304:203|315:257,1,95.9999970703126
324,317,43294,2,0,P|385:323|472:223,1,191.999994140625,8|2,0:0|0:0,0:0:0:0:
489,107,43976,5,2,0:0:0:0:
344,159,44317,1,2,0:0:0:0:
210,83,44658,5,8,0:0:0:0:
244,228,44999,1,2,0:0:0:0:
244,228,45169,1,0,0:0:0:0:
278,296,45340,1,2,0:0:0:0:
259,370,45510,1,8,0:0:0:0:
204,315,45680,6,0,P|180:314|93:321,1,95.9999970703126,2|0,0:0|0:0,0:0:0:0:
42,278,46021,2,0,P|54:257|92:178,1,95.9999970703126,8|0,0:0|0:0,0:0:0:0:
161,174,46362,2,0,P|148:153|110:74,1,95.9999970703126,2|0,0:0|0:0,0:0:0:0:
108,12,46703,5,2,0:0:0:0:
243,84,47044,2,0,P|266:82|353:90,1,95.9999970703126,2|0,0:0|0:0,0:0:0:0:
392,142,47385,2,0,P|439:146|487:145,1,95.9999970703126,8|0,0:0|0:0,0:0:0:0:
487,145,47726,1,2,0:0:0:0:
478,221,47896,1,0,0:0:0:0:
478,221,48067,2,0,B|391:245|432:292|305:326,1,191.999994140625,2|0,0:0|0:0,0:0:0:0:
241,320,48578,5,0,0:0:0:0:
241,320,48749,2,0,P|184:309|139:331,1,95.9999970703126,0|2,0:0|0:0,0:0:0:0:
80,355,49090,1,8,0:0:0:0:
94,279,49260,1,0,0:0:0:0:
64,205,49430,2,0,B|25:94,1,95.9999970703126,2|0,0:0|0:0,0:0:0:0:
77,52,49771,5,8,0:0:0:0:
119,116,49942,1,0,0:0:0:0:
119,116,50112,2,0,P|165:132|220:122,1,95.9999970703126,0|0,0:0|0:0,0:0:0:0:
276,85,50453,2,0,P|323:78|368:94,1,95.9999970703126,8|0,0:0|0:0,0:0:0:0:
417,154,50794,2,0,P|437:196|475:226,1,95.9999970703126,0|0,0:0|0:0,0:0:0:0:
495,150,51135,6,0,P|501:102|485:57,1,95.9999970703126,8|0,0:0|0:0,0:0:0:0:
408,69,51476,2,0,P|364:48|317:49,1,95.9999970703126,2|0,0:0|0:0,0:0:0:0:
297,124,51817,2,0,P|264:158|250:204,1,95.9999970703126,8|0,0:0|0:0,0:0:0:0:
239,280,52158,6,0,P|225:234|192:199,1,95.9999970703126,2|0,0:0|0:0,0:0:0:0:
125,162,52499,1,8,0:0:0:0:
125,162,52669,1,0,0:0:0:0:
49,176,52840,2,0,P|9:220|91:330,1,191.999994140625,2|8,0:0|0:0,0:0:0:0:
135,300,53351,1,0,0:0:0:0:
135,300,53521,6,0,P|216:300|269:317,1,95.9999970703126,0|2,0:0|0:0,0:0:0:0:
305,321,53862,2,0,P|352:327|400:324,1,95.9999970703126,8|0,0:0|0:0,0:0:0:0:
470,293,54203,2,0,P|463:236|403:223,1,95.9999970703126,2|0,0:0|0:0,0:0:0:0:
355,223,54544,2,0,L|243:230,1,95.9999970703126,8|2,0:0|0:0,0:0:0:0:
182,237,54885,6,0,P|168:184|268:91,1,191.999994140625,2|8,0:0|0:0,0:0:0:0:
329,99,55396,1,0,0:0:0:0:
329,99,55567,2,0,P|338:150|341:210,1,95.9999970703126,0|0,0:0|0:0,0:0:0:0:
271,227,55908,2,0,P|231:260|180:292,1,95.9999970703126,8|2,0:0|0:0,0:0:0:0:
138,232,56249,2,0,P|89:214|35:186,1,95.9999970703126,0|2,0:0|0:0,0:0:0:0:
86,126,56590,2,0,P|87:73|97:13,1,95.9999970703126,8|0,0:0|0:0,0:0:0:0:
162,64,56930,6,0,P|240:119|279:205,2,192,2|8|2,0:0|0:0|0:0,0:0:0:0:
86,49,57783,2,0,P|95:114|88:152,1,95.9999970703126,0|8,0:0|0:0,0:0:0:0:
77,219,58124,1,0,0:0:0:0:
151,202,58294,5,2,0:0:0:0:
221,233,58465,1,0,0:0:0:0:
259,298,58635,1,8,0:0:0:0:
335,295,58806,1,0,0:0:0:0:
362,223,58976,5,2,0:0:0:0:
295,261,59146,1,8,0:0:0:0:
271,334,59317,1,2,0:0:0:0:
347,329,59487,1,0,0:0:0:0:
347,329,59658,6,0,P|301:296|246:286,1,95.9999970703126,8|0,0:0|0:0,0:0:0:0:
203,339,59999,2,0,P|156:347|115:372,1,95.9999970703126,0|2,0:0|0:0,0:0:0:0:
127,296,60340,6,0,P|126:221|104:168,1,95.9999970703126,2|0,0:0|0:0,0:0:0:0:
89,131,60680,1,8,0:0:0:0:
92,54,60851,2,0,B|188:107|178:26|249:49|286:101,1,191.999994140625
211,132,61362,6,0,P|177:221|177:264,1,95.9999970703126,8|0,0:0|0:0,0:0:0:0:
166,297,61703,1,0,0:0:0:0:
218,353,61874,1,0,0:0:0:0:
243,284,62044,2,0,P|290:279|337:286,1,95.9999970703126,8|0,0:0|0:0,0:0:0:0:
412,306,62385,6,0,P|359:237|392:123,1,191.999994140625,0|8,0:0|0:0,0:0:0:0:
453,148,62896,1,0,0:0:0:0:
426,79,63067,2,0,P|357:84|316:70,1,95.9999970703126,2|0,0:0|0:0,0:0:0:0:
259,50,63408,2,0,P|212:40|164:48,1,95.9999970703126,8|0,0:0|0:0,0:0:0:0:
92,21,63749,1,0,0:0:0:0:
105,96,63919,1,0,0:0:0:0:
50,151,64090,1,8,0:0:0:0:
114,198,64260,2,0,P|118:261|115:303,1,95.9999970703126
181,351,64601,5,0,0:0:0:0:
189,274,64771,1,8,0:0:0:0:
256,310,64942,1,0,0:0:0:0:
331,294,65112,2,0,P|327:231|330:189,1,95.9999970703126,8|0,0:0|0:0,0:0:0:0:
254,172,65453,2,0,P|258:109|254:67,1,95.9999970703126,8|0,0:0|0:0,0:0:0:0:
218,0,65794,6,0,B|326:-19|272:46|414:20,1,191.999994140625,8|8,0:0|0:0,0:0:0:0:
407,31,66305,2,0,P|404:83|407:134,1,95.9999970703126,0|8,0:0|0:0,0:0:0:0:
329,136,66646,1,2,0:0:0:0:
329,136,66817,2,0,P|332:187|329:238,1,95.9999970703126,10|2,0:0|0:0,0:0:0:0:
252,233,67158,2,0,P|249:280|251:328,1,95.9999970703126
251,328,67499,6,0,B|184:331|184:331|144:354|144:354|56:355,1,191.999994140625,8|0,0:0|0:0,0:0:0:0:
84,281,68010,1,0,0:0:0:0:
84,281,68180,2,0,P|81:217|57:163,1,95.9999970703126,0|8,0:0|0:0,0:0:0:0:
70,187,68521,2,0,B|124:156|162:190|162:190|216:230|265:193,1,191.999994140625,2|8,0:0|0:0,0:0:0:0:
376,116,69203,5,2,0:0:0:0:
310,74,69374,2,0,L|201:86,1,95.9999970703126,0|8,0:0|0:0,0:0:0:0:
149,43,69715,1,0,0:0:0:0:
86,87,69885,1,0,0:0:0:0:
152,125,70055,1,8,0:0:0:0:
194,189,70226,5,0,0:0:0:0:
194,189,70396,2,0,P|197:227|196:278,8,47.9999985351563,8|0|0|0|0|0|0|0|0,0:0|0:0|0:0|0:0|0:0|0:0|0:0|0:0|0:0,0:0:0:0:
269,173,71249,6,0,B|331:176|347:232|347:232|360:279|429:297,1,191.999994140625,2|8,0:0|0:0,0:0:0:0:
425,215,71760,1,0,0:0:0:0:
411,139,71930,2,0,P|407:72|417:26,1,95.9999970703126
337,65,72271,6,0,P|268:12|154:45,1,191.999994140625,8|0,0:0|0:0,0:0:0:0:
128,95,72782,1,8,0:0:0:0:
78,154,72953,2,0,P|82:87|72:41,1,95.9999970703126,2|0,0:0|0:0,0:0:0:0:
0,47,73294,1,8,0:0:0:0:
6,123,73465,2,0,P|2:190|12:236,1,95.9999970703126,0|2,0:0|0:0,0:0:0:0:
39,287,73805,5,8,0:0:0:0:
104,247,73976,1,8,0:0:0:0:
172,280,74146,1,0,0:0:0:0:
246,261,74317,1,0,0:0:0:0:
299,315,74487,1,8,0:0:0:0:
299,315,74658,2,0,P|357:320|396:322,1,95.9999970703126,0|0,0:0|0:0,0:0:0:0:
470,335,74999,5,8,0:0:0:0:
436,266,75169,2,0,P|418:208|440:67,1,191.999994140625
358,66,75680,2,0,P|296:78|228:84,1,95.9999970703126,8|0,0:0|0:0,0:0:0:0:
231,151,76021,2,0,P|183:144|136:135,1,95.9999970703126,8|0,0:0|0:0,0:0:0:0:
73,180,76362,1,8,0:0:0:0:
39,110,76533,1,0,0:0:0:0:
93,55,76703,2,0,B|163:40|131:85|227:61,2,95.9999970703126,2|0|8,0:0|0:0|0:0,0:0:0:0:
17,39,77215,1,0,0:0:0:0:
111,159,77555,5,0,0:0:0:0:
183,178,77726,2,0,B|254:204|254:204|270:239|270:239|370:277,1,191.999994140625,8|2,0:0|0:0,0:0:0:0:
416,245,78237,1,0,0:0:0:0:
343,267,78408,2,0,B|272:293|272:293|256:328|256:328|156:366,1,191.999994140625,8|2,0:0|0:0,0:0:0:0:
149,286,78919,5,0,0:0:0:0:
149,286,79004,1,0,0:0:0:0:
149,286,79090,2,0,L|96:303,2,47.9999985351563,8|0|0,0:0|0:0|0:0,0:0:0:0:
107,220,79430,6,0,P|243:209|287:257,1,191.999994140625,10|0,0:0|0:0,0:0:0:0:
276,240,79942,2,0,P|320:280|384:280,1,95.9999970703126,2|2,0:0|0:0,0:0:0:0:
429,161,80453,6,0,P|293:150|249:198,1,191.999994140625,10|0,0:0|0:0,0:0:0:0:
259,181,80965,2,0,P|215:221|150:221,1,95.9999970703126,8|0,0:0|0:0,0:0:0:0:
60,151,81476,5,8,0:0:0:0:
105,215,81646,1,8,0:0:0:0:
72,288,81817,1,2,0:0:0:0:
256,192,81902,12,0,87271,0:0:0:0:
