osu file format v14

[General]
AudioFilename: audio.mp3
AudioLeadIn: 0
PreviewTime: 59670
Countdown: 0
SampleSet: Soft
StackLeniency: 0.7
Mode: 2
LetterboxInBreaks: 0
WidescreenStoryboard: 0

[Editor]
DistanceSpacing: 4.4
BeatDivisor: 4
GridSize: 8
TimelineZoom: 1

[Metadata]
Title:DREAMING COLOR (Short Ver.)
TitleUnicode:DREAMING COLOR (Short Ver.)
Artist:Trial & Error
ArtistUnicode:Trial & Error
Creator:MBomb
Version:Salad
Source:osu!
Tags:magic bomb japanese pop jpop JBHyperion Featured Artist Mapper's Guild Fruit Factory version and colour
BeatmapID:1977703
BeatmapSetID:946773

[Difficulty]
HPDrainRate:4
CircleSize:2.5
OverallDifficulty:7
ApproachRate:7
SliderMultiplier:1.4
SliderTickRate:1

[Events]
//Background and Video events
0,0,"royalty free bg (thanks sinnoh).jpg",0,0
//Break Periods
//Storyboard Layer 0 (Background)
//Storyboard Layer 1 (Fail)
//Storyboard Layer 2 (Pass)
//Storyboard Layer 3 (Foreground)
//Storyboard Sound Samples

[TimingPoints]
352,340.909090909091,4,2,1,50,1,0
5806,-100,4,2,1,40,0,0
5977,-100,4,2,1,60,0,0
6999,-100,4,2,2,60,0,0
7170,-100,4,2,1,60,0,0
9727,-100,4,2,2,50,0,0
9898,-100,4,2,1,60,0,0
11261,-100,4,2,2,50,0,0
11431,-100,4,2,1,60,0,0
12454,-100,4,2,2,60,0,0
12625,-100,4,2,1,60,0,0
15181,-100,4,2,2,60,0,0
15352,-100,4,2,1,60,0,0
16374,-100,4,2,1,45,0,0
16545,-100,4,2,1,30,0,0
16715,-100,4,2,2,60,0,0
16886,-100,4,2,1,50,0,0
22170,-100,4,2,2,60,0,0
22341,-100,4,2,1,50,0,0
27624,-100,4,2,2,60,0,0
27795,-100,4,2,1,50,0,0
33079,-100,4,2,2,60,0,0
33250,-100,4,2,1,50,0,0
38533,-100,4,2,1,40,0,0
48079,-100,4,2,2,50,0,0
48250,-100,4,2,1,50,0,0
49442,-100,4,2,2,60,0,0
49613,-100,4,2,1,60,0,0
52170,-100,4,2,1,65,0,0
52852,-100,4,2,1,70,0,0
53533,-100,4,2,1,75,0,0
54215,-100,4,2,1,70,0,0
57624,-100,4,2,2,70,0,0
57794,-100,4,2,1,70,0,0
58988,-100,4,2,1,75,0,0
59840,-100,4,2,2,70,0,0
59883,-100,4,2,1,30,0,0
60011,-100,4,2,1,50,0,0
60352,-100,4,2,1,50,0,1
60522,-100,4,2,1,85,0,1
64613,-100,4,2,2,70,0,1
64783,-100,4,2,1,85,0,1
65806,-100,4,2,2,80,0,1
65977,-100,4,2,1,85,0,1
68533,-100,4,2,2,80,0,1
68704,-100,4,2,1,85,0,1
70408,-100,4,2,2,60,0,1
70579,-100,4,2,1,50,0,1
70749,-100,4,2,1,55,0,1
70920,-100,4,2,1,60,0,1
71090,-100,4,2,1,70,0,1
71261,-100,4,2,1,50,0,1
71431,-100,4,2,1,85,0,1
72624,-100,4,2,1,70,0,1
72794,-100,4,2,1,90,0,1
75181,-100,4,2,2,75,0,1
75351,-100,4,2,1,95,0,1
76715,-100,4,2,2,90,0,1
76886,-100,4,2,1,90,0,1
77227,-100,4,2,2,65,0,1
77397,-100,4,2,1,90,0,1
77908,-100,4,2,2,75,0,1
78078,-100,4,2,1,70,0,1
78761,-100,4,2,1,50,0,1
79442,-100,4,2,1,80,0,1
79954,-100,4,2,2,60,0,1
80124,-100,4,2,1,80,0,1
80977,-100,4,2,2,60,0,1
81147,-100,4,2,1,80,0,1
81488,-100,4,2,1,90,0,1
81829,-100,4,2,1,60,0,0
81999,-100,4,2,1,40,0,0
83533,-100,4,2,1,35,0,0
84897,-100,4,2,1,30,0,0
86261,-100,4,2,1,25,0,0
86602,-100,4,2,1,20,0,0
86942,-100,4,2,1,15,0,0
87283,-100,4,2,1,10,0,0

[Colours]
Combo1 : 223,223,0
Combo2 : 0,255,255
Combo3 : 255,53,53
Combo4 : 0,112,166

[HitObjects]
192,192,352,5,8,0:0:0:0:
352,192,692,2,0,P|400:168|352:120,1,140,8|2,0:0|0:0,0:0:0:0:
256,192,1204,1,8,0:0:0:0:
440,192,1545,1,8,0:0:0:0:
288,192,1886,6,0,L|216:192,1,70,2|8,0:0|0:0,0:0:0:0:
384,192,2397,2,0,L|456:192,2,70,2|8|0,0:0|0:0|0:0,0:0:0:0:
296,192,2908,1,0,0:0:0:0:
120,192,3079,5,8,0:0:0:0:
280,192,3420,2,0,P|336:176|360:96,1,140,8|2,0:0|0:0,0:0:0:0:
264,192,3931,1,8,0:0:0:0:
96,192,4272,1,8,0:0:0:0:
240,192,4613,5,0,0:0:0:0:
160,192,4783,2,0,L|88:192,1,70,2|0,0:0|0:0,0:0:0:0:
176,192,5124,2,0,L|256:192,1,70,8|8,0:0|0:0,0:0:0:0:
160,192,5465,2,0,L|88:192,1,70,8|8,0:0|0:0,0:0:0:0:
264,192,5806,6,0,P|344:176|376:112,1,140,4|8,0:0|0:0,0:0:0:0:
230,192,6488,2,0,L|158:192,1,70,2|2,0:0|0:0,0:0:0:0:
336,192,6829,1,8,0:0:0:0:
424,192,6999,6,0,P|472:160|424:120,1,140,2|2,0:0|0:0,0:0:0:0:
336,192,7511,1,8,0:0:0:0:
196,192,7852,2,0,L|348:192,1,140,2|8,0:0|0:0,0:0:0:0:
64,184,8533,6,0,P|48:128|112:104,1,140,2|8,0:0|0:0,0:0:0:0:
280,192,9215,2,0,L|352:192,1,70,2|2,0:0|0:0,0:0:0:0:
248,192,9556,1,8,0:0:0:0:
160,192,9726,6,0,P|112:160|160:120,1,140,2|0,0:0|0:0,0:0:0:0:
248,192,10238,1,8,0:0:0:0:
88,192,10579,2,0,L|16:192,2,70,2|2|8,0:0|0:0|0:0,0:0:0:0:
376,192,11261,6,0,P|448:176|496:128,1,140,2|8,0:0|0:0,0:0:0:0:
360,192,11942,1,2,0:0:0:0:
280,192,12113,1,2,0:0:0:0:
96,192,12283,1,8,0:0:0:0:
24,192,12454,6,0,P|24:144|104:96,1,140,2|0,0:0|0:0,0:0:0:0:
176,192,12965,1,8,0:0:0:0:
272,192,13136,1,0,0:0:0:0:
360,192,13306,2,0,P|408:152|344:120,1,140,2|8,0:0|0:0,0:0:0:0:
80,192,13988,6,0,P|72:160|152:104,1,140,2|8,0:0|0:0,0:0:0:0:
296,192,14670,2,0,L|376:192,1,70,2|2,0:0|0:0,0:0:0:0:
184,192,15011,5,8,0:0:0:0:
96,192,15181,2,0,P|32:160|48:104,1,140,2|8,0:0|0:0,0:0:0:0:
224,192,15863,2,0,L|312:192,1,70,2|8,0:0|0:0,0:0:0:0:
192,192,16204,2,0,L|112:192,2,70,2|2|2,0:0|0:0|0:0,0:0:0:0:
368,192,16715,6,0,P|440:168|464:112,1,140,2|8,0:0|0:0,0:0:0:0:
312,192,17397,1,2,0:0:0:0:
488,192,17738,1,8,0:0:0:0:
288,192,18079,6,0,P|168:176|184:40,1,280,2|2,0:0|0:0,0:0:0:0:
264,192,18931,2,0,L|352:192,1,70,0|8,0:0|0:0,0:0:0:0:
168,192,19442,6,0,P|120:192|80:112,1,140,2|8,0:0|0:0,0:0:0:0:
232,192,20124,1,2,0:0:0:0:
64,192,20465,1,8,0:0:0:0:
240,192,20806,6,0,P|321:180|352:128,1,140,2|8,0:0|0:0,0:0:0:0:
168,192,21488,1,2,0:0:0:0:
96,192,21658,1,0,0:0:0:0:
96,192,21829,1,8,0:0:0:0:
168,192,21999,1,2,0:0:0:0:
344,192,22170,5,2,0:0:0:0:
496,192,22511,2,0,L|344:192,2,140,8|2|8,0:0|0:0|0:0,0:0:0:0:
320,192,23533,6,0,P|232:192|192:152,2,140,2|8|2,0:0|0:0|0:0,0:0:0:0:
160,192,24556,1,8,0:0:0:0:
336,192,24897,6,0,P|424:160|432:104,1,140,2|8,0:0|0:0,0:0:0:0:
352,192,25408,2,0,P|272:168|248:104,1,140,2|2,0:0|0:0,0:0:0:0:
344,192,25920,1,8,0:0:0:0:
176,192,26261,5,0,0:0:0:0:
320,192,26602,1,8,0:0:0:0:
144,192,26942,1,2,0:0:0:0:
72,192,27113,1,8,0:0:0:0:
72,192,27283,1,2,0:0:0:0:
144,192,27454,1,2,0:0:0:0:
320,192,27624,6,0,P|408:184|440:136,2,140,2|8|2,0:0|0:0|0:0,0:0:0:0:
168,192,28647,1,8,0:0:0:0:
352,192,28988,6,0,B|464:176|464:80|248:104,1,280,2|2,0:0|0:0,0:0:0:0:
168,192,29840,2,0,L|168:120,1,70,2|8,0:0|0:0,0:0:0:0:
336,192,30352,6,0,P|432:168|456:128,1,140,2|8,0:0|0:0,0:0:0:0:
296,192,31033,1,2,0:0:0:0:
464,192,31374,1,8,0:0:0:0:
288,192,31715,6,0,P|240:160|288:112,1,140,2|8,0:0|0:0,0:0:0:0:
464,192,32397,1,2,0:0:0:0:
496,192,32567,1,0,0:0:0:0:
464,192,32738,1,8,0:0:0:0:
392,192,32908,1,2,0:0:0:0:
216,192,33079,5,2,0:0:0:0:
376,192,33420,2,0,P|416:128|376:104,1,140,8|2,0:0|0:0,0:0:0:0:
208,192,34102,1,8,0:0:0:0:
384,192,34442,5,2,0:0:0:0:
216,192,34783,1,8,0:0:0:0:
128,192,34954,2,0,P|88:168|128:104,1,140,2|2,0:0|0:0,0:0:0:0:
224,192,35465,1,8,0:0:0:0:
496,192,35806,6,0,L|344:192,1,140,2|8,0:0|0:0,0:0:0:0:
192,192,36488,1,2,0:0:0:0:
264,192,36658,1,2,0:0:0:0:
336,192,36829,1,8,0:0:0:0:
168,192,37170,6,0,L|24:192,1,140,2|8,0:0|0:0,0:0:0:0:
304,192,37852,1,8,0:0:0:0:
384,192,38022,2,0,L|312:192,1,70,2|10,0:0|0:0,0:0:0:0:
48,192,38533,5,2,0:0:0:0:
16,192,38704,1,0,0:0:0:0:
48,192,38875,1,2,0:0:0:0:
120,192,39045,1,0,0:0:0:0:
208,192,39215,2,0,P|280:176|312:112,1,140,8|0,0:0|0:0,0:0:0:0:
144,192,39897,5,2,0:0:0:0:
72,192,40067,1,8,0:0:0:0:
72,192,40238,1,2,0:0:0:0:
144,192,40408,1,2,0:0:0:0:
224,192,40579,2,0,L|72:192,1,140,8|0,0:0|0:0,0:0:0:0:
256,192,41261,6,0,L|328:192,2,70,2|0|2,0:0|0:0|0:0,0:0:0:0:
168,192,41772,1,0,0:0:0:0:
80,192,41942,2,0,P|96:144|184:112,1,140,8|0,0:0|0:0,0:0:0:0:
352,192,42624,5,2,0:0:0:0:
424,192,42794,1,8,0:0:0:0:
424,192,42965,1,2,0:0:0:0:
352,192,43135,1,2,0:0:0:0:
256,192,43306,2,0,P|176:168|152:120,1,140,8|2,0:0|0:0,0:0:0:0:
320,192,43988,5,2,0:0:0:0:
392,192,44158,1,0,0:0:0:0:
320,192,44329,1,2,0:0:0:0:
248,192,44499,1,0,0:0:0:0:
320,192,44670,2,0,P|368:152|320:112,1,140,8|0,0:0|0:0,0:0:0:0:
152,192,45352,5,2,0:0:0:0:
224,192,45522,1,8,0:0:0:0:
224,192,45692,1,2,0:0:0:0:
152,192,45862,1,2,0:0:0:0:
64,192,46033,2,0,L|232:192,1,140,8|2,0:0|0:0,0:0:0:0:
368,192,46715,5,2,0:0:0:0:
296,192,46886,1,0,0:0:0:0:
224,192,47056,1,2,0:0:0:0:
152,192,47227,1,0,0:0:0:0:
240,192,47397,2,0,P|304:176|336:88,1,140,8|0,0:0|0:0,0:0:0:0:
168,192,48079,6,0,P|120:160|168:120,1,140,8|0,0:0|0:0,0:0:0:0:
240,192,48590,1,0,0:0:0:0:
424,192,48761,2,0,L|496:192,1,70,0|2,0:0|0:0,0:0:0:0:
424,192,49102,2,0,L|352:192,1,70,8|2,0:0|0:0,0:0:0:0:
176,192,49442,5,2,0:0:0:0:
328,192,49783,2,0,L|184:192,2,140,8|2|8,0:0|0:0|0:0,0:0:0:0:
160,192,50806,6,0,P|104:176|48:112,1,140,2|8,0:0|0:0,0:0:0:0:
200,192,51488,1,2,0:0:0:0:
32,192,51829,1,8,0:0:0:0:
312,192,52170,6,0,P|392:176|424:120,1,140,2|8,0:0|0:0,0:0:0:0:
248,192,52852,1,2,0:0:0:0:
320,192,53022,1,0,0:0:0:0:
392,192,53192,1,8,0:0:0:0:
112,192,53533,6,0,P|40:184|8:128,1,140,2|8,0:0|0:0,0:0:0:0:
176,192,54215,1,2,0:0:0:0:
104,192,54386,1,2,0:0:0:0:
40,192,54556,1,8,0:0:0:0:
320,192,54897,6,0,P|368:160|320:120,1,140,2|8,0:0|0:0,0:0:0:0:
240,192,55408,1,0,0:0:0:0:
320,192,55579,2,0,L|464:192,1,140,2|8,0:0|0:0,0:0:0:0:
296,192,56261,5,2,0:0:0:0:
144,192,56602,2,0,L|288:192,1,140,8|2,0:0|0:0,0:0:0:0:
112,192,57283,1,8,0:0:0:0:
392,192,57624,6,0,L|232:192,1,140,2|8,0:0|0:0,0:0:0:0:
344,192,58136,1,2,0:0:0:0:
432,192,58306,2,0,L|280:192,1,140,8|8,0:0|0:0,0:0:0:0:
16,192,58988,5,8,0:0:0:0:
72,192,59158,1,2,0:0:0:0:
152,192,59329,1,8,0:0:0:0:
432,192,59670,2,0,P|479:184|488:152,1,70,8|2,0:0|0:0,0:0:0:0:
424,192,60011,1,8,0:0:0:0:
344,192,60181,1,8,0:0:0:0:
168,192,60352,5,4,0:0:0:0:
320,192,60692,2,0,L|400:192,2,70,8|0|2,0:0|0:0|0:0,0:0:0:0:
32,192,61374,1,8,0:0:0:0:
192,192,61715,6,0,L|48:192,1,140,2|8,0:0|0:0,0:0:0:0:
200,192,62397,1,2,0:0:0:0:
32,192,62738,1,8,0:0:0:0:
320,192,63079,6,0,P|368:160|320:120,1,140,2|8,0:0|0:0,0:0:0:0:
240,192,63590,2,0,L|160:192,1,70,0|2,0:0|0:0,0:0:0:0:
336,192,64102,1,8,0:0:0:0:
168,184,64272,5,2,0:0:0:0:
320,184,64613,1,8,0:0:0:0:
416,184,64783,2,0,L|488:184,1,70,8|2,0:0|0:0,0:0:0:0:
416,184,65124,2,0,L|328:184,1,70,8|2,0:0|0:0,0:0:0:0:
416,184,65465,2,0,L|488:184,1,70,8|2,0:0|0:0,0:0:0:0:
304,184,65806,5,2,0:0:0:0:
136,192,66147,1,8,0:0:0:0:
56,192,66317,2,0,P|8:160|56:112,1,140,0|2,0:0|0:0,0:0:0:0:
232,192,66829,6,0,P|320:168|344:120,1,140,8|0,0:0|0:0,0:0:0:0:
272,184,67340,1,2,0:0:0:0:
168,184,67511,1,8,0:0:0:0:
344,184,67852,2,0,L|424:184,1,70,2|2,0:0|0:0,0:0:0:0:
414,184,68192,2,0,L|344:184,1,70,8|0,0:0|0:0,0:0:0:0:
168,192,68533,6,0,P|120:160|168:120,1,140,2|8,0:0|0:0,0:0:0:0:
272,192,69045,2,0,P|328:176|304:96,1,140,2|2,0:0|0:0,0:0:0:0:
144,192,69556,6,0,P|72:160|96:104,1,140,8|0,0:0|0:0,0:0:0:0:
176,192,70067,2,0,L|248:192,1,70,2|8,0:0|0:0,0:0:0:0:
144,192,70408,2,0,L|64:192,2,70,8|8|8,0:0|0:0|0:0,0:0:0:0:
232,192,70920,2,0,L|160:192,1,70,8|8,0:0|0:0,0:0:0:0:
336,192,71261,5,4,0:0:0:0:
184,192,71602,2,0,L|104:192,2,70,8|0|2,0:0|0:0|0:0,0:0:0:0:
464,192,72283,1,8,0:0:0:0:
288,192,72624,6,0,L|448:192,1,140,2|8,0:0|0:0,0:0:0:0:
272,192,73306,1,2,0:0:0:0:
448,192,73647,1,8,0:0:0:0:
168,192,73988,6,0,P|120:168|176:128,1,140,8|2,0:0|0:0,0:0:0:0:
264,192,74499,2,0,L|112:192,1,140,8|2,0:0|0:0,0:0:0:0:
304,192,75011,1,8,0:0:0:0:
392,192,75181,6,0,P|456:168|472:104,1,140,2|2,0:0|0:0,0:0:0:0:
384,192,75692,1,8,0:0:0:0:
104,192,76033,2,0,L|32:192,1,70,8|0,0:0|0:0,0:0:0:0:
34,192,76374,2,0,L|104:192,1,70,8|0,0:0|0:0,0:0:0:0:
280,192,76715,5,2,0:0:0:0:
368,192,76886,2,0,L|448:192,1,70,0|8,0:0|0:0,0:0:0:0:
336,192,77227,2,0,P|256:168|232:112,1,140,2|0,0:0|0:0,0:0:0:0:
416,192,77738,1,8,0:0:0:0:
496,192,77908,6,0,P|488:144|400:112,1,140,2|0,0:0|0:0,0:0:0:0:
312,192,78420,1,8,0:0:0:0:
160,192,78761,1,2,0:0:0:0:
232,192,78931,1,2,0:0:0:0:
304,192,79102,1,8,0:0:0:0:
376,192,79272,1,2,0:0:0:0:
200,192,79442,6,0,P|128:160|112:104,1,140,8|2,0:0|0:0,0:0:0:0:
208,192,79954,2,0,L|64:192,1,140,2|0,0:0|0:0,0:0:0:0:
248,192,80465,6,0,P|320:160|336:104,1,140,8|2,0:0|0:0,0:0:0:0:
240,192,80977,2,0,L|384:192,1,140,2|2,0:0|0:0,0:0:0:0:
200,192,81488,2,0,L|200:120,1,70,8|2,0:0|0:0,0:0:0:0:
380,192,81829,5,4,0:0:0:0:
256,192,82170,12,0,87283,0:0:0:0:
