osu file format v14

[General]
AudioFilename: audio.mp3
AudioLeadIn: 0
PreviewTime: 59670
Countdown: 0
SampleSet: Soft
StackLeniency: 0.7
Mode: 2
LetterboxInBreaks: 0
WidescreenStoryboard: 0

[Editor]
DistanceSpacing: 4.4
BeatDivisor: 4
GridSize: 8
TimelineZoom: 2.3

[Metadata]
Title:DREAMING COLOR (Short Ver.)
TitleUnicode:DREAMING COLOR (Short Ver.)
Artist:Trial & Error
ArtistUnicode:Trial & Error
Creator:MBomb
Version:Rain
Source:osu!
Tags:magic bomb japanese pop jpop JBHyperion Featured Artist Mapper's Guild Fruit Factory version and colour
BeatmapID:1977610
BeatmapSetID:946773

[Difficulty]
HPDrainRate:6
CircleSize:3.5
OverallDifficulty:9
ApproachRate:9
SliderMultiplier:1.8
SliderTickRate:2

[Events]
//Background and Video events
0,0,"royalty free bg (thanks sinnoh).jpg",0,0
//Break Periods
//Storyboard Layer 0 (Background)
//Storyboard Layer 1 (Fail)
//Storyboard Layer 2 (Pass)
//Storyboard Layer 3 (Foreground)
//Storyboard Sound Samples

[TimingPoints]
352,340.909090909091,4,2,1,50,1,0
5806,-100,4,2,1,40,0,0
5977,-100,4,2,1,60,0,0
6999,-100,4,2,2,60,0,0
7170,-100,4,2,1,60,0,0
9727,-100,4,2,2,50,0,0
9898,-100,4,2,1,60,0,0
11261,-100,4,2,2,50,0,0
11431,-100,4,2,1,60,0,0
12454,-100,4,2,2,60,0,0
12625,-100,4,2,1,60,0,0
15181,-100,4,2,2,60,0,0
15352,-100,4,2,1,60,0,0
16374,-100,4,2,1,45,0,0
16545,-100,4,2,1,30,0,0
16715,-100,4,2,2,60,0,0
16886,-100,4,2,1,50,0,0
22170,-100,4,2,2,60,0,0
22341,-100,4,2,1,50,0,0
27624,-100,4,2,2,60,0,0
27795,-100,4,2,1,50,0,0
33079,-100,4,2,2,60,0,0
33250,-100,4,2,1,50,0,0
38533,-100,4,2,1,40,0,0
48079,-100,4,2,2,50,0,0
48250,-100,4,2,1,50,0,0
49442,-100,4,2,2,60,0,0
49613,-100,4,2,1,60,0,0
52170,-100,4,2,1,65,0,0
52852,-100,4,2,1,70,0,0
53533,-100,4,2,1,75,0,0
54215,-100,4,2,1,70,0,0
57624,-100,4,2,2,70,0,0
57794,-100,4,2,1,70,0,0
58988,-100,4,2,1,75,0,0
59840,-100,4,2,2,70,0,0
59883,-100,4,2,1,30,0,0
60011,-100,4,2,1,50,0,0
60352,-100,4,2,1,50,0,1
60522,-100,4,2,1,85,0,1
64613,-100,4,2,2,70,0,1
64783,-100,4,2,1,85,0,1
65806,-100,4,2,2,80,0,1
65977,-100,4,2,1,85,0,1
68533,-100,4,2,2,80,0,1
68704,-100,4,2,1,85,0,1
70408,-100,4,2,2,60,0,1
70579,-100,4,2,1,50,0,1
70749,-100,4,2,1,55,0,1
70920,-100,4,2,1,60,0,1
71090,-100,4,2,1,70,0,1
71261,-100,4,2,1,50,0,1
71431,-100,4,2,1,85,0,1
72624,-100,4,2,1,70,0,1
72794,-100,4,2,1,90,0,1
75181,-100,4,2,2,75,0,1
75351,-100,4,2,1,95,0,1
76715,-100,4,2,2,90,0,1
76886,-100,4,2,1,90,0,1
77227,-100,4,2,2,65,0,1
77397,-100,4,2,1,90,0,1
77908,-100,4,2,2,75,0,1
78078,-100,4,2,1,70,0,1
78761,-100,4,2,1,50,0,1
79442,-100,4,2,1,80,0,1
79954,-100,4,2,2,60,0,1
80124,-100,4,2,1,80,0,1
80977,-100,4,2,2,60,0,1
81147,-100,4,2,1,80,0,1
81488,-100,4,2,1,90,0,1
81829,-100,4,2,1,60,0,0
81999,-100,4,2,1,40,0,0
83533,-100,4,2,1,35,0,0
84897,-100,4,2,1,30,0,0
86261,-100,4,2,1,25,0,0
86602,-100,4,2,1,20,0,0
86942,-100,4,2,1,15,0,0
87283,-100,4,2,1,10,0,0

[Colours]
Combo1 : 223,223,0
Combo2 : 0,255,255
Combo3 : 255,53,53
Combo4 : 0,112,166

[HitObjects]
208,192,352,6,0,L|112:192,1,90,8|0,0:0|0:0,0:0:0:0:
296,192,692,2,0,P|360:160|296:112,1,180,8|2,0:0|0:0,0:0:0:0:
118,192,1204,2,0,L|118:96,1,90,8|0,0:0|0:0,0:0:0:0:
360,192,1545,5,8,0:0:0:0:
360,192,1886,2,0,L|256:192,2,90,2|8|0,0:0|0:0|0:0,0:0:0:0:
256,192,2397,2,0,L|160:192,2,90,2|8|0,0:0|0:0|0:0,0:0:0:0:
432,192,2908,2,0,L|496:192,1,45,0|0,0:0|0:0,0:0:0:0:
312,192,3079,6,0,L|216:192,1,90,8|0,0:0|0:0,0:0:0:0:
400,192,3420,2,0,P|464:152|400:112,1,180,8|2,0:0|0:0,0:0:0:0:
224,192,3931,2,0,L|344:192,1,90,8|0,0:0|0:0,0:0:0:0:
72,192,4272,6,0,L|72:96,1,90,8|0,0:0|0:0,0:0:0:0:
162,192,4613,2,0,L|66:192,2,90,0|2|0,0:0|0:0|0:0,0:0:0:0:
272,192,5124,2,0,L|176:192,1,90,8|8,0:0|0:0,0:0:0:0:
360,192,5465,1,8,0:0:0:0:
408,192,5550,1,8,0:0:0:0:
408,192,5636,1,8,0:0:0:0:
360,192,5721,1,8,0:0:0:0:
182,192,5806,6,0,P|120:160|184:104,1,180,4|8,0:0|0:0,0:0:0:0:
272,192,6317,1,0,0:0:0:0:
184,192,6488,2,0,L|80:192,1,90,2|2,0:0|0:0,0:0:0:0:
336,192,6829,1,8,0:0:0:0:
480,192,6999,6,0,P|488:144|384:88,1,180,2|2,0:0|0:0,0:0:0:0:
288,192,7511,2,0,L|192:192,1,90,8|0,0:0|0:0,0:0:0:0:
384,192,7852,2,0,L|480:192,2,90,2|2|8,0:0|0:0|0:0,0:0:0:0:
288,192,8363,1,0,0:0:0:0:
48,192,8533,6,0,P|24:152|120:104,1,180,2|8,0:0|0:0,0:0:0:0:
208,192,9045,1,0,0:0:0:0:
312,192,9215,2,0,L|416:192,1,90,2|2,0:0|0:0,0:0:0:0:
160,192,9556,5,8,0:0:0:0:
16,192,9727,2,0,P|8:136|104:80,1,180,2|0,0:0|0:0,0:0:0:0:
16,192,10238,2,0,L|112:192,1,90,8|0,0:0|0:0,0:0:0:0:
288,192,10579,1,2,0:0:0:0:
200,192,10749,1,2,0:0:0:0:
112,192,10920,2,0,L|112:96,1,90,8|0,0:0|0:0,0:0:0:0:
360,192,11261,6,0,P|456:168|496:104,1,180,2|8,0:0|0:0,0:0:0:0:
400,192,11772,2,0,L|304:192,2,90,0|2|2,0:0|0:0|0:0,0:0:0:0:
160,192,12283,1,8,0:0:0:0:
16,192,12454,6,0,P|16:128|112:56,1,180,2|0,0:0|0:0,0:0:0:0:
200,192,12965,1,8,0:0:0:0:
384,192,13136,2,0,L|280:192,2,90,0|2|2,0:0|0:0|0:0,0:0:0:0:
200,192,13647,2,0,L|88:192,1,90,8|0,0:0|0:0,0:0:0:0:
408,192,13988,6,0,P|472:168|400:120,1,180,2|8,0:0|0:0,0:0:0:0:
312,192,14499,1,0,0:0:0:0:
400,192,14670,1,2,0:0:0:0:
488,192,14840,1,2,0:0:0:0:
232,192,15011,1,8,0:0:0:0:
88,192,15181,6,0,P|43:183|24:144,1,90,2|0,0:0|0:0,0:0:0:0:
208,192,15522,2,0,L|304:192,1,90,8|0,0:0|0:0,0:0:0:0:
112,192,15863,1,2,0:0:0:0:
208,192,15948,1,2,0:0:0:0:
304,192,16033,2,0,L|400:192,2,90,8|2|2,0:0|0:0|0:0,0:0:0:0:
208,192,16545,1,2,0:0:0:0:
448,192,16715,6,0,P|504:144|448:72,1,180,2|8,0:0|0:0,0:0:0:0:
360,192,17227,1,0,0:0:0:0:
264,192,17397,2,0,L|160:192,1,90,2|0,0:0|0:0,0:0:0:0:
360,192,17738,2,0,P|416:168|416:136,1,90,8|0,0:0|0:0,0:0:0:0:
152,192,18079,6,0,P|88:160|152:112,1,180,2|8,0:0|0:0,0:0:0:0:
248,192,18590,1,2,0:0:0:0:
64,192,18761,2,0,P|24:176|8:128,2,90,2|0|8,0:0|0:0|0:0,0:0:0:0:
472,192,19442,6,0,P|512:136|440:72,1,180,2|8,0:0|0:0,0:0:0:0:
352,192,19954,1,0,0:0:0:0:
168,192,20124,2,0,P|120:173|104:112,1,90,2|0,0:0|0:0,0:0:0:0:
288,192,20465,2,0,P|335:173|352:112,1,90,8|0,0:0|0:0,0:0:0:0:
104,192,20806,6,0,L|8:192,2,90,2|0|8,0:0|0:0|0:0,0:0:0:0:
208,192,21317,1,0,0:0:0:0:
392,192,21488,2,0,P|432:112|432:112,1,90,2|0,0:0|0:0,0:0:0:0:
248,192,21829,2,0,L|360:192,1,90,8|2,0:0|0:0,0:0:0:0:
96,192,22170,6,0,P|47:191|16:160,1,90,2|0,0:0|0:0,0:0:0:0:
200,192,22511,2,0,L|296:192,1,90,8|0,0:0|0:0,0:0:0:0:
184,192,22852,2,0,L|288:192,1,90,2|0,0:0|0:0,0:0:0:0:
96,192,23192,2,0,P|64:152|96:128,1,90,8|0,0:0|0:0,0:0:0:0:
328,192,23533,6,0,P|400:176|432:144,1,90,2|0,0:0|0:0,0:0:0:0:
224,192,23874,2,0,L|128:192,1,90,8|0,0:0|0:0,0:0:0:0:
240,192,24215,2,0,L|136:192,1,90,2|2,0:0|0:0,0:0:0:0:
336,192,24556,2,0,L|440:192,1,90,8|0,0:0|0:0,0:0:0:0:
168,192,24897,6,0,B|88:192|88:192|32:104,1,180,2|8,0:0|0:0,0:0:0:0:
128,192,25408,2,0,P|209:191|256:96,1,180,2|2,0:0|0:0,0:0:0:0:
72,192,25920,2,0,L|72:96,1,90,8|0,0:0|0:0,0:0:0:0:
320,192,26261,6,0,L|416:192,1,90,0|2,0:0|0:0,0:0:0:0:
224,192,26602,2,0,L|128:192,1,90,8|0,0:0|0:0,0:0:0:0:
376,192,26942,1,2,0:0:0:0:
464,192,27113,1,8,0:0:0:0:
320,192,27283,1,2,0:0:0:0:
496,192,27454,1,2,0:0:0:0:
232,192,27624,6,0,B|144:192|144:192|104:104,1,180,2|8,0:0|0:0,0:0:0:0:
200,192,28136,1,0,0:0:0:0:
112,192,28306,2,0,L|48:120,1,90,2|0,0:0|0:0,0:0:0:0:
240,192,28647,2,0,L|344:192,1,90,8|0,0:0|0:0,0:0:0:0:
88,192,28988,6,0,P|40:176|24:136,2,90,2|0|8,0:0|0:0|0:0,0:0:0:0:
192,192,29499,1,0,0:0:0:0:
16,192,29670,2,0,L|120:192,2,90,2|2|8,0:0|0:0|0:0,0:0:0:0:
440,192,30352,6,0,P|496:152|440:80,1,180,2|8,0:0|0:0,0:0:0:0:
344,192,30863,1,0,0:0:0:0:
168,192,31033,2,0,L|128:112,1,90,2|0,0:0|0:0,0:0:0:0:
304,192,31374,2,0,L|416:192,1,90,8|0,0:0|0:0,0:0:0:0:
136,192,31715,6,0,L|40:192,2,90,2|0|8,0:0|0:0|0:0,0:0:0:0:
24,192,32227,1,0,0:0:0:0:
208,192,32397,2,0,L|304:192,1,90,2|0,0:0|0:0,0:0:0:0:
112,192,32738,2,0,L|16:192,1,90,8|2,0:0|0:0,0:0:0:0:
288,192,33079,6,0,L|392:192,1,90,2|0,0:0|0:0,0:0:0:0:
192,192,33420,2,0,L|96:192,1,90,8|0,0:0|0:0,0:0:0:0:
208,192,33761,2,0,L|312:192,1,90,2|0,0:0|0:0,0:0:0:0:
112,192,34102,2,0,L|216:192,1,90,8|0,0:0|0:0,0:0:0:0:
448,192,34442,6,0,L|448:96,1,90,2|0,0:0|0:0,0:0:0:0:
264,192,34783,1,8,0:0:0:0:
168,192,34954,2,0,P|120:152|200:104,1,180,2|2,0:0|0:0,0:0:0:0:
448,192,35465,2,0,L|352:192,1,90,8|0,0:0|0:0,0:0:0:0:
96,192,35806,6,0,P|32:152|96:104,1,180,2|8,0:0|0:0,0:0:0:0:
200,192,36317,1,0,0:0:0:0:
456,192,36488,2,0,L|352:192,1,90,2|2,0:0|0:0,0:0:0:0:
472,192,36829,2,0,L|376:192,1,90,8|0,0:0|0:0,0:0:0:0:
136,192,37170,6,0,P|120:160|216:96,1,180,2|8,0:0|0:0,0:0:0:0:
320,192,37681,1,2,0:0:0:0:
64,192,37852,1,8,0:0:0:0:
160,192,38022,2,0,P|216:168|224:144,2,90,2|10|0,0:0|0:0|0:0,0:0:0:0:
408,192,38533,6,0,L|504:192,2,90,2|0|2,0:0|0:0|0:0,0:0:0:0:
240,192,39045,1,0,0:0:0:0:
408,192,39215,2,0,P|472:160|400:120,1,180,8|0,0:0|0:0,0:0:0:0:
104,192,39897,6,0,L|8:192,2,90,2|8|2,0:0|0:0|0:0,0:0:0:0:
192,192,40409,1,2,0:0:0:0:
104,192,40579,2,0,P|40:160|112:120,1,180,8|0,0:0|0:0,0:0:0:0:
408,192,41261,6,0,L|504:192,2,90,2|0|2,0:0|0:0|0:0,0:0:0:0:
304,192,41772,1,0,0:0:0:0:
480,192,41942,2,0,P|480:136|368:80,1,180,8|0,0:0|0:0,0:0:0:0:
64,192,42624,6,0,L|160:192,2,90,2|8|2,0:0|0:0|0:0,0:0:0:0:
232,192,43136,1,2,0:0:0:0:
400,192,43306,2,0,P|464:152|400:112,1,180,8|2,0:0|0:0,0:0:0:0:
96,192,43988,6,0,P|41:183|16:152,2,90,2|0|2,0:0|0:0|0:0,0:0:0:0:
256,192,44499,1,0,0:0:0:0:
96,192,44670,2,0,P|32:144|96:112,1,180,8|0,0:0|0:0,0:0:0:0:
416,192,45352,6,0,L|304:192,2,90,2|8|2,0:0|0:0|0:0,0:0:0:0:
248,192,45863,1,2,0:0:0:0:
88,192,46033,2,0,P|24:160|88:112,1,180,8|2,0:0|0:0,0:0:0:0:
400,192,46715,6,0,L|496:192,1,90,2|0,0:0|0:0,0:0:0:0:
320,192,47056,1,2,0:0:0:0:
488,192,47227,1,0,0:0:0:0:
320,192,47397,2,0,L|488:128,1,180,8|0,0:0|0:0,0:0:0:0:
176,192,48079,6,0,L|64:192,3,90,8|0|0|0,0:0|0:0|0:0|0:0,0:0:0:0:
272,192,48761,2,0,L|368:192,1,90,0|2,0:0|0:0,0:0:0:0:
176,192,49102,2,0,L|80:192,1,90,8|2,0:0|0:0,0:0:0:0:
360,192,49442,6,0,L|456:192,1,90,2|0,0:0|0:0,0:0:0:0:
272,192,49783,1,8,0:0:0:0:
112,192,49954,1,0,0:0:0:0:
272,192,50124,2,0,L|368:192,1,90,2|0,0:0|0:0,0:0:0:0:
176,192,50465,2,0,L|56:192,1,90,8|0,0:0|0:0,0:0:0:0:
272,192,50806,6,0,L|336:120,1,90,2|0,0:0|0:0,0:0:0:0:
240,192,51147,2,0,L|176:120,1,90,8|0,0:0|0:0,0:0:0:0:
368,192,51488,2,0,L|472:192,1,90,2|2,0:0|0:0,0:0:0:0:
216,192,51829,2,0,L|112:192,1,90,8|0,0:0|0:0,0:0:0:0:
400,192,52170,6,0,P|464:168|400:120,1,180,2|8,0:0|0:0,0:0:0:0:
312,192,52681,1,0,0:0:0:0:
72,192,52852,2,0,L|264:192,1,180,2|8,0:0|0:0,0:0:0:0:
344,192,53363,1,0,0:0:0:0:
96,192,53533,6,0,P|32:160|96:112,1,180,2|8,0:0|0:0,0:0:0:0:
192,192,54045,1,0,0:0:0:0:
440,192,54215,2,0,P|472:152|392:88,1,180,2|8,0:0|0:0,0:0:0:0:
296,192,54727,1,0,0:0:0:0:
48,192,54897,6,0,P|24:136|112:72,1,180,2|8,0:0|0:0,0:0:0:0:
192,192,55408,1,0,0:0:0:0:
104,192,55579,2,0,P|40:152|112:112,1,180,2|8,0:0|0:0,0:0:0:0:
200,192,56090,1,0,0:0:0:0:
384,192,56261,6,0,L|384:96,1,90,2|0,0:0|0:0,0:0:0:0:
208,192,56602,2,0,P|160:160|152:120,1,90,8|0,0:0|0:0,0:0:0:0:
336,192,56942,2,0,L|232:192,1,90,2|2,0:0|0:0,0:0:0:0:
416,192,57283,2,0,L|320:192,1,90,8|0,0:0|0:0,0:0:0:0:
80,192,57624,6,0,L|32:112,1,90,2|0,0:0|0:0,0:0:0:0:
220,192,57965,2,0,L|340:192,1,90,8|2,0:0|0:0,0:0:0:0:
128,192,58306,2,0,L|32:192,1,90,8|0,0:0|0:0,0:0:0:0:
224,192,58647,2,0,L|128:192,1,90,8|0,0:0|0:0,0:0:0:0:
384,192,58988,5,8,0:0:0:0:
240,192,59158,1,2,0:0:0:0:
384,192,59329,2,0,L|440:120,1,90,8|2,0:0|0:0,0:0:0:0:
184,192,59670,1,8,0:0:0:0:
353,192,59840,1,2,0:0:0:0:
384,192,59883,1,0,0:0:0:0:
396,192,59925,1,0,0:0:0:0:
406,192,59968,1,0,0:0:0:0:
406,192,60011,1,8,0:0:0:0:
406,192,60053,1,0,0:0:0:0:
396,192,60096,1,0,0:0:0:0:
384,192,60138,1,0,0:0:0:0:
346,192,60181,1,8,0:0:0:0:
80,192,60352,6,0,L|80:96,1,90,4|0,0:0|0:0,0:0:0:0:
264,192,60692,2,0,L|360:192,2,90,8|0|2,0:0|0:0|0:0,0:0:0:0:
168,192,61204,1,2,0:0:0:0:
440,192,61374,2,0,L|440:96,1,90,8|0,0:0|0:0,0:0:0:0:
258,192,61715,6,0,L|138:192,1,90,2|0,0:0|0:0,0:0:0:0:
352,192,62056,2,0,L|240:192,1,90,8|0,0:0|0:0,0:0:0:0:
176,192,62397,2,0,L|280:192,1,90,2|2,0:0|0:0,0:0:0:0:
78,192,62738,2,0,L|190:192,1,90,8|0,0:0|0:0,0:0:0:0:
424,192,63079,6,0,P|488:152|424:112,1,180,2|8,0:0|0:0,0:0:0:0:
328,192,63590,2,0,P|256:168|248:152,2,90,0|2|2,0:0|0:0|0:0,0:0:0:0:
80,192,64102,1,8,0:0:0:0:
238,192,64272,6,0,L|342:192,1,90,2|0,0:0|0:0,0:0:0:0:
80,192,64613,1,8,0:0:0:0:
32,192,64698,1,8,0:0:0:0:
190,192,64783,1,8,0:0:0:0:
238,192,64868,1,0,0:0:0:0:
286,192,64954,1,2,0:0:0:0:
238,192,65039,1,0,0:0:0:0:
80,192,65124,1,8,0:0:0:0:
32,192,65209,1,0,0:0:0:0:
32,192,65295,1,2,0:0:0:0:
80,192,65380,1,0,0:0:0:0:
256,192,65465,1,8,0:0:0:0:
312,192,65550,1,0,0:0:0:0:
256,192,65636,1,2,0:0:0:0:
16,192,65806,6,0,P|40:128|144:88,1,180,2|8,0:0|0:0,0:0:0:0:
320,192,66317,2,0,P|384:144|320:120,1,180,0|2,0:0|0:0,0:0:0:0:
72,192,66829,6,0,L|176:192,2,90,8|0|0,0:0|0:0|0:0,0:0:0:0:
176,192,67340,1,2,0:0:0:0:
360,192,67511,2,0,L|464:192,1,90,8|0,0:0|0:0,0:0:0:0:
266,192,67852,2,0,L|146:192,1,90,2|2,0:0|0:0,0:0:0:0:
344,192,68192,1,8,0:0:0:0:
176,192,68363,1,0,0:0:0:0:
432,192,68533,6,0,P|496:152|432:112,1,180,2|8,0:0|0:0,0:0:0:0:
328,192,69045,2,0,L|424:192,2,90,2|0|2,0:0|0:0|0:0,0:0:0:0:
88,192,69556,6,0,P|24:152|88:104,1,180,8|0,0:0|0:0,0:0:0:0:
272,192,70067,2,0,L|392:192,1,90,2|8,0:0|0:0,0:0:0:0:
176,192,70408,2,0,L|104:192,1,45,8|8,0:0|0:0,0:0:0:0:
256,192,70579,2,0,L|320:192,1,45,8|8,0:0|0:0,0:0:0:0:
301,192,70749,2,0,L|256:192,1,45,8|8,0:0|0:0,0:0:0:0:
131,192,70920,1,8,0:0:0:0:
309,192,71090,2,0,L|381:192,1,45,8|0,0:0|0:0,0:0:0:0:
160,192,71261,6,0,P|93:160|157:112,1,180,4|8,0:0|0:0,0:0:0:0:
336,192,71772,2,0,L|440:192,2,90,0|2|0,0:0|0:0|0:0,0:0:0:0:
80,192,72283,2,0,L|184:192,1,90,8|0,0:0|0:0,0:0:0:0:
352,192,72624,6,0,L|248:192,1,90,2|0,0:0|0:0,0:0:0:0:
442,192,72965,2,0,L|338:192,1,90,8|0,0:0|0:0,0:0:0:0:
256,192,73306,2,0,L|352:192,1,90,2|0,0:0|0:0,0:0:0:0:
160,192,73647,2,0,L|64:192,1,90,8|0,0:0|0:0,0:0:0:0:
352,192,73988,6,0,L|448:192,2,90,8|2|2,0:0|0:0|0:0,0:0:0:0:
104,192,74499,2,0,L|8:192,2,90,8|2|2,0:0|0:0|0:0,0:0:0:0:
352,192,75011,1,8,0:0:0:0:
192,192,75181,6,0,P|128:152|192:112,1,180,2|2,0:0|0:0,0:0:0:0:
376,192,75692,2,0,L|472:192,1,90,8|0,0:0|0:0,0:0:0:0:
192,192,76033,2,0,L|96:192,3,90,8|0|8|0,0:0|0:0|0:0|0:0,0:0:0:0:
368,192,76715,5,2,0:0:0:0:
216,192,76886,2,0,L|120:192,1,90,0|8,0:0|0:0,0:0:0:0:
232,192,77227,2,0,P|312:160|344:72,1,180,2|0,0:0|0:0,0:0:0:0:
80,192,77738,1,8,0:0:0:0:
240,192,77908,6,0,P|304:144|240:112,1,180,2|0,0:0|0:0,0:0:0:0:
64,192,78420,2,0,L|64:96,1,90,8|0,0:0|0:0,0:0:0:0:
248,192,78761,1,2,0:0:0:0:
296,192,78846,1,0,0:0:0:0:
296,192,78931,1,2,0:0:0:0:
248,192,79016,1,0,0:0:0:0:
120,192,79102,1,8,0:0:0:0:
72,192,79187,1,0,0:0:0:0:
200,192,79272,1,2,0:0:0:0:
248,192,79357,1,0,0:0:0:0:
88,192,79442,6,0,P|32:176|16:144,2,90,8|2|2,0:0|0:0|0:0,0:0:0:0:
352,192,79954,2,0,L|456:192,2,90,2|0|0,0:0|0:0|0:0,0:0:0:0:
96,192,80465,5,8,0:0:0:0:
48,192,80550,1,0,0:0:0:0:
48,192,80636,1,2,0:0:0:0:
96,192,80721,1,0,0:0:0:0:
160,192,80806,1,2,0:0:0:0:
392,192,80977,2,0,P|456:184|480:136,2,90,2|0|2,0:0|0:0|0:0,0:0:0:0:
160,192,81488,1,8,0:0:0:0:
312,192,81658,1,2,0:0:0:0:
64,192,81829,5,4,0:0:0:0:
256,192,81999,12,0,87283,0:0:0:0:
