osu file format v14

[General]
AudioFilename: audio.mp3
AudioLeadIn: 0
PreviewTime: 352
Countdown: 0
SampleSet: Soft
StackLeniency: 0.7
Mode: 0
LetterboxInBreaks: 0
WidescreenStoryboard: 0

[Editor]
Bookmarks: 27624,59670,60266
DistanceSpacing: 1
BeatDivisor: 6
GridSize: 16
TimelineZoom: 1.4

[Metadata]
Title:DREAMING COLOR (Short ver.)
TitleUnicode:DREAMING COLOR (Short ver.)
Artist:Trial & Error
ArtistUnicode:Trial & Error
Creator:Hailie
Version:Normal
Source:osu!
Tags:fa Featured Artist Electronic tandess Souichi Sakagami takigyousou Natsume Umi
BeatmapID:1604433
BeatmapSetID:752435

[Difficulty]
HPDrainRate:4
CircleSize:2
OverallDifficulty:4
ApproachRate:6
SliderMultiplier:1.05
SliderTickRate:1

[Events]
//Background and Video events
0,0,"bg.jpg",0,0
//Break Periods
//Storyboard Layer 0 (Background)
//Storyboard Layer 1 (Fail)
//Storyboard Layer 2 (Pass)
//Storyboard Layer 3 (Foreground)
//Storyboard Sound Samples

[TimingPoints]
340,340.909090909091,4,2,0,50,1,0
5794,-100,4,2,0,60,0,0
16703,-100,4,2,0,50,0,0
38521,-100,4,2,0,40,0,0
49430,-100,4,2,0,60,0,0
60340,-100,4,2,0,70,0,1
70567,-100,4,2,0,70,0,0
71249,-100,4,2,0,70,0,1
81817,-100,4,2,0,70,0,0
81902,-100,4,2,0,20,0,0
86249,-100,4,2,0,10,0,0
87442,-100,4,2,0,5,0,0

[Colours]
Combo1 : 201,31,1
Combo2 : 170,0,170
Combo3 : 0,0,255
Combo4 : 170,0,85

[HitObjects]
63,68,340,5,4,0:3:0:0:
63,68,680,2,0,L|191:67,1,105,0|2,1:0|3:2,0:0:0:0:
220,71,1192,2,0,P|229:125|292:150,1,105,0|0,1:0|1:0,0:0:0:0:
368,115,1874,2,0,L|444:113,1,52.5,0|4,3:0|3:0,0:0:0:0:
477,201,2385,1,4,0:3:0:0:
501,247,2555,2,0,P|512:302|482:355,1,105,0|2,1:0|0:0,0:0:0:0:
439,345,3067,6,0,P|370:339|333:341,1,105,4|0,0:3|1:0,0:0:0:0:
230,323,3749,2,0,L|166:318,1,52.5,2|0,3:2|1:0,0:0:0:0:
78,354,4260,1,0,1:0:0:0:
75,249,4601,2,0,L|5:253,2,52.5,2|4|2,0:0|0:3|0:0,0:0:0:0:
116,216,5112,2,0,P|171:211|220:174,1,105,4|0,0:3|1:0,0:0:0:0:
249,146,5624,1,0,1:0:0:0:
283,99,5794,6,0,P|341:103|398:99,1,105,4|0,1:0|1:0,0:0:0:0:
489,73,6476,2,0,L|513:146,1,52.5,2|4,0:0|0:3,0:0:0:0:
508,175,6817,2,0,P|478:218|481:285,1,105,4|0,1:2|3:0,0:0:0:0:
432,365,7499,1,0,1:0:0:0:
382,349,7669,1,4,0:3:0:0:
329,344,7840,2,0,P|271:338|217:353,1,105,2|0,0:2|1:0,0:0:0:0:
121,347,8521,6,0,P|100:300|94:231,1,105,4|0,0:3|1:0,0:0:0:0:
124,147,9203,2,0,P|147:119|179:97,1,52.5,2|4,0:0|0:3,0:0:0:0:
204,81,9544,2,0,P|255:88|332:73,1,105,4|0,1:2|3:0,0:0:0:0:
412,71,10226,2,0,P|419:45|426:10,2,52.5,0|4|2,1:0|0:3|0:2,0:0:0:0:
408,123,10737,1,4,0:3:0:0:
425,172,10908,1,0,1:0:0:0:
465,269,11249,6,0,P|413:303|376:354,1,105,4|0,1:0|1:0,0:0:0:0:
282,349,11930,2,0,P|235:348|205:350,1,52.5,2|4,0:0|0:3,0:0:0:0:
177,343,12271,2,0,P|112:338|95:277,1,105,4|0,1:2|3:0,0:0:0:0:
38,218,12953,1,0,1:0:0:0:
45,165,13124,1,4,0:3:0:0:
68,117,13294,2,0,P|106:63|169:37,1,105,2|0,0:2|1:0,0:0:0:0:
249,48,13976,6,0,B|315:54|311:29|391:45,1,105,4|0,0:3|1:0,0:0:0:0:
448,85,14658,2,0,P|462:127|470:164,1,52.5,2|4,0:0|0:3,0:0:0:0:
429,174,14999,2,0,L|401:306,1,105,4|0,1:2|3:0,0:0:0:0:
361,302,15510,1,4,0:3:0:0:
258,325,15851,1,2,1:2:0:0:
205,326,16021,2,0,P|148:322|73:340,1,105,2|4,1:2|3:3,0:0:0:0:
15,269,16703,6,0,P|1:226|14:156,2,105,4|0|0,0:3|1:0|3:0,0:0:0:0:
100,207,17726,2,0,L|174:204,1,52.5,0|0,1:0|3:0,0:0:0:0:
205,206,18067,2,0,B|214:156|190:142|204:75,1,105,4|0,3:3|1:0,0:0:0:0:
287,42,18749,2,0,P|334:34|412:57,1,105,0|0,3:0|1:0,0:0:0:0:
466,117,19430,6,0,P|490:178|465:235,1,105,4|0,0:3|1:0,0:0:0:0:
390,268,20112,1,0,3:0:0:0:
286,251,20453,2,0,P|264:274|255:308,1,52.5,0|0,1:0|3:0,0:0:0:0:
237,341,20794,2,0,L|121:341,1,105,4|0,3:3|1:0,0:0:0:0:
28,359,21476,1,2,3:2:0:0:
7,255,21817,1,2,1:2:0:0:
69,170,22158,6,0,P|56:138|97:61,2,105,4|0|0,0:3|1:0|3:0,0:0:0:0:
171,192,23180,2,0,L|234:192,1,52.5,0|0,1:0|3:0,0:0:0:0:
257,232,23521,2,0,L|258:356,2,105,4|0|0,3:3|1:0|3:0,0:0:0:0:
220,133,24544,1,0,1:0:0:0:
285,50,24885,6,0,P|342:40|406:55,1,105,4|0,0:3|1:0,0:0:0:0:
477,104,25567,1,0,3:0:0:0:
487,208,25908,2,0,L|491:276,1,52.5,0|0,1:0|3:0,0:0:0:0:
487,312,26249,1,4,3:3:0:0:
398,255,26590,1,0,1:0:0:0:
298,292,26930,2,0,P|244:304|182:297,1,105,2|4,3:2|0:3,0:0:0:0:
142,293,27442,1,6,0:3:0:0:
92,275,27612,6,0,L|71:388,2,105,4|0|0,0:3|1:0|3:0,0:0:0:0:
35,186,28635,2,0,L|40:130,1,52.5,0|0,1:0|3:0,0:0:0:0:
57,84,28976,2,0,P|106:75|189:100,1,105,4|0,3:3|1:0,0:0:0:0:
265,70,29658,2,0,B|320:79|321:54|378:67,1,105,0|0,3:0|1:0,0:0:0:0:
442,138,30340,6,0,L|467:259,1,105,4|0,0:3|1:0,0:0:0:0:
382,319,31021,1,0,3:0:0:0:
277,333,31362,2,0,P|224:338|186:345,1,52.5,0|0,1:0|3:0,0:0:0:0:
172,340,31703,2,0,P|133:321|113:240,1,105,4|0,3:3|1:0,0:0:0:0:
147,168,32385,1,2,3:2:0:0:
249,143,32726,1,2,1:2:0:0:
349,173,33067,6,0,P|360:143|346:74,2,105,4|0|0,0:3|1:0|3:0,0:0:0:0:
399,265,34090,2,0,L|395:349,1,52.5,0|0,1:0|3:0,0:0:0:0:
347,337,34430,2,0,L|235:330,1,105,4|0,3:3|1:0,0:0:0:0:
143,293,35112,1,0,3:0:0:0:
41,319,35453,2,0,P|40:280|49:231,1,52.5,0|0,1:0|0:0,0:0:0:0:
37,214,35794,6,0,P|39:166|78:108,1,105,4|0,0:3|1:0,0:0:0:0:
111,22,36476,2,0,P|157:52|181:117,1,105,0|0,3:0|1:0,0:0:0:0:
283,92,37158,2,0,P|331:106|414:80,1,105,4|0,3:3|1:0,0:0:0:0:
481,139,37840,2,0,P|487:203|469:242,1,105,0|8,1:0|1:3,0:0:0:0:
370,207,38521,5,4,0:3:0:0:
277,256,38862,2,0,P|235:283|195:339,2,105,0|0|4,3:0|1:0|0:3,0:0:0:0:
370,207,39885,1,4,0:3:0:0:
308,118,40226,1,4,0:3:0:0:
214,165,40567,2,0,P|175:196|109:217,1,105,0|4,1:0|3:0,0:0:0:0:
22,186,41249,6,0,L|18:76,1,105,4|0,0:3|3:0,0:0:0:0:
107,30,41930,1,0,1:0:0:0:
209,51,42271,2,0,P|243:58|272:52,1,52.5,4|0,0:3|0:0,0:0:0:0:
310,39,42612,2,0,P|368:27|428:39,2,105,4|4|0,0:3|0:3|1:0,0:0:0:0:
302,144,43635,1,4,0:3:0:0:
405,126,43976,5,6,3:3:0:0:
452,219,44317,2,0,P|467:280|457:339,2,105,0|0|4,3:0|1:0|0:3,0:0:0:0:
358,264,45340,1,4,0:3:0:0:
264,216,45680,1,4,0:3:0:0:
175,272,46021,2,0,P|116:281|51:263,1,105,0|4,1:0|0:3,0:0:0:0:
25,178,46703,6,0,L|27:46,1,105,4|0,0:3|3:0,0:0:0:0:
129,94,47385,1,0,1:0:0:0:
223,48,47726,1,4,0:3:0:0:
317,93,48067,2,0,P|371:168|271:222,1,210,4|2,0:3|3:2,0:0:0:0:
199,188,49090,1,2,1:2:0:0:
202,292,49430,6,0,P|157:287|90:292,1,105,4|0,1:0|1:0,0:0:0:0:
34,206,50112,2,0,P|29:154|52:98,1,105,0|0,3:0|1:0,0:0:0:0:
141,58,50794,2,0,P|187:48|268:52,1,105,4|0,0:3|1:1,0:0:0:0:
349,61,51476,2,0,P|379:92|400:120,1,52.5,4|4,3:0|3:0,0:0:0:0:
414,142,51817,1,0,1:0:0:0:
454,238,52158,6,0,P|460:288|395:300,1,105,4|0,1:0|1:0,0:0:0:0:
312,325,52840,2,0,B|242:321|268:350|186:343,1,105,0|0,3:0|1:0,0:0:0:0:
106,325,53521,2,0,P|87:279|113:220,1,105,4|0,0:3|1:1,0:0:0:0:
148,199,54033,1,2,3:2:0:0:
199,188,54203,2,0,P|246:197|330:174,1,105,4|0,3:0|1:0,0:0:0:0:
403,158,54885,6,0,L|403:31,1,105,4|0,1:0|1:0,0:0:0:0:
297,55,55567,1,0,3:0:0:0:
202,8,55908,1,0,1:0:0:0:
150,99,56249,1,4,0:3:0:0:
244,147,56590,2,0,P|285:150|356:217,2,105,0|4|0,1:1|3:0|1:0,0:0:0:0:
151,196,57612,6,0,P|125:235|118:309,1,105,4|0,1:0|1:0,0:0:0:0:
188,367,58294,1,0,1:0:0:0:
260,290,58635,1,0,1:0:0:0:
353,338,58976,2,0,L|375:225,1,105,4|0,1:2|1:1,0:0:0:0:
373,127,59658,2,0,P|336:89|238:118,1,157.5,12|4,3:0|0:3,0:0:0:0:
218,157,60340,6,0,P|168:165|78:151,1,105,4|0,1:0|1:0,0:0:0:0:
63,160,60851,2,0,P|39:197|61:284,1,105,4|4,0:3|0:3,0:0:0:0:
80,291,61362,1,4,1:2:0:0:
184,284,61703,1,2,0:0:0:0:
277,332,62044,2,0,P|284:276|293:220,1,105,0|0,1:0|3:0,0:0:0:0:
372,159,62726,1,0,1:0:0:0:
290,92,63067,6,0,P|226:72|173:92,1,105,4|0,3:0|1:0,0:0:0:0:
85,78,63749,1,0,3:0:0:0:
102,181,64090,2,0,L|102:248,1,52.5,4|4,1:2|0:3,0:0:0:0:
125,280,64430,2,0,P|170:276|240:293,1,105,2|0,0:0|1:0,0:0:0:0:
316,344,65112,1,0,3:0:0:0:
415,310,65453,1,0,1:0:0:0:
448,210,65794,6,0,P|460:151|431:96,2,105,4|0|0,1:2|1:0|1:0,0:0:0:0:
349,167,66817,2,0,B|286:156|289:191|216:173,1,105,4|2,1:2|0:0,0:0:0:0:
150,133,67499,2,0,P|137:172|140:208,1,52.5,0|4,1:0|0:3,0:0:0:0:
145,234,67840,2,0,P|179:281|241:297,1,105,0|0,1:0|1:0,0:0:0:0:
326,298,68521,6,0,L|394:297,1,52.5,4|0,1:2|0:0,0:0:0:0:
431,300,68862,2,0,P|457:237|437:185,1,105,0|0,1:0|3:0,0:0:0:0:
375,128,69544,2,0,P|317:114|250:132,1,105,4|2,1:2|0:0,0:0:0:0:
228,149,70055,1,4,1:3:0:0:
178,241,70396,1,2,1:3:0:0:
136,273,70567,2,0,P|71:270|106:189,1,157.5,0|2,1:0|1:2,0:0:0:0:
111,153,71249,6,0,P|143:124|193:52,1,105,4|0,1:0|1:0,0:0:0:0:
226,49,71760,2,0,P|276:42|345:53,1,105,4|4,0:3|0:3,0:0:0:0:
379,67,72271,1,4,1:2:0:0:
456,137,72612,1,2,0:0:0:0:
374,203,72953,2,0,L|345:328,1,105,0|0,1:0|1:0,0:0:0:0:
253,264,73635,1,0,1:0:0:0:
170,328,73976,6,0,P|115:333|60:277,1,105,4|0,1:2|1:0,0:0:0:0:
42,265,74487,2,0,L|45:130,1,105,4|4,1:0|0:3,0:0:0:0:
104,73,75169,2,0,P|158:57|221:83,1,105,4|4,0:3|0:3,0:0:0:0:
246,99,75680,1,0,1:0:0:0:
349,83,76021,2,0,L|371:27,2,52.5,0|4|0,1:2|3:0|1:0,0:0:0:0:
403,173,76703,5,4,1:0:0:0:
427,219,76874,2,0,P|404:269|411:353,1,105,2|4,0:0|0:3,0:0:0:0:
298,338,77555,2,0,P|240:333|172:344,1,105,4|4,0:3|0:3,0:0:0:0:
94,302,78237,1,4,0:3:0:0:
68,255,78408,2,0,B|76:204|47:192|61:133,1,105,0|6,1:0|3:0,0:0:0:0:
56,46,79090,1,0,1:0:0:0:
149,92,79430,6,0,P|193:106|271:93,1,105,4|2,1:2|3:0,0:0:0:0:
301,84,79942,2,0,P|349:115|409:172,1,105,4|4,1:2|0:3,0:0:0:0:
422,183,80453,1,4,1:2:0:0:
374,276,80794,1,4,0:3:0:0:
322,266,80965,2,0,P|269:320|273:359,1,105,6|0,0:0|0:0,0:0:0:0:
216,352,81476,2,0,L|145:342,1,52.5,0|0,1:0|1:0,0:0:0:0:
113,331,81817,5,4,0:0:0:0:
256,192,81987,12,0,87442,0:0:0:0:
