osu file format v14

[General]
AudioFilename: audio.mp3
AudioLeadIn: 0
PreviewTime: 59652
Countdown: 1
SampleSet: Soft
StackLeniency: 0.7
Mode: 0
LetterboxInBreaks: 0
WidescreenStoryboard: 0

[Editor]
DistanceSpacing: 0.5
BeatDivisor: 4
GridSize: 16
TimelineZoom: 1.5

[Metadata]
Title:DREAMING COLOR (Short Ver.)
TitleUnicode:DREAMING COLOR (Short Ver.)
Artist:Trial & Error
ArtistUnicode:Trial & Error
Creator:Lugu
Version:wandering color
Source:osu!
Tags:fa Featured Artist mappers' guild mpg mg tandess souichi sakagami takigyousou natsume umi and japanese pop jpop j-pop entry [-evil-] 夏目うみ 再う colour
BeatmapID:2332536
BeatmapSetID:1116584

[Difficulty]
HPDrainRate:5
CircleSize:4
OverallDifficulty:8.2
ApproachRate:9
SliderMultiplier:1.72
SliderTickRate:1

[Events]
//Background and Video events
0,0,"cheng-qi-huang-eQaECWYtFl8-unsplash.jpg",0,0
//Break Periods
//Storyboard Layer 0 (Background)
//Storyboard Layer 1 (Fail)
//Storyboard Layer 2 (Pass)
//Storyboard Layer 3 (Foreground)
//Storyboard Layer 4 (Overlay)
//Storyboard Sound Samples

[TimingPoints]
334,340.909090909091,4,2,1,80,1,0
334,-142.857142857143,4,2,1,80,0,0
1186,-111.111111111111,4,2,1,80,0,0
1868,-142.857142857143,4,2,1,80,0,0
3913,-111.111111111111,4,2,1,80,0,0
4595,-111.111111111111,4,2,1,65,0,0
4935,-111.111111111111,4,2,1,70,0,0
5277,-111.111111111111,4,2,1,75,0,0
16697,-117.647058823529,4,2,1,70,0,0
38515,-133.333333333333,4,2,1,60,0,0
48743,-133.333333333333,4,2,1,65,0,0
49084,-133.333333333333,4,2,1,70,0,0
49424,-100,4,2,1,70,0,0
60334,-86.9565217391304,4,2,1,70,0,1
60674,-86.9565217391304,4,2,1,80,0,1
76697,-100,4,2,1,80,0,0
79424,-100,4,2,1,80,0,1
79765,-100,4,2,1,80,0,1
80277,-100,4,2,1,80,0,1
87265,-100,4,2,1,5,0,0

[Colours]
Combo1 : 0,128,255
Combo2 : 77,158,184
Combo3 : 37,57,202
Combo4 : 255,128,0
Combo5 : 255,128,192
Combo6 : 0,255,255

[HitObjects]
63,77,334,6,0,B|96:59|135:67|135:67|144:94|187:110,1,120.399996325684,10|10,2:0|2:0,2:0:0:0:
247,109,845,1,0,0:0:0:0:
215,38,1015,1,0,1:0:0:0:
202,180,1186,6,0,B|157:164|126:185|126:185|105:229|59:236,1,154.799995275879,10|10,2:0|2:0,2:0:0:0:
52,231,1868,5,0,1:0:0:0:
8,165,2038,2,0,L|1:98,1,60.1999981628419,8|0,2:0|2:0,2:0:0:0:
64,221,2379,1,0,1:0:0:0:
82,302,2549,2,0,L|77:369,1,60.1999981628419,8|0,2:0|2:0,2:0:0:0:
155,258,2890,1,2,2:0:0:0:
155,258,2976,1,2,1:2:0:0:
155,258,3061,6,0,P|199:225|272:232,1,120.399996325684,10|10,2:0|2:0,2:0:0:0:
333,306,3572,1,0,0:0:0:0:
409,258,3743,1,0,1:0:0:0:
302,370,3913,6,0,B|302:284|302:284|338:260|333:214,1,154.799995275879,10|10,2:0|2:0,2:0:0:0:
310,50,4595,5,0,2:0:0:0:
242,100,4765,1,0,1:0:0:0:
316,141,4936,1,0,2:0:0:0:
243,20,5106,5,0,1:0:0:0:
384,103,5277,1,0,1:0:0:0:
237,182,5447,1,8,2:0:0:0:
221,183,5532,1,8,2:0:0:0:
205,179,5618,1,8,2:0:0:0:
191,172,5703,1,8,2:0:0:0:
176,165,5788,6,0,B|119:161|119:161|76:190|76:190|6:183,1,154.799995275879,6|10,1:2|2:0,2:0:0:0:
22,170,6299,2,0,L|78:175,1,38.6999988189698,0|0,1:0|0:0,0:0:0:0:
157,238,6470,2,0,P|174:201|172:151,1,77.3999976379395,0|2,2:0|1:2,2:0:0:0:
24,260,6811,1,12,2:0:0:0:
116,345,6981,6,0,B|215:333|215:333|235:360|270:357,1,154.799995275879,2|0,2:0|1:0,2:0:0:0:
339,257,7493,2,0,P|297:261|266:292,1,77.3999976379395,8|0,2:0|1:0,2:0:0:0:
387,366,7834,1,2,2:0:0:0:
416,293,8004,1,0,1:0:0:0:
443,218,8174,2,0,L|432:128,1,77.3999976379395,8|0,2:0|1:0,2:0:0:0:
469,54,8430,1,0,0:0:0:0:
476,40,8515,6,0,B|448:4|405:24|405:24|383:60|338:52,1,154.799995275879,2|8,2:0|2:0,2:0:0:0:
334,35,9027,2,0,P|360:31|386:35,1,38.6999988189698,0|0,1:0|0:0,0:0:0:0:
255,123,9197,2,0,L|245:33,1,77.3999976379395,0|0,2:0|1:0,2:0:0:0:
345,152,9538,1,8,2:0:0:0:
228,222,9709,6,0,B|138:213|138:213|115:248|81:247,1,154.799995275879,2|0,1:2|1:0,2:0:0:0:
82,96,10220,2,0,L|74:185,1,77.3999976379395,8|0,2:0|2:0,2:0:0:0:
0,291,10561,2,0,L|6:333,3,38.6999988189698,2|2|2|2,2:0|0:0|1:2|0:0,2:0:0:0:
34,354,10902,2,0,L|22:269,1,77.3999976379395,8|0,2:0|2:0,0:0:0:0:
101,125,11243,6,0,P|146:85|241:88,1,154.799995275879,6|8,1:2|2:0,2:0:0:0:
288,139,11754,1,0,2:0:0:0:
361,42,11924,2,0,P|325:20|290:21,1,77.3999976379395,0|0,2:0|1:0,2:0:0:0:
379,173,12265,5,14,2:0:0:0:
447,122,12436,2,0,B|406:135|416:183|416:183|436:270,1,154.799995275879,0|0,1:0|1:0,2:0:0:0:
355,355,12947,2,0,L|438:341,1,77.3999976379395,8|0,2:0|1:0,2:0:0:0:
234,293,13288,2,0,L|310:280,1,77.3999976379395,2|0,2:0|1:0,2:0:0:0:
152,384,13629,2,0,L|228:371,1,77.3999976379395,8|2,2:0|2:0,0:0:0:0:
48,305,13970,6,0,B|69:223|69:223|36:197|46:152,1,154.799995275879,2|8,2:0|2:0,2:0:0:0:
58,144,14481,2,0,P|70:165|69:191,1,38.6999988189698,0|0,1:0|0:0,0:0:0:0:
0,77,14652,1,0,2:0:0:0:
127,47,14822,1,0,1:0:0:0:
245,175,14993,5,14,2:0:0:0:
213,247,15163,2,0,B|226:206|274:216|274:216|329:228,1,116.099996456909,2|0,1:2|0:0,2:0:0:0:
387,217,15504,2,0,P|391:175|376:137,1,77.3999976379395,8|0,2:0|2:0,0:0:0:0:
354,311,15845,1,10,2:0:0:0:
354,311,15930,1,2,2:0:0:0:
354,311,16015,5,10,2:0:0:0:
434,296,16186,1,0,1:0:0:0:
351,384,16356,1,0,1:0:0:0:
270,359,16527,1,0,1:0:0:0:
174,281,16697,6,0,B|165:198|165:198|129:176|129:143,1,146.200002788544,6|10,1:2|2:0,2:0:0:0:
237,93,17209,1,0,1:0:0:0:
147,39,17379,2,0,P|107:24|67:33,1,73.1000013942719,2|0,2:0|1:0,2:0:0:0:
147,39,17720,1,10,2:0:0:0:
252,15,17890,1,0,1:0:0:0:
252,15,17976,1,0,0:0:0:0:
252,15,18061,6,0,L|337:26,1,73.1000013942719,2|0,2:0|0:0,2:0:0:0:
457,87,18402,2,0,L|372:98,1,73.1000013942719,8|0,2:0|2:0,0:0:0:0:
256,197,18743,1,2,2:0:0:0:
319,251,18913,1,0,1:0:0:0:
248,188,19084,2,0,P|269:165|357:175,1,109.650002091408,8|0,2:0|0:0,2:0:0:0:
415,180,19424,6,0,B|368:182|365:226|365:226|362:307,1,146.200002788544,2|10,1:2|2:0,2:0:0:0:
453,252,19936,1,0,1:0:0:0:
352,372,20106,2,0,P|310:373|274:353,2,73.1000013942719,2|0|10,2:0|1:0|2:0,2:0:0:0:
435,329,20618,1,0,1:0:0:0:
273,275,20788,6,0,B|186:298|186:298|180:330|145:343,1,146.200002788544,0|8,2:0|2:0,2:0:0:0:
108,276,21299,1,0,1:0:0:0:
184,155,21470,6,0,L|172:227,1,73.1000013942719,0|0,2:0|1:0,2:0:0:0:
27,265,21811,2,0,L|15:193,1,73.1000013942719,8|0,2:0|1:0,2:0:0:0:
78,52,22152,6,0,P|136:39|191:68,1,109.650002091408,6|0,1:2|0:0,2:0:0:0:
243,98,22493,2,0,L|322:87,1,73.1000013942719,10|0,2:0|2:0,0:0:0:0:
172,175,22834,2,0,L|93:164,1,73.1000013942719,2|0,2:0|1:0,2:0:0:0:
243,98,23174,1,10,2:0:0:0:
282,193,23345,1,0,1:0:0:0:
416,120,23515,6,0,P|439:68|413:11,1,109.650002091408,2|0,2:0|0:0,2:0:0:0:
348,15,23856,2,0,L|345:93,1,73.1000013942719,10|0,2:0|1:0,0:0:0:0:
245,171,24197,2,0,L|242:93,1,73.1000013942719,2|0,2:0|1:0,2:0:0:0:
351,224,24538,2,0,P|387:242|431:239,1,73.1000013942719,10|0,2:0|2:0,2:0:0:0:
506,295,24794,1,0,0:0:0:0:
495,286,24879,6,0,B|451:266|419:283|419:283|399:320|354:331,1,146.200002788544,2|8,1:2|2:0,2:0:0:0:
369,326,25390,1,0,2:0:0:0:
289,362,25561,2,0,L|209:351,1,73.1000013942719,0|0,2:0|1:0,2:0:0:0:
89,294,25902,2,0,L|204:272,1,109.650002091408,10|0,2:0|0:0,2:0:0:0:
269,257,26243,6,0,P|282:216|275:186,1,73.1000013942719,2|0,2:0|2:0,2:0:0:0:
188,115,26584,2,0,L|110:128,1,73.1000013942719,10|0,2:0|2:0,2:0:0:0:
301,26,26924,1,2,2:0:0:0:
261,155,27095,1,8,2:0:0:0:
168,39,27265,1,0,1:0:0:0:
356,96,27436,1,0,1:0:0:0:
190,193,27606,6,0,P|151:238|158:304,1,109.650002091408,6|0,1:2|0:0,2:0:0:0:
208,334,27947,2,0,L|286:348,1,73.1000013942719,10|0,2:0|2:0,0:0:0:0:
389,253,28288,1,2,2:0:0:0:
409,358,28459,1,0,1:0:0:0:
383,246,28629,2,0,L|392:172,1,73.1000013942719,10|0,2:0|1:0,2:0:0:0:
472,129,28885,1,0,0:0:0:0:
464,118,28970,6,0,P|430:100|393:102,1,73.1000013942719,2|0,2:0|0:0,2:0:0:0:
256,62,29311,2,0,P|292:62|323:45,1,73.1000013942719,8|0,2:0|1:0,0:0:0:0:
315,164,29652,2,0,L|306:242,1,73.1000013942719,2|0,2:0|1:0,2:0:0:0:
187,145,29993,2,0,P|187:101|141:55,1,109.650002091408,8|0,2:0|0:0,2:0:0:0:
82,108,30334,6,0,B|91:189|91:189|77:229|96:260,1,146.200002788544,2|10,1:2|2:0,2:0:0:0:
198,315,30845,1,0,2:0:0:0:
228,209,31015,2,0,P|184:201|153:220,1,73.1000013942719,2|0,2:0|1:0,2:0:0:0:
228,209,31356,1,10,2:0:0:0:
300,319,31527,1,0,1:0:0:0:
300,319,31612,1,0,0:0:0:0:
300,319,31697,6,0,B|320:229|320:229|351:217|355:177,1,146.200002788544,0|8,2:0|2:0,2:0:0:0:
306,116,32209,1,0,1:0:0:0:
417,69,32379,6,0,L|437:-13,1,73.1000013942719,0|0,2:0|1:0,2:0:0:0:
512,190,32720,2,0,L|492:108,1,73.1000013942719,8|0,2:0|1:0,2:0:0:0:
338,40,33061,6,0,B|261:29|261:29|241:47|219:48,1,109.650002091408,6|0,1:2|0:0,2:0:0:0:
172,85,33402,2,0,P|159:49|167:10,1,73.1000013942719,10|0,2:0|2:0,0:0:0:0:
284,108,33743,2,0,P|289:143|276:177,1,73.1000013942719,2|0,2:0|1:0,2:0:0:0:
137,163,34084,1,10,2:0:0:0:
218,286,34254,1,0,1:0:0:0:
333,229,34424,6,0,L|218:252,1,109.650002091408,2|0,2:0|0:0,2:0:0:0:
155,276,34765,2,0,P|111:267|83:236,1,73.1000013942719,10|0,2:0|2:0,0:0:0:0:
240,384,35106,2,0,P|268:361|304:356,1,73.1000013942719,0|0,2:0|1:0,2:0:0:0:
259,211,35447,1,10,2:0:0:0:
259,211,35788,6,0,L|268:99,1,109.650002091408,2|0,1:2|0:0,2:0:0:0:
277,30,36129,2,0,P|315:25|353:34,1,73.1000013942719,8|0,2:0|1:0,0:0:0:0:
189,108,36470,1,2,2:0:0:0:
273,27,36640,1,0,0:0:0:0:
348,124,36811,2,0,L|358:201,1,73.1000013942719,8|0,2:0|1:0,0:0:0:0:
430,329,37152,6,0,B|449:288|419:275|419:275|318:287,1,146.200002788544,2|8,1:2|2:0,2:0:0:0:
276,337,37663,1,0,1:0:0:0:
166,288,37834,2,0,P|127:295|87:281,1,73.1000013942719,2|0,1:2|0:0,2:0:0:0:
230,206,38174,2,0,L|318:211,1,73.1000013942719,0|0,1:0|1:0,0:0:0:0:
138,218,38515,5,0,1:2:0:0:
106,149,38686,1,0,0:0:0:0:
155,81,38856,2,0,B|193:69|226:78|226:78|241:107|277:114,2,129.00000492096,2|10|2,2:0|2:0|1:2,2:0:0:0:
155,81,39879,5,2,1:2:0:0:
99,42,40049,1,0,0:0:0:0:
31,69,40220,1,2,1:2:0:0:
19,141,40390,1,0,0:0:0:0:
76,193,40561,2,0,B|84:260|84:260|118:287|100:333,1,129.00000492096,10|2,2:0|1:2,2:0:0:0:
105,314,41243,6,0,L|172:322,1,64.5000024604798,0|0,1:2|0:0,0:0:0:0:
236,272,41584,1,2,1:2:0:0:
306,292,41754,1,0,0:0:0:0:
357,232,41924,2,0,B|361:173|361:173|346:148|346:148|350:102,1,129.00000492096,10|2,2:0|1:2,0:0:0:0:
349,107,42606,5,2,1:2:0:0:
431,118,42777,1,8,2:0:0:0:
470,183,42947,1,0,0:0:0:0:
465,258,43118,1,2,2:0:0:0:
426,326,43288,2,0,B|352:336|352:336|338:366|313:373,1,129.00000492096,10|0,1:2|1:0,2:0:0:0:
314,372,43970,5,0,1:2:0:0:
287,308,44140,1,0,0:0:0:0:
218,273,44311,1,2,1:2:0:0:
145,303,44481,1,0,0:0:0:0:
110,370,44652,2,0,B|64:369|64:331|64:331|65:267,1,129.00000492096,10|2,2:0|1:2,0:0:0:0:
64,270,45334,6,0,P|35:249|1:250,1,64.5000024604798,2|8,1:2|2:0,0:0:0:0:
100,184,45674,2,0,L|170:182,1,64.5000024604798,0|0,0:0|2:0,0:0:0:0:
17,156,46015,6,0,B|19:80|19:80|20:49|61:37,2,129.00000492096,10|2|0,2:0|1:2|1:2,2:0:0:0:
89,121,46868,1,0,0:0:0:0:
157,163,47038,2,0,L|157:232,1,64.5000024604798,2|0,1:2|0:0,2:0:0:0:
252,152,47379,2,0,P|258:113|251:80,1,64.5000024604798,10|0,2:0|0:0,0:0:0:0:
340,180,47720,2,0,P|318:208|234:232,1,96.7500036907198,2|0,1:2|0:0,0:0:0:0:
236,232,48061,5,2,1:2:0:0:
323,359,48402,1,0,2:0:0:0:
351,282,48572,1,0,2:0:0:0:
251,256,48743,1,2,2:0:0:0:
317,377,48913,1,0,1:0:0:0:
433,306,49084,1,8,2:0:0:0:
235,332,49254,1,0,2:0:0:0:
59,347,49424,6,0,B|70:258|70:258|39:237|42:211,1,129,4|0,1:2|0:0,2:0:0:0:
16,161,49765,2,0,P|58:140|103:145,1,86,10|0,2:0|2:0,0:0:0:0:
236,232,50106,2,0,P|194:211|149:216,1,86,2|0,2:0|1:0,2:0:0:0:
172,29,50447,2,0,L|176:117,1,86,10|0,2:0|1:0,2:0:0:0:
345,215,50788,5,2,2:0:0:0:
388,120,50959,1,0,0:0:0:0:
338,225,51129,2,0,L|348:314,1,86,10|0,2:0|2:0,0:0:0:0:
236,232,51470,2,0,P|239:188|266:148,1,86,2|0,1:2|1:0,2:0:0:0:
435,243,51811,2,0,B|345:257|345:257|342:285|318:298,1,129,10|0,2:0|0:0,2:0:0:0:
265,338,52152,6,0,B|220:359|186:341|186:341|162:287|92:317,1,172,2|8,1:2|2:0,2:0:0:0:
111,310,52663,1,0,2:0:0:0:
26,209,52834,2,0,P|74:213|102:246,1,86,2|0,1:2|0:0,2:0:0:0:
208,114,53174,2,0,L|116:121,1,86,8|0,2:0|2:0,0:0:0:0:
18,36,53430,1,0,0:0:0:0:
27,23,53515,6,0,B|70:1|110:15|110:15|149:55|197:37,1,172,2|8,1:2|2:0,2:0:0:0:
187,39,54027,1,0,2:0:0:0:
304,102,54197,2,0,L|307:17,1,86,2|0,1:2|0:0,2:0:0:0:
380,216,54538,2,0,L|383:131,1,86,8|0,2:0|2:0,0:0:0:0:
288,271,54879,6,0,B|400:244|400:244|427:270|465:262,1,172,2|8,1:2|2:0,2:0:0:0:
451,263,55390,1,0,2:0:0:0:
413,366,55561,2,0,P|371:364|338:335,1,86,0|0,1:0|1:0,2:0:0:0:
236,214,55902,2,0,P|219:254|216:301,1,86,8|0,2:0|1:0,2:0:0:0:
74,366,56243,6,0,P|46:324|58:228,1,129,0|0,2:0|0:0,0:0:0:0:
114,208,56584,2,0,L|125:297,1,86,10|0,2:0|0:0,2:0:0:0:
263,202,56924,2,0,L|274:113,1,86,2|0,1:2|1:0,0:0:0:0:
148,65,57265,2,0,P|105:90|53:83,1,86,10|0,2:0|2:0,2:0:0:0:
5,19,57521,1,0,0:0:0:0:
26,14,57606,6,0,L|45:154,1,129,2|0,1:2|0:0,2:0:0:0:
34,217,57947,5,8,2:0:0:0:
182,155,58118,1,0,2:0:0:0:
150,281,58288,5,8,2:0:0:0:
114,208,58459,1,0,2:0:0:0:
283,132,58629,5,8,2:0:0:0:
247,205,58800,1,0,2:0:0:0:
390,269,58970,5,0,1:0:0:0:
379,191,59140,1,8,2:0:0:0:
367,112,59311,2,0,L|357:23,1,86,8|0,2:0|2:0,0:0:0:0:
473,137,59652,5,2,1:2:0:0:
379,191,59822,1,2,1:2:0:0:
358,207,59907,1,2,2:0:0:0:
334,217,59993,1,10,2:0:0:0:
308,213,60078,1,2,2:0:0:0:
285,200,60163,2,0,P|303:189|331:182,1,43,2|2,2:0|2:0,0:0:0:0:
195,77,60334,6,0,B|147:41|100:80|100:80|73:143|15:133,1,197.800003772736,6|10,1:2|2:0,2:0:0:0:
44,24,60845,2,0,L|64:227,1,197.800003772736,2|0,2:0|1:0,2:0:0:0:
173,296,61356,2,0,P|227:318|284:255,1,148.350002829552,14|0,2:0|0:0,2:0:0:0:
271,189,61697,6,0,L|165:177,1,98.9000018863678,2|0,1:2|1:0,2:0:0:0:
368,288,62038,2,0,L|380:183,1,98.9000018863678,10|0,2:0|2:0,0:0:0:0:
337,53,62379,1,2,1:2:0:0:
271,189,62549,1,0,1:0:0:0:
343,43,62720,2,0,P|394:35|443:58,1,98.9000018863678,10|0,2:0|1:0,2:0:0:0:
210,79,63061,6,0,B|95:104|95:104|89:157|40:168,1,197.800003772736,2|8,1:2|2:0,2:0:0:0:
86,30,63572,1,0,1:0:0:0:
195,174,63743,2,0,P|212:122|207:71,1,98.9000018863678,0|0,2:0|1:0,2:0:0:0:
50,164,64084,1,10,2:0:0:0:
161,267,64254,6,0,B|208:237|260:264|260:264|280:323|341:321,1,197.800003772736,2|0,2:0|1:0,2:0:0:0:
345,317,64680,1,2,2:0:0:0:
364,295,64765,1,10,2:0:0:0:
368,265,64851,1,2,2:0:0:0:
361,236,64936,1,2,1:2:0:0:
339,215,65021,1,2,2:0:0:0:
314,199,65106,6,0,L|261:193,3,49.4500009431839,10|2|2|2,2:0|2:0|1:2|2:0,2:0:0:0:
301,63,65447,2,0,L|354:57,2,49.4500009431839,10|2|2,2:0|2:0|2:0,2:0:0:0:
435,138,65788,6,0,B|425:244|425:244|401:255|399:292,1,148.350002829552,14|0,2:0|0:0,2:0:0:0:
392,322,66129,1,10,2:0:0:0:
489,288,66299,1,2,1:2:0:0:
304,353,66470,2,0,L|190:345,1,98.9000018863678,8|2,0:0|1:2,0:0:0:0:
57,238,66811,6,0,B|179:218|179:218|201:257|243:252,1,197.800003772736,10|0,2:0|1:0,2:0:0:0:
177,139,67322,1,0,1:0:0:0:
67,336,67493,2,0,L|56:233,1,98.9000018863678,10|0,2:0|1:0,2:0:0:0:
81,129,67748,1,0,0:0:0:0:
83,116,67834,2,0,L|181:105,1,98.9000018863678,2|0,1:2|1:0,2:0:0:0:
325,159,68174,2,0,P|381:175|430:149,1,98.9000018863678,0|8,2:0|2:0,0:0:0:0:
238,31,68515,6,0,P|197:119|240:203,1,197.800003772736,6|10,2:0|2:0,2:0:0:0:
342,278,69027,2,0,B|292:247|238:285|238:285|220:328|166:333,1,197.800003772736,2|2,1:2|1:2,0:0:0:0:
75,321,69538,2,0,L|293:329,1,197.800003772736,14|0,2:0|1:0,2:0:0:0:
427,242,70049,2,0,L|209:250,1,197.800003772736,8|10,2:0|2:0,0:0:0:0:
111,164,70561,5,10,2:0:0:0:
144,143,70646,1,8,2:0:0:0:
183,138,70731,1,8,2:0:0:0:
221,146,70816,1,8,2:0:0:0:
252,169,70902,1,8,2:0:0:0:
374,64,71072,2,0,P|343:62|313:73,1,49.4500009431839,8|8,2:0|2:0,0:0:0:0:
403,41,71243,6,0,B|342:28|307:55|307:55|279:107|216:109,1,197.800003772736,6|10,1:2|2:0,2:0:0:0:
64,20,71754,2,0,B|146:11|134:123|134:123|129:179,1,197.800003772736,2|0,1:2|1:0,2:0:0:0:
102,293,72265,2,0,P|56:314|7:303,1,98.9000018863678,14|0,2:0|1:0,2:0:0:0:
186,239,72606,2,0,L|295:248,1,98.9000018863678,2|8,2:0|2:0,2:0:0:0:
50,241,72947,5,2,1:2:0:0:
64,146,73118,1,0,2:0:0:0:
50,241,73288,1,10,2:0:0:0:
177,337,73459,1,0,2:0:0:0:
177,337,73544,1,0,0:0:0:0:
177,337,73629,2,0,L|186:227,1,98.9000018863678,2|0,1:2|1:0,0:0:0:0:
95,369,73970,5,14,2:0:0:0:
252,352,74140,1,0,2:0:0:0:
95,369,74311,1,0,1:0:0:0:
334,341,74481,6,0,P|371:280|318:163,1,197.800003772736,12|0,0:0|1:0,0:0:0:0:
145,205,74993,1,14,2:0:0:0:
220,92,75163,6,0,B|353:76|353:76|375:113|417:116,1,197.800003772736,0|0,1:0|2:0,2:0:0:0:
497,26,75674,2,0,L|484:133,1,98.9000018863678,8|0,2:0|2:0,2:0:0:0:
285,254,76015,2,0,L|272:147,1,98.9000018863678,8|0,2:0|2:0,2:0:0:0:
362,36,76356,1,8,2:0:0:0:
208,102,76527,2,0,P|177:99|157:84,1,49.4500009431839,0|0,2:0|0:0,0:0:0:0:
220,92,76697,5,4,1:2:0:0:
168,175,76868,2,0,L|162:266,2,86,2|10|2,2:0|2:0|2:0,2:0:0:0:
252,220,77379,1,0,1:0:0:0:
89,129,77549,2,0,L|86:40,1,86,2|8,1:2|2:0,2:0:0:0:
7,168,77890,6,0,B|115:147|115:147|135:173|173:175,1,172,6|2,1:2|1:2,2:0:0:0:
215,80,78402,2,0,L|206:257,1,172,10|0,2:0|1:0,2:0:0:0:
216,265,78828,1,2,0:0:0:0:
231,272,78913,1,2,1:2:0:0:
247,277,78998,1,2,0:0:0:0:
257,278,79084,6,0,L|263:329,3,43,10|2|2|2,0:0|0:0|0:0|0:0,0:0:0:0:
387,261,79424,6,0,B|400:157|400:157|404:114|351:90,1,172,6|2,2:0|1:2,2:0:0:0:
141,152,79936,2,0,B|251:138|251:138|272:165|313:169,1,172,10|0,2:0|1:0,2:0:0:0:
461,144,80447,2,0,L|454:195,3,43,14|8|8|8,2:0|2:0|2:0|2:0,2:0:0:0:
386,231,80788,6,0,P|380:206|388:179,1,43,10|0,2:0|0:0,0:0:0:0:
482,144,80959,2,0,L|487:237,1,86,10|0,2:0|2:0,0:0:0:0:
436,322,81299,1,0,1:0:0:0:
379,240,81470,1,10,2:0:0:0:
336,358,81640,1,10,2:0:0:0:
336,358,81726,1,0,0:0:0:0:
336,358,81811,5,6,2:0:0:0:
256,192,81896,12,0,87265,2:0:0:0:
