osu file format v14

[General]
AudioFilename: audio.mp3
AudioLeadIn: 0
PreviewTime: 59652
Countdown: 1
SampleSet: Soft
StackLeniency: 0.7
Mode: 0
LetterboxInBreaks: 0
WidescreenStoryboard: 1

[Editor]
DistanceSpacing: 0.5
BeatDivisor: 4
GridSize: 16
TimelineZoom: 1.2

[Metadata]
Title:DREAMING COLOR (Short Ver.)
TitleUnicode:DREAMING COLOR (Short Ver.)
Artist:Trial & Error
ArtistUnicode:Trial & Error
Creator:Lugu
Version:hard
Source:osu!
Tags:fa Featured Artist mappers' guild mpg mg tandess souichi sakagami takigyousou natsume umi and japanese pop jpop j-pop entry [-evil-] 夏目うみ 再う colour
BeatmapID:2385146
BeatmapSetID:1116584

[Difficulty]
HPDrainRate:4
CircleSize:3.8
OverallDifficulty:6
ApproachRate:7.5
SliderMultiplier:1.32
SliderTickRate:1

[Events]
//Background and Video events
0,0,"cheng-qi-huang-eQaECWYtFl8-unsplash.jpg",0,0
//Break Periods
//Storyboard Layer 0 (Background)
//Storyboard Layer 1 (Fail)
//Storyboard Layer 2 (Pass)
//Storyboard Layer 3 (Foreground)
//Storyboard Layer 4 (Overlay)
//Storyboard Sound Samples

[TimingPoints]
334,340.909090909091,4,2,1,80,1,0
334,-90.9090909090909,4,2,1,80,0,0
4595,-90.9090909090909,4,2,1,65,0,0
4935,-90.9090909090909,4,2,1,70,0,0
5277,-90.9090909090909,4,2,1,75,0,0
16697,-90.9090909090909,4,2,1,70,0,0
38515,-90.9090909090909,4,2,1,60,0,0
38856,-133.333333333333,4,2,1,60,0,0
48402,-90.9090909090909,4,2,1,60,0,0
48743,-90.9090909090909,4,2,1,65,0,0
49084,-90.9090909090909,4,2,1,70,0,0
60334,-90.9090909090909,4,2,1,70,0,1
60674,-90.9090909090909,4,2,1,80,0,1
81896,-90.9090909090909,4,2,1,80,0,0
87265,-90.9090909090909,4,2,1,5,0,0

[Colours]
Combo1 : 0,128,255
Combo2 : 77,158,184
Combo3 : 37,57,202
Combo4 : 255,128,0
Combo5 : 255,128,192
Combo6 : 0,255,255

[HitObjects]
311,166,334,6,0,B|388:134|388:207|463:164,2,145.2,10|10|0,2:0|2:0|1:0,2:0:0:0:
262,233,1186,1,10,2:0:0:0:
139,351,1527,6,0,L|144:191,1,145.200004431152,10|0,2:0|1:0,0:0:0:0:
76,153,2038,1,10,2:0:0:0:
80,73,2209,1,2,2:0:0:0:
138,14,2379,1,0,1:0:0:0:
138,14,2549,2,0,P|182:8|216:19,1,72.6,8|0,2:0|2:0,2:0:0:0:
320,92,2890,1,2,2:0:0:0:
320,92,2976,1,2,1:2:0:0:
320,92,3061,6,0,P|359:69|466:72,2,145.2,10|10|0,2:0|2:0|1:0,2:0:0:0:
249,155,3913,2,0,P|244:230|230:314,1,145.200004431152,10|10,2:0|0:0,2:0:0:0:
58,347,4595,5,0,2:0:0:0:
16,281,4765,2,0,L|29:204,1,72.6,0|0,1:0|2:0,0:0:0:0:
16,125,5106,1,0,1:0:0:0:
63,66,5277,1,0,1:0:0:0:
140,70,5447,2,0,L|130:28,3,36.3,8|8|8|8,2:0|2:0|2:0|2:0,0:0:0:0:
147,99,5788,6,0,B|225:61|214:129|288:102,1,145.2,6|10,1:2|2:0,2:0:0:0:
373,51,6299,1,0,1:0:0:0:
373,51,6470,2,0,P|384:87|373:141,1,72.6,0|2,2:0|1:2,2:0:0:0:
348,218,6811,1,12,2:0:0:0:
240,195,6981,6,0,P|191:180|112:241,1,145.2,2|0,2:0|1:0,2:0:0:0:
57,320,7493,2,0,P|64:355|85:384,1,72.6,8|0,2:0|1:0,2:0:0:0:
183,344,7834,2,0,P|190:308|212:279,1,72.6,2|0,2:0|1:0,0:0:0:0:
307,305,8174,2,0,P|348:318|400:308,1,72.6,8|0,2:0|1:0,2:0:0:0:
472,223,8515,6,0,P|452:170|365:158,1,145.2,2|8,2:0|2:0,2:0:0:0:
282,205,9027,1,0,1:0:0:0:
282,205,9197,2,0,P|289:166|279:128,1,72.6,0|0,2:0|1:0,2:0:0:0:
203,69,9538,1,8,2:0:0:0:
86,128,9709,6,0,P|128:131|155:235,1,145.2,2|0,1:2|1:0,2:0:0:0:
90,284,10220,2,0,P|47:278|8:290,1,72.6,8|0,2:0|2:0,2:0:0:0:
72,371,10561,2,0,P|115:377|154:365,1,72.6,2|0,2:0|1:0,2:0:0:0:
222,306,10902,1,8,2:0:0:0:
222,306,11072,1,0,2:0:0:0:
323,368,11243,6,0,L|340:218,1,145.2,6|8,1:2|2:0,2:0:0:0:
361,123,11754,1,0,2:0:0:0:
361,123,11924,2,0,P|316:119|275:131,1,72.6,0|0,2:0|1:0,2:0:0:0:
148,79,12265,1,14,2:0:0:0:
148,79,12436,6,0,P|185:39|278:65,1,145.2,0|0,1:0|1:0,2:0:0:0:
224,163,12947,2,0,P|197:199|160:227,1,72.6,8|0,2:0|1:0,2:0:0:0:
67,284,13288,2,0,P|108:301|154:307,1,72.6,2|0,2:0|1:0,2:0:0:0:
239,282,13629,1,8,2:0:0:0:
239,282,13799,1,2,2:0:0:0:
305,350,13970,6,0,P|340:329|440:367,1,145.2,2|8,2:0|2:0,2:0:0:0:
496,290,14481,1,0,1:0:0:0:
496,290,14652,2,0,P|495:244|481:217,1,72.6,0|0,2:0|1:0,0:0:0:0:
356,222,14993,1,14,2:0:0:0:
356,222,15163,6,0,P|308:223|245:143,1,145.2,2|8,1:2|2:0,2:0:0:0:
211,76,15674,1,0,2:0:0:0:
142,26,15845,2,0,L|94:30,2,36.3,8|0|8,2:0|2:0|2:0,0:0:0:0:
278,14,16186,1,0,1:0:0:0:
278,14,16356,2,0,L|359:22,1,72.6,0|0,1:0|1:0,0:0:0:0:
464,85,16697,6,0,P|422:87|368:173,1,145.2,6|10,1:2|2:0,2:0:0:0:
417,252,17209,1,0,1:0:0:0:
417,252,17379,2,0,P|458:266|494:264,1,72.6,2|0,2:0|1:0,2:0:0:0:
439,347,17720,2,0,P|402:347|369:360,1,72.6,10|0,2:0|1:0,0:0:0:0:
295,269,18061,6,0,P|250:250|160:312,1,145.2,2|8,2:0|2:0,2:0:0:0:
140,376,18572,1,0,2:0:0:0:
139,375,18743,2,0,P|109:357|73:351,1,72.6,2|0,2:0|1:0,0:0:0:0:
1,289,19084,2,0,P|36:283|67:264,1,72.6,8|0,2:0|0:0,2:0:0:0:
138,173,19424,6,0,B|221:137|203:214|284:181,1,145.2,2|10,1:2|2:0,2:0:0:0:
358,136,19936,1,0,1:0:0:0:
358,136,20106,2,0,P|338:92|310:74,1,72.6,2|0,2:0|1:0,2:0:0:0:
239,27,20447,2,0,P|212:51|200:84,1,72.6,10|0,2:0|1:0,0:0:0:0:
109,158,20788,6,0,P|166:150|231:221,1,145.2,0|8,2:0|2:0,2:0:0:0:
203,296,21299,1,0,1:0:0:0:
293,368,21470,6,0,P|318:329|322:286,1,72.6,0|0,2:0|1:0,2:0:0:0:
377,230,21811,2,0,P|402:269|406:312,1,72.6,8|0,2:0|1:0,2:0:0:0:
459,185,22152,6,0,P|435:137|337:132,1,145.2,6|10,1:2|2:0,2:0:0:0:
278,184,22663,1,0,2:0:0:0:
278,184,22834,2,0,P|235:170|212:143,1,72.6,2|0,2:0|1:0,2:0:0:0:
144,90,23174,2,0,P|117:114|82:123,1,72.6,10|0,2:0|1:0,0:0:0:0:
21,222,23515,6,0,P|62:198|134:274,1,145.2,2|10,2:0|2:0,2:0:0:0:
173,334,24027,1,0,1:0:0:0:
173,334,24197,2,0,P|211:342|259:326,1,72.6,2|0,2:0|1:0,2:0:0:0:
312,270,24538,2,0,P|350:262|398:278,1,72.6,10|0,2:0|2:0,2:0:0:0:
473,196,24879,6,0,P|439:171|331:185,1,145.2,2|8,1:2|2:0,2:0:0:0:
250,207,25390,1,0,2:0:0:0:
250,207,25561,2,0,L|260:130,1,72.6,0|0,2:0|1:0,2:0:0:0:
189,70,25902,2,0,L|179:147,1,72.6,10|0,2:0|0:0,2:0:0:0:
94,246,26243,6,0,L|79:165,1,72.6,2|0,2:0|2:0,2:0:0:0:
0,289,26584,2,0,L|15:370,1,72.6,10|0,2:0|2:0,2:0:0:0:
110,329,26924,5,2,2:0:0:0:
110,329,27095,1,8,2:0:0:0:
203,320,27265,1,0,1:0:0:0:
203,320,27436,1,0,1:0:0:0:
317,300,27606,6,0,B|400:275|373:343|459:312,1,145.2,6|10,1:2|2:0,2:0:0:0:
496,228,28118,1,0,2:0:0:0:
496,228,28288,2,0,L|411:223,1,72.6,2|0,2:0|1:0,0:0:0:0:
373,143,28629,2,0,L|458:138,1,72.6,10|0,2:0|1:0,2:0:0:0:
489,30,28970,6,0,P|442:19|342:58,1,145.2,2|8,2:0|2:0,2:0:0:0:
293,122,29481,1,0,1:0:0:0:
293,122,29652,2,0,P|253:141|209:134,1,72.6,2|0,2:0|1:0,2:0:0:0:
149,83,29993,2,0,L|154:6,1,72.6,8|0,2:0|0:0,2:0:0:0:
50,64,30334,6,0,L|35:231,1,145.2,2|10,1:2|2:0,2:0:0:0:
98,280,30845,1,0,2:0:0:0:
98,280,31015,2,0,P|132:263|173:268,1,72.6,2|0,2:0|1:0,2:0:0:0:
234,330,31356,2,0,L|322:334,1,72.6,10|0,2:0|1:0,0:0:0:0:
423,291,31697,6,0,P|420:249|320:218,1,145.2,0|8,2:0|2:0,2:0:0:0:
245,242,32209,1,0,1:0:0:0:
186,168,32379,6,0,L|179:82,1,72.6,0|0,2:0|1:0,2:0:0:0:
85,21,32720,2,0,L|78:107,1,72.6,8|0,2:0|1:0,2:0:0:0:
47,181,33061,6,0,L|33:331,1,145.2,6|10,1:2|2:0,2:0:0:0:
123,306,33572,1,0,2:0:0:0:
123,306,33743,2,0,P|135:271|129:232,1,72.6,2|0,2:0|1:0,2:0:0:0:
216,276,34084,2,0,P|204:311|210:350,1,72.6,10|0,2:0|1:0,0:0:0:0:
296,370,34424,6,0,P|363:331|430:350,1,145.2,2|10,2:0|2:0,2:0:0:0:
489,284,34936,1,0,2:0:0:0:
489,284,35106,2,0,L|471:198,1,72.6,0|0,2:0|1:0,2:0:0:0:
376,153,35447,2,0,L|394:239,1,72.6,10|0,2:0|0:0,0:0:0:0:
287,242,35788,6,0,L|300:84,1,145.2,2|8,1:2|2:0,2:0:0:0:
217,49,36299,1,0,1:0:0:0:
127,80,36470,6,0,L|115:224,1,145.2,2|8,2:0|2:0,0:0:0:0:
157,309,36981,1,0,1:0:0:0:
244,273,37152,6,0,B|326:241|312:309|388:279,1,145.2,2|8,1:2|2:0,2:0:0:0:
458,224,37663,1,0,1:0:0:0:
411,141,37834,6,0,B|340:169|354:101|272:133,1,145.2,2|0,1:2|1:0,2:0:0:0:
186,165,38345,1,0,1:0:0:0:
186,165,38515,5,2,1:2:0:0:
105,66,38856,2,0,P|36:44|-7:54,2,99.0000000000002,2|10|2,2:0|2:0|1:2,2:0:0:0:
186,165,39879,2,0,L|173:279,1,99.0000000000002,2|2,1:2|1:2,0:0:0:0:
290,310,40561,2,0,L|295:257,2,49.5000000000001,10|0|2,2:0|0:0|1:2,2:0:0:0:
441,318,41243,5,2,1:2:0:0:
441,318,41584,2,0,L|452:207,2,99.0000000000002,2|10|2,1:2|2:0|1:2,0:0:0:0:
290,310,42606,1,2,1:2:0:0:
290,310,42777,2,0,B|183:318,1,99.0000000000002,8|2,2:0|2:0,0:0:0:0:
162,222,43288,2,0,P|210:209|254:244,1,99.0000000000002,10|0,1:2|1:0,2:0:0:0:
126,144,43970,5,2,1:2:0:0:
126,144,44311,2,0,L|24:151,2,99.0000000000002,2|10|2,1:2|2:0|1:2,0:0:0:0:
281,131,45334,1,2,1:2:0:0:
281,131,45504,2,0,P|316:190|312:231,1,99.0000000000002,8|0,2:0|2:0,0:0:0:0:
282,296,46015,2,0,P|326:325|377:317,1,99.0000000000002,10|2,2:0|1:2,2:0:0:0:
457,187,46697,5,2,1:2:0:0:
457,187,47038,2,0,L|467:72,2,99.0000000000002,2|10|2,1:2|2:0|1:2,2:0:0:0:
306,123,48061,5,2,1:2:0:0:
306,123,48402,6,0,P|286:154|287:205,1,72.6,0|0,2:0|2:0,0:0:0:0:
220,260,48743,2,0,P|200:229|196:194,1,72.6,2|0,2:0|1:0,0:0:0:0:
134,122,49084,1,8,2:0:0:0:
134,122,49254,1,0,2:0:0:0:
38,187,49424,6,0,P|81:188|112:289,1,145.2,4|10,1:2|2:0,2:0:0:0:
165,363,49936,1,0,2:0:0:0:
165,363,50106,2,0,P|182:330|193:280,1,72.6,2|0,2:0|1:0,2:0:0:0:
250,212,50447,2,0,P|259:246|276:279,1,72.6,10|0,2:0|1:0,2:0:0:0:
391,342,50788,6,0,P|464:321|527:366,1,145.2,2|10,2:0|2:0,0:0:0:0:
511,253,51299,1,0,2:0:0:0:
511,253,51470,2,0,P|474:240|435:243,1,72.6,2|0,1:2|1:0,2:0:0:0:
365,173,51811,2,0,P|398:160|434:161,1,72.6,10|0,2:0|0:0,2:0:0:0:
494,74,52152,6,0,P|411:56|347:96,1,145.2,2|8,1:2|2:0,2:0:0:0:
284,119,52663,1,0,2:0:0:0:
187,58,52834,2,0,B|179:105|179:105|189:136|189:136|175:219,1,145.2,2|8,1:2|2:0,2:0:0:0:
167,287,53345,1,0,2:0:0:0:
260,249,53515,6,0,P|300:239|339:328,1,145.2,2|8,1:2|2:0,2:0:0:0:
262,365,54027,1,0,2:0:0:0:
174,310,54197,2,0,B|128:319|128:319|102:342|102:342|28:354,1,145.2,2|8,1:2|2:0,2:0:0:0:
65,253,54709,1,0,2:0:0:0:
143,185,54879,6,0,P|184:167|249:246,1,145.2,2|8,1:2|2:0,2:0:0:0:
315,310,55390,1,0,2:0:0:0:
315,310,55561,2,0,P|334:274|336:238,1,72.6,0|0,1:0|1:0,2:0:0:0:
406,157,55902,2,0,P|409:192|427:224,1,72.6,8|0,2:0|1:0,2:0:0:0:
491,294,56243,1,0,2:0:0:0:
491,294,56413,1,0,0:0:0:0:
393,349,56584,6,0,L|241:363,1,145.2,10|2,2:0|1:2,2:0:0:0:
165,325,57095,1,0,1:0:0:0:
165,325,57265,2,0,L|156:242,1,72.6,10|0,2:0|2:0,2:0:0:0:
68,218,57606,2,0,L|75:290,1,72.6,2|0,1:2|0:0,2:0:0:0:
152,134,57947,5,8,0:0:0:0:
152,134,58118,1,0,0:0:0:0:
225,61,58288,1,8,0:0:0:0:
225,61,58459,1,0,0:0:0:0:
315,117,58629,2,0,L|392:129,1,72.6,8|0,2:0|2:0,0:0:0:0:
383,222,58970,6,0,L|311:210,1,72.6,0|8,1:0|2:0,0:0:0:0:
189,299,59311,2,0,L|261:287,1,72.6,8|0,2:0|2:0,0:0:0:0:
226,203,59652,1,2,1:2:0:0:
144,213,59822,1,2,2:0:0:0:
98,309,59993,1,10,0:0:0:0:
98,309,60078,1,2,0:0:0:0:
98,309,60163,1,2,0:0:0:0:
8,196,60334,6,0,P|45:184|148:216,1,145.2,6|10,1:2|2:0,2:0:0:0:
185,107,60845,2,0,B|227:102|227:102|260:114|260:114|342:105,1,145.200004431152,2|0,2:0|1:0,2:0:0:0:
426,46,61356,2,0,P|407:85|408:132,1,72.6,14|0,2:0|0:0,2:0:0:0:
344,193,61697,2,0,P|348:228|365:260,1,72.6,2|0,1:2|1:0,2:0:0:0:
442,202,62038,1,10,2:0:0:0:
442,202,62209,1,0,2:0:0:0:
344,193,62379,2,0,L|259:182,1,72.6,2|0,1:2|1:0,0:0:0:0:
177,132,62720,2,0,L|105:141,1,72.6,10|0,2:0|1:0,2:0:0:0:
0,235,63061,6,0,B|81:208|76:281|152:247,1,145.2,2|8,1:2|2:0,2:0:0:0:
230,240,63572,1,0,1:0:0:0:
317,295,63743,2,0,P|336:259|337:218,1,72.6,0|0,2:0|1:0,2:0:0:0:
302,140,64084,1,10,2:0:0:0:
230,240,64254,6,0,P|188:234|141:245,1,72.6,2|0,2:0|0:0,2:0:0:0:
18,173,64595,1,0,1:0:0:0:
18,173,64680,1,0,2:0:0:0:
18,173,64765,2,0,L|24:224,3,36.3,8|0|0|0,2:0|2:0|1:0|2:0,0:0:0:0:
64,169,65106,2,0,L|70:220,3,36.3,8|0|0|0,2:0|2:0|1:0|2:0,0:0:0:0:
102,164,65447,2,0,L|108:215,2,36.3,8|0|0,2:0|2:0|2:0,2:0:0:0:
158,267,65788,6,0,P|198:285|284:223,1,145.2,14|10,2:0|2:0,2:0:0:0:
246,150,66299,2,0,L|88:165,1,145.2,2|2,1:2|1:2,0:0:0:0:
32,80,66811,2,0,L|190:65,1,145.2,10|0,2:0|1:0,2:0:0:0:
294,79,67322,1,0,1:0:0:0:
369,169,67493,6,0,P|382:126|378:92,1,72.6,10|0,2:0|1:0,2:0:0:0:
246,150,67834,2,0,P|244:186|256:220,1,72.6,2|0,1:2|1:0,2:0:0:0:
374,297,68174,1,0,2:0:0:0:
374,297,68345,1,8,2:0:0:0:
283,322,68515,6,0,B|207:304|215:374|142:344,1,145.2,6|10,2:0|2:0,2:0:0:0:
68,293,69027,1,2,1:2:0:0:
68,293,69197,2,0,P|53:257|60:215,1,72.6,0|2,0:0|1:2,0:0:0:0:
105,143,69538,6,0,B|187:176|172:113|253:148,1,145.2,14|0,2:0|1:0,2:0:0:0:
347,158,70049,1,8,2:0:0:0:
347,158,70220,2,0,L|358:84,1,72.6,0|10,0:0|2:0,0:0:0:0:
446,163,70561,2,0,L|438:216,4,36.3,10|8|8|8|8,2:0|2:0|2:0|2:0|2:0,0:0:0:0:
353,173,71072,1,8,2:0:0:0:
353,173,71157,1,8,2:0:0:0:
353,173,71243,6,0,L|332:324,1,145.2,6|10,1:2|2:0,2:0:0:0:
225,362,71754,2,0,L|245:218,1,145.2,2|0,1:2|1:0,2:0:0:0:
205,123,72265,2,0,P|167:110|125:120,1,72.6,14|0,2:0|1:0,2:0:0:0:
70,202,72606,2,0,P|34:206|0:193,1,72.6,2|8,2:0|2:0,2:0:0:0:
49,96,72947,1,2,1:2:0:0:
49,96,73118,1,0,2:0:0:0:
70,202,73288,2,0,L|57:282,1,72.6,10|0,2:0|2:0,0:0:0:0:
160,344,73629,2,0,L|173:264,1,72.6,2|0,1:2|1:0,0:0:0:0:
194,136,73970,6,0,L|268:142,2,72.6,14|0|0,2:0|2:0|1:0,0:0:0:0:
233,224,74481,2,0,L|307:230,2,72.6,12|0|0,2:0|2:0|1:0,0:0:0:0:
284,309,74993,1,14,2:0:0:0:
387,349,75163,2,0,P|374:302|419:217,1,145.2,0|0,1:0|2:0,2:0:0:0:
485,138,75674,2,0,P|443:141|409:125,1,72.6,8|0,2:0|2:0,2:0:0:0:
298,43,76015,6,0,L|287:120,1,72.6,8|0,2:0|2:0,2:0:0:0:
186,156,76356,2,0,L|196:84,1,72.6,8|0,2:0|2:0,0:0:0:0:
112,37,76697,5,4,1:2:0:0:
112,37,76868,2,0,L|100:121,2,72.6,2|10|2,2:0|2:0|2:0,2:0:0:0:
11,56,77379,1,0,1:0:0:0:
11,56,77549,2,0,L|0:130,1,72.6,2|8,1:2|2:0,2:0:0:0:
22,236,77890,6,0,P|59:206|109:274,1,145.2,6|2,1:2|1:2,2:0:0:0:
189,340,78402,2,0,P|214:292|206:197,1,145.2,10|0,2:0|1:0,2:0:0:0:
181,117,78913,1,0,1:0:0:0:
281,107,79084,2,0,L|355:113,1,72.6,8|0,2:0|2:0,0:0:0:0:
467,186,79424,6,0,P|412:179|336:249,1,145.2,6|2,2:0|1:2,2:0:0:0:
293,310,79936,2,0,B|220:342|234:274|144:316,1,145.2,10|0,2:0|1:0,2:0:0:0:
51,264,80447,2,0,L|54:217,4,36.3,14|8|8|8|10,2:0|2:0|2:0|2:0|2:0,2:0:0:0:
153,311,80959,1,10,2:0:0:0:
209,224,81129,2,0,L|135:223,1,72.6,0|0,2:0|1:0,0:0:0:0:
256,123,81470,5,10,2:0:0:0:
256,123,81640,1,10,2:0:0:0:
256,36,81811,1,6,2:0:0:0:
256,192,81896,12,0,87265,2:0:0:0:
