osu file format v14

[General]
AudioFilename: audio.mp3
AudioLeadIn: 0
PreviewTime: 58784
Countdown: 0
SampleSet: Soft
StackLeniency: 0.7
Mode: 0
LetterboxInBreaks: 0
WidescreenStoryboard: 0

[Editor]
Bookmarks: 940,42319,50595,88353
DistanceSpacing: 1.2
BeatDivisor: 4
GridSize: 4
TimelineZoom: 1

[Metadata]
Title:DAI*TAN SENSATION feat. Nanahira, Mii, Aitsuki Nakuru (Short Ver.)
TitleUnicode:DAI☆TAN センセーション feat. ななひら, Mii, 藍月なくる (Short Ver.)
Artist:Trial & Error
ArtistUnicode:Trial & Error
Creator:Gero
Version:Easy
Source:osu!
Tags:FA Featured Artist Souichi Sakagami Mappers Mappers' Guild MPG Vocaloid Cover LowComboFC lcfc osuplayer111 Andrea Shini -Sh1n1-
BeatmapID:1773539
BeatmapSetID:848090

[Difficulty]
HPDrainRate:2
CircleSize:3.5
OverallDifficulty:2
ApproachRate:3
SliderMultiplier:0.8
SliderTickRate:1

[Events]
//Background and Video events
0,0,"BG.jpg",0,0
//Break Periods
2,42519,49155
//Storyboard Layer 0 (Background)
//Storyboard Layer 1 (Fail)
//Storyboard Layer 2 (Pass)
//Storyboard Layer 3 (Foreground)
//Storyboard Sound Samples

[TimingPoints]
940,344.827586206897,4,2,1,50,1,0
11974,-100,4,2,1,60,0,0
17491,-100,4,2,1,40,0,0
17836,-100,4,2,1,30,0,0
19043,-100,4,2,1,50,0,0
20250,-100,4,2,1,55,0,0
42319,-100,4,2,1,45,0,0
51974,-100,4,2,1,40,0,0
52664,-100,4,2,1,50,0,0
53181,-100,4,2,1,60,0,0
58871,-100,4,2,1,70,0,1
69819,-100,4,2,1,70,0,0
69905,-100,4,2,1,70,0,1
80940,-100,4,2,1,60,0,0
86457,-100,4,2,1,40,0,0
86802,-100,4,2,1,30,0,0
88008,-100,4,2,1,50,0,0
88526,-100,4,2,1,50,0,0

[Colours]
Combo1 : 147,147,147
Combo2 : 248,74,50
Combo3 : 210,43,193
Combo4 : 184,158,80
Combo5 : 71,105,224
Combo6 : 235,225,46

[HitObjects]
64,26,940,5,8,3:2:0:0:
256,358,2319,1,8,3:2:0:0:
448,26,3698,5,8,0:0:0:0:
256,25,4388,1,8,0:0:0:0:
64,26,5077,1,8,0:0:0:0:
160,192,5767,1,8,0:0:0:0:
352,192,6457,6,0,P|382:264|352:336,1,160,6|6,0:0|0:0,0:0:0:0:
256,335,7491,1,10,0:0:0:0:
160,336,7836,2,0,B|104:358|104:358|48:336,2,120,2|6|0,0:0|0:0|3:0,0:0:0:0:
104,260,9215,5,4,0:0:0:0:
256,144,9905,1,2,0:0:0:0:
408,260,10595,1,12,0:0:0:0:
256,376,11284,1,8,0:0:0:0:
104,260,11974,6,0,B|62:192|62:192|104:124,1,160,14|10,0:0|0:0,0:0:0:0:
256,8,13353,1,8,0:0:0:0:
256,8,14043,1,10,0:0:0:0:
408,124,14733,6,0,B|450:192|450:192|408:260,1,160,10|10,0:0|0:0,0:0:0:0:
256,376,16112,1,8,0:0:0:0:
256,376,16802,1,10,0:0:0:0:
104,260,17491,6,0,B|256:210|256:210|408:260,1,320,2|8,0:0|0:0,0:0:0:0:
447,231,19043,2,0,B|455:192|455:192|447:153,1,80,4|4,0:0|0:0,0:0:0:0:
256,8,20250,6,0,B|209:8|209:8|201:4|201:4|201:12|201:12|193:8|193:8|146:8,2,120,6|2|8,0:0|0:0|0:0,0:0:0:0:
332,64,21629,2,0,P|342:102|332:140,1,80,2|8,0:0|0:0,0:0:0:0:
256,196,22319,2,0,P|246:234|256:272,1,80,2|8,0:0|0:0,0:0:0:0:
332,328,23008,6,0,B|256:352|256:352|180:328,1,160,2|2,0:0|0:0,0:0:0:0:
104,272,24043,1,8,0:0:0:0:
28,216,24388,2,0,P|9:160|28:104,2,120,6|6|12,0:0|0:0|0:0,0:0:0:0:
104,272,25767,6,0,P|85:216|104:160,2,120,6|2|8,0:0|0:0|0:0,0:0:0:0:
180,328,27146,2,0,P|161:272|180:216,2,120,2|2|8,0:0|0:0|0:0,0:0:0:0:
256,272,28526,6,0,L|416:272,1,160,2|2,0:0|0:0,0:0:0:0:
468,192,29560,1,8,0:0:0:0:
416,112,29905,2,0,B|452:75|452:75|454:67|454:67|457:58|457:58|493:22,2,120,2|2|12,0:0|0:0|0:0,0:0:0:0:
364,32,31284,6,0,B|328:69|328:69|326:77|326:77|323:86|323:86|287:122,2,120,6|2|8,0:0|0:0|0:0,0:0:0:0:
416,112,32664,2,0,B|425:151|425:151|416:190,1,80,2|8,0:0|0:0,0:0:0:0:
364,270,33353,2,0,B|355:309|355:309|364:348,1,80,2|8,0:0|0:0,0:0:0:0:
452,309,34043,6,0,L|292:309,1,160,2|2,0:0|0:0,0:0:0:0:
203,270,35077,1,8,0:0:0:0:
114,309,35422,2,0,B|99:282|70:270|70:270|99:258|114:231,2,120,6|6|2,0:0|0:0|0:0,0:0:0:0:
203,270,36802,6,0,B|188:243|159:231|159:231|188:219|203:192,2,120,6|2|8,0:0|0:0|0:0,0:0:0:0:
292,231,38181,2,0,B|277:204|248:192|248:192|277:180|292:153,2,120,2|2|8,0:0|0:0|0:0,0:0:0:0:
381,192,39560,6,0,B|366:165|337:153|337:153|366:141|381:114,2,120,2|2|8,0:0|0:0|0:0,0:0:0:0:
470,153,40940,2,0,B|380:153|380:153|372:157|372:157|372:149|372:149|364:153|364:153|276:153|276:153|268:149|268:149|268:157|268:157|260:153|260:153|170:153,1,320,2|2,0:0|0:0,0:0:0:0:
169,153,50595,6,0,B|148:104|176:60|228:56|256:84|256:84|284:56|336:60|364:104|342:153,1,320,2|8,0:0|0:0,0:0:0:0:
256,192,52319,1,0,3:0:0:0:
169,231,52664,6,0,B|153:261|165:285|169:289|173:293|185:317|169:347,2,120,12|6|8,0:0|0:0|0:0,0:0:0:0:
256,192,54043,2,0,B|256:145|256:145|260:137|260:137|252:137|252:137|256:129|256:129|256:82,2,120,2|6|8,0:0|0:0|0:0,0:0:0:0:
343,231,55422,2,0,B|359:261|347:285|343:289|339:293|327:317|343:347,2,120,2|6|8,0:0|0:0|0:0,0:0:0:0:
430,192,56802,5,8,0:0:0:0:
343,153,57146,1,8,0:0:0:0:
430,114,57491,2,0,B|458:106|466:70|466:70|458:34|430:26,2,120,4|4|8,0:0|0:0|0:0,0:0:0:0:
343,153,58871,6,0,B|300:176|300:236|300:236|300:297,1,160,12|8,0:0|0:0,0:0:0:0:
256,384,59905,1,8,0:0:0:0:
212,297,60250,2,0,B|212:236|212:236|212:176|169:153,1,160,10|8,0:0|0:0,0:0:0:0:
82,114,61284,1,8,0:0:0:0:
169,75,61629,6,0,L|112:18,2,80,10|8|8,0:0|0:0|0:0,0:0:0:0:
256,114,62664,1,8,0:0:0:0:
343,75,63008,2,0,L|399:18,2,80,10|8|8,0:0|0:0|3:2,0:0:0:0:
430,114,64043,1,8,3:2:0:0:
343,153,64388,6,0,B|311:205|343:257|343:257|343:306,1,160,6|6,3:2|3:2,0:0:0:0:
256,348,65422,1,8,0:0:0:0:
169,306,65767,2,0,B|169:257|169:257|201:205|169:153,1,160,4|2,3:2|0:0,0:0:0:0:
82,114,66802,1,8,0:0:0:0:
169,75,67146,6,0,B|216:80|252:44|256:10|256:10|260:44|296:80|343:75,1,240,8|8,0:0|0:0,0:0:0:0:
430,114,68526,2,0,B|475:75|475:75|430:36,2,120,8|4|8,0:0|3:2|0:0,0:0:0:0:
343,153,69905,6,0,L|484:228,1,160,12|8,0:0|0:0,0:0:0:0:
484,324,70940,1,8,0:0:0:0:
400,276,71284,2,0,B|392:316|352:336|352:336|312:316|304:276,1,160,10|8,0:0|0:0,0:0:0:0:
256,360,72319,1,8,0:0:0:0:
208,276,72664,6,0,B|161:276|161:276|153:280|153:280|153:272|153:272|145:276|145:276|98:276,2,120,10|0|8,0:0|3:0|0:0,0:0:0:0:
256,192,74043,2,0,B|303:192|303:192|311:196|311:196|311:188|311:188|319:192|319:192|366:192,2,120,10|0|0,0:0|3:0|3:0,0:0:0:0:
160,192,75422,6,0,P|130:120|160:48,1,160,6|6,0:0|0:0,0:0:0:0:
256,49,76457,1,10,0:0:0:0:
352,48,76802,2,0,B|408:26|408:26|464:48,2,120,2|6|0,0:0|0:0|3:0,0:0:0:0:
408,124,78181,5,4,0:0:0:0:
256,240,78871,1,2,0:0:0:0:
104,124,79560,1,12,0:0:0:0:
256,8,80250,1,8,0:0:0:0:
408,124,80940,6,0,B|450:192|450:192|408:260,1,160,14|10,0:0|0:0,0:0:0:0:
256,376,82319,1,8,0:0:0:0:
256,376,83008,1,10,0:0:0:0:
104,260,83698,6,0,B|62:192|62:192|104:124,1,160,10|10,0:0|0:0,0:0:0:0:
256,8,85077,1,8,0:0:0:0:
256,8,85767,1,10,0:0:0:0:
408,124,86457,6,0,B|256:174|256:174|104:124,1,320,2|8,0:0|0:0,0:0:0:0:
65,153,88008,2,0,B|57:192|57:192|65:231,1,80,4|4,0:0|0:0,0:0:0:0:
