osu file format v14

[General]
AudioFilename: audio.mp3
AudioLeadIn: 0
PreviewTime: 49224
Countdown: 0
SampleSet: Drum
StackLeniency: 0.7
Mode: 3
LetterboxInBreaks: 0
SpecialStyle: 0
WidescreenStoryboard: 1

[Editor]
Bookmarks: 12840,24269,35697,49983,61411,72840
DistanceSpacing: 1
BeatDivisor: 4
GridSize: 32
TimelineZoom: 1.5

[Metadata]
Title:Ashita e tobutameni (TV Size)
TitleUnicode:未来へ翔ぶために (TV Size)
Artist:Trial & Error
ArtistUnicode:Trial & Error
Creator:Muse Dash
Version:Ran's Insane
Source:
Tags:Seiran- royalty free Japanese fantasy anime game opening rock j-rock jrock featured artist fa mappers' guild mg mpg 天乙准花 Junca Amaoto takigyousou 阪神総一 Souichi Sakagami 小野瀬旭 Akira Onose
BeatmapID:4463651
BeatmapSetID:2122738

[Difficulty]
HPDrainRate:9
CircleSize:4
OverallDifficulty:8
ApproachRate:5
SliderMultiplier:1.4
SliderTickRate:1

[Events]
//Background and Video events
0,0,"bg.jpg",0,0
//Break Periods
//Storyboard Layer 0 (Background)
//Storyboard Layer 1 (Fail)
//Storyboard Layer 2 (Pass)
//Storyboard Layer 3 (Foreground)
//Storyboard Layer 4 (Overlay)
//Storyboard Sound Samples

[TimingPoints]
1412,357.142857142857,4,3,1,60,1,0
49983,357.142857142857,4,3,1,60,1,1
72840,-100,4,3,1,60,0,0

[HitObjects]
64,192,697,5,8,0:0:0:0:
192,192,697,1,0,0:0:0:0:
320,192,787,1,8,0:0:0:0:
448,192,787,1,0,0:0:0:0:
64,192,876,1,2,0:0:0:0:
192,192,965,1,2,0:0:0:0:
320,192,1054,1,8,0:0:0:0:
448,192,1054,1,0,0:0:0:0:
192,192,1144,1,8,0:0:0:0:
64,192,1233,1,8,0:0:0:0:
448,192,1233,1,0,0:0:0:0:
320,192,1322,1,8,0:0:0:0:
64,192,1412,1,2,0:0:0:0:
192,192,1412,128,4,1769:0:0:0:0:
448,192,1412,128,0,1679:0:0:0:0:
64,192,1590,128,0,1769:0:0:0:0:
320,192,1769,128,8,1858:0:0:0:0:
448,192,1769,128,0,1947:0:0:0:0:
64,192,1947,128,2,2036:0:0:0:0:
320,192,1947,128,0,2126:0:0:0:0:
64,192,2126,1,0,0:0:0:0:
320,192,2215,1,2,0:0:0:0:
64,192,2304,128,2,2572:0:0:0:0:
192,192,2304,128,0,2394:0:0:0:0:
192,192,2483,1,8,0:0:0:0:
448,192,2483,128,0,2661:0:0:0:0:
64,192,2661,1,0,0:0:0:0:
448,192,2751,1,0,0:0:0:0:
64,192,2840,128,2,3197:0:0:0:0:
320,192,2840,128,0,3019:0:0:0:0:
192,192,3019,128,0,3197:0:0:0:0:
320,192,3197,128,8,3286:0:0:0:0:
448,192,3197,128,0,3376:0:0:0:0:
64,192,3376,128,2,3465:0:0:0:0:
320,192,3376,128,0,3733:0:0:0:0:
64,192,3554,128,0,3733:0:0:0:0:
192,192,3733,128,2,3911:0:0:0:0:
448,192,3733,1,0,0:0:0:0:
64,192,3911,1,8,0:0:0:0:
320,192,3911,128,0,4090:0:0:0:0:
448,192,4090,1,0,0:0:0:0:
320,192,4179,1,0,0:0:0:0:
64,192,4269,1,2,0:0:0:0:
192,192,4269,128,0,4626:0:0:0:0:
448,192,4269,128,0,4536:0:0:0:0:
64,192,4447,128,0,4626:0:0:0:0:
320,192,4626,128,8,4715:0:0:0:0:
448,192,4626,128,0,4804:0:0:0:0:
64,192,4804,128,2,4894:0:0:0:0:
320,192,4804,128,0,5072:0:0:0:0:
64,192,4983,1,0,0:0:0:0:
192,192,5072,1,2,0:0:0:0:
64,192,5161,128,2,5340:0:0:0:0:
320,192,5161,128,0,5251:0:0:0:0:
192,192,5340,128,8,5429:0:0:0:0:
448,192,5340,128,0,5608:0:0:0:0:
192,192,5519,128,0,5697:0:0:0:0:
320,192,5608,1,0,0:0:0:0:
64,192,5697,128,2,5876:0:0:0:0:
448,192,5697,128,0,6054:0:0:0:0:
320,192,5876,128,0,6054:0:0:0:0:
64,192,6054,128,8,6233:0:0:0:0:
192,192,6054,128,0,6144:0:0:0:0:
192,192,6233,128,0,6501:0:0:0:0:
320,192,6411,1,2,0:0:0:0:
448,192,6411,128,0,6501:0:0:0:0:
64,192,6501,1,2,0:0:0:0:
192,192,6590,1,2,0:0:0:0:
448,192,6590,128,0,6947:0:0:0:0:
192,192,6769,1,8,0:0:0:0:
320,192,6769,1,0,0:0:0:0:
64,192,6947,128,0,7126:0:0:0:0:
192,192,7036,1,0,0:0:0:0:
320,192,7126,128,2,7394:0:0:0:0:
448,192,7126,128,0,7483:0:0:0:0:
64,192,7483,128,8,7572:0:0:0:0:
320,192,7483,1,0,0:0:0:0:
64,192,7661,128,2,7929:0:0:0:0:
448,192,7661,128,0,7929:0:0:0:0:
192,192,7840,1,0,0:0:0:0:
320,192,7929,1,2,0:0:0:0:
64,192,8019,128,2,8197:0:0:0:0:
192,192,8019,128,0,8376:0:0:0:0:
320,192,8197,1,8,0:0:0:0:
448,192,8197,1,0,0:0:0:0:
320,192,8376,128,0,8465:0:0:0:0:
448,192,8376,128,0,8554:0:0:0:0:
192,192,8465,1,0,0:0:0:0:
64,192,8554,128,2,8644:0:0:0:0:
320,192,8554,128,0,8911:0:0:0:0:
64,192,8733,128,0,8911:0:0:0:0:
192,192,8911,128,8,9001:0:0:0:0:
448,192,8911,128,0,9090:0:0:0:0:
192,192,9090,128,2,9269:0:0:0:0:
320,192,9090,1,0,0:0:0:0:
64,192,9179,1,2,0:0:0:0:
448,192,9269,128,0,9447:0:0:0:0:
192,192,9358,1,2,0:0:0:0:
64,192,9447,128,2,9804:0:0:0:0:
320,192,9447,128,0,9626:0:0:0:0:
192,192,9626,128,8,9804:0:0:0:0:
448,192,9626,1,0,0:0:0:0:
320,192,9804,1,0,0:0:0:0:
448,192,9894,1,0,0:0:0:0:
64,192,9983,128,2,10429:0:0:0:0:
192,192,9983,128,0,10251:0:0:0:0:
192,192,10340,128,8,10429:0:0:0:0:
448,192,10340,128,0,10429:0:0:0:0:
192,192,10519,1,2,0:0:0:0:
320,192,10519,128,4,10608:0:0:0:0:
448,192,10519,128,0,10608:0:0:0:0:
320,192,10697,1,0,0:0:0:0:
192,192,10876,128,8,10965:0:0:0:0:
320,192,10876,128,0,10965:0:0:0:0:
448,192,10876,1,0,0:0:0:0:
64,192,11054,128,8,11144:0:0:0:0:
192,192,11054,1,4,0:0:0:0:
320,192,11054,1,0,0:0:0:0:
64,192,11233,128,4,11590:0:0:0:0:
192,192,11233,128,2,11501:0:0:0:0:
320,192,11233,128,0,11411:0:0:0:0:
448,192,11411,1,0,0:0:0:0:
320,192,11590,1,8,0:0:0:0:
448,192,11590,1,0,0:0:0:0:
192,192,11679,1,8,0:0:0:0:
64,192,11769,1,8,0:0:0:0:
448,192,11769,1,0,0:0:0:0:
320,192,11858,1,2,0:0:0:0:
64,192,11947,1,2,0:0:0:0:
192,192,12036,1,2,0:0:0:0:
64,192,12126,128,8,12215:0:0:0:0:
320,192,12126,128,4,12394:0:0:0:0:
448,192,12126,128,0,12304:0:0:0:0:
64,192,12304,128,8,12483:0:0:0:0:
192,192,12304,128,4,12483:0:0:0:0:
64,192,12840,128,2,13108:0:0:0:0:
320,192,12840,128,4,13197:0:0:0:0:
448,192,13019,128,0,13197:0:0:0:0:
64,192,13197,1,8,0:0:0:0:
320,192,13376,1,0,0:0:0:0:
192,192,13554,1,0,0:0:0:0:
64,192,13733,128,2,14179:0:0:0:0:
192,192,13911,128,8,14001:0:0:0:0:
192,192,14090,128,0,14358:0:0:0:0:
320,192,14179,1,0,0:0:0:0:
64,192,14269,128,2,14536:0:0:0:0:
448,192,14269,128,0,14626:0:0:0:0:
320,192,14447,128,0,14626:0:0:0:0:
64,192,14626,1,8,0:0:0:0:
320,192,14804,1,0,0:0:0:0:
192,192,14983,1,0,0:0:0:0:
64,192,15161,128,2,15608:0:0:0:0:
192,192,15340,128,8,15429:0:0:0:0:
192,192,15519,128,0,15786:0:0:0:0:
320,192,15608,1,0,0:0:0:0:
64,192,15697,128,2,15965:0:0:0:0:
448,192,15697,128,0,16054:0:0:0:0:
320,192,15876,128,0,16054:0:0:0:0:
64,192,16054,1,8,0:0:0:0:
320,192,16233,1,0,0:0:0:0:
192,192,16411,1,0,0:0:0:0:
64,192,16590,128,2,17036:0:0:0:0:
192,192,16769,128,8,16858:0:0:0:0:
192,192,16947,128,0,17215:0:0:0:0:
448,192,17036,1,0,0:0:0:0:
64,192,17126,128,2,17394:0:0:0:0:
320,192,17126,128,0,17483:0:0:0:0:
448,192,17304,128,0,17483:0:0:0:0:
64,192,17483,1,8,0:0:0:0:
320,192,17661,1,0,0:0:0:0:
64,192,17840,128,2,18108:0:0:0:0:
448,192,17840,128,0,18197:0:0:0:0:
320,192,18019,128,0,18197:0:0:0:0:
64,192,18197,1,8,0:0:0:0:
192,192,18376,1,0,0:0:0:0:
320,192,18465,1,0,0:0:0:0:
192,192,18554,128,2,18911:0:0:0:0:
448,192,18554,128,0,18822:0:0:0:0:
64,192,18733,128,0,18911:0:0:0:0:
448,192,18911,1,8,0:0:0:0:
192,192,19090,1,0,0:0:0:0:
320,192,19269,1,0,0:0:0:0:
448,192,19447,128,2,19894:0:0:0:0:
320,192,19626,128,8,19715:0:0:0:0:
320,192,19804,128,0,20072:0:0:0:0:
192,192,19894,1,0,0:0:0:0:
64,192,19983,128,2,20340:0:0:0:0:
448,192,19983,128,0,20251:0:0:0:0:
192,192,20161,128,0,20340:0:0:0:0:
448,192,20340,1,8,0:0:0:0:
192,192,20519,1,0,0:0:0:0:
320,192,20697,1,0,0:0:0:0:
448,192,20876,128,2,21322:0:0:0:0:
320,192,21054,128,8,21144:0:0:0:0:
320,192,21233,128,0,21501:0:0:0:0:
192,192,21322,1,0,0:0:0:0:
64,192,21411,128,2,21769:0:0:0:0:
448,192,21411,128,0,21679:0:0:0:0:
192,192,21590,128,0,21769:0:0:0:0:
448,192,21769,1,8,0:0:0:0:
192,192,21947,128,2,22215:0:0:0:0:
320,192,21947,1,0,0:0:0:0:
448,192,22126,128,0,22394:0:0:0:0:
64,192,22304,128,8,22572:0:0:0:0:
192,192,22304,1,0,0:0:0:0:
320,192,22483,128,8,22751:0:0:0:0:
448,192,22483,1,0,0:0:0:0:
64,192,22661,1,8,0:0:0:0:
192,192,22661,128,0,22840:0:0:0:0:
64,192,22840,128,2,22929:0:0:0:0:
320,192,22840,128,4,23108:0:0:0:0:
448,192,22840,128,0,23019:0:0:0:0:
64,192,23019,128,2,23197:0:0:0:0:
192,192,23019,128,4,23197:0:0:0:0:
64,192,23376,128,8,23822:0:0:0:0:
320,192,23376,128,4,23554:0:0:0:0:
448,192,23376,128,0,23554:0:0:0:0:
192,192,23733,1,8,0:0:0:0:
320,192,23733,128,0,24001:0:0:0:0:
448,192,23822,128,8,24090:0:0:0:0:
64,192,23911,1,0,0:0:0:0:
192,192,24001,128,8,24179:0:0:0:0:
320,192,24090,128,2,24269:0:0:0:0:
64,192,24269,128,2,24626:0:0:0:0:
192,192,24269,1,4,0:0:0:0:
448,192,24269,128,0,24536:0:0:0:0:
320,192,24626,128,8,24804:0:0:0:0:
448,192,24626,1,0,0:0:0:0:
192,192,24804,128,0,25340:0:0:0:0:
448,192,24983,1,0,0:0:0:0:
64,192,25161,128,2,25340:0:0:0:0:
320,192,25161,1,0,0:0:0:0:
320,192,25340,1,8,0:0:0:0:
448,192,25340,128,0,25519:0:0:0:0:
192,192,25519,128,0,25697:0:0:0:0:
448,192,25608,1,0,0:0:0:0:
64,192,25697,128,2,25965:0:0:0:0:
320,192,25697,128,0,26411:0:0:0:0:
448,192,25876,1,0,0:0:0:0:
64,192,26054,1,8,0:0:0:0:
192,192,26054,1,0,0:0:0:0:
448,192,26233,128,0,26590:0:0:0:0:
192,192,26411,128,0,26590:0:0:0:0:
64,192,26590,1,2,0:0:0:0:
320,192,26590,1,0,0:0:0:0:
64,192,26769,1,8,0:0:0:0:
192,192,26769,1,0,0:0:0:0:
448,192,26769,1,0,0:0:0:0:
320,192,26947,128,0,27126:0:0:0:0:
192,192,27036,1,0,0:0:0:0:
64,192,27126,128,2,27394:0:0:0:0:
448,192,27126,128,0,27483:0:0:0:0:
64,192,27483,1,8,0:0:0:0:
192,192,27483,128,0,27661:0:0:0:0:
320,192,27661,128,0,28197:0:0:0:0:
64,192,27840,1,0,0:0:0:0:
64,192,28019,128,2,28197:0:0:0:0:
448,192,28019,1,0,0:0:0:0:
192,192,28197,128,8,28554:0:0:0:0:
448,192,28197,1,0,0:0:0:0:
320,192,28376,1,0,0:0:0:0:
64,192,28465,1,0,0:0:0:0:
320,192,28554,128,2,29269:0:0:0:0:
448,192,28554,128,0,28822:0:0:0:0:
192,192,28733,1,0,0:0:0:0:
64,192,28911,1,8,0:0:0:0:
448,192,28911,1,0,0:0:0:0:
64,192,29090,128,0,29269:0:0:0:0:
192,192,29269,128,0,29626:0:0:0:0:
64,192,29447,1,2,0:0:0:0:
448,192,29447,1,0,0:0:0:0:
64,192,29626,1,8,0:0:0:0:
320,192,29626,1,0,0:0:0:0:
448,192,29626,1,0,0:0:0:0:
192,192,29804,1,0,0:0:0:0:
320,192,29894,1,0,0:0:0:0:
64,192,29983,128,2,30340:0:0:0:0:
448,192,29983,128,0,30251:0:0:0:0:
320,192,30161,1,0,0:0:0:0:
192,192,30340,128,8,30697:0:0:0:0:
448,192,30340,128,0,30697:0:0:0:0:
320,192,30697,128,0,31233:0:0:0:0:
64,192,30876,1,2,0:0:0:0:
192,192,30876,1,0,0:0:0:0:
64,192,31054,128,8,31411:0:0:0:0:
448,192,31054,1,0,0:0:0:0:
192,192,31233,128,0,31411:0:0:0:0:
320,192,31411,128,2,32126:0:0:0:0:
448,192,31411,128,0,31679:0:0:0:0:
64,192,31590,1,0,0:0:0:0:
64,192,31769,1,8,0:0:0:0:
448,192,31769,1,0,0:0:0:0:
192,192,31947,128,0,32126:0:0:0:0:
64,192,32126,128,0,32215:0:0:0:0:
448,192,32126,128,0,32572:0:0:0:0:
64,192,32304,1,2,0:0:0:0:
192,192,32304,128,0,32394:0:0:0:0:
192,192,32483,1,8,0:0:0:0:
320,192,32483,128,0,32572:0:0:0:0:
64,192,32572,128,0,32661:0:0:0:0:
448,192,32661,128,0,32751:0:0:0:0:
192,192,32751,128,0,32840:0:0:0:0:
64,192,32840,128,2,33286:0:0:0:0:
320,192,32840,128,0,33108:0:0:0:0:
320,192,33197,128,8,33286:0:0:0:0:
448,192,33197,128,4,33286:0:0:0:0:
64,192,33376,128,8,33644:0:0:0:0:
192,192,33376,128,4,33644:0:0:0:0:
448,192,33376,128,0,33644:0:0:0:0:
64,192,33733,128,8,33822:0:0:0:0:
320,192,33733,128,0,33822:0:0:0:0:
448,192,33733,128,0,34001:0:0:0:0:
64,192,33911,1,8,0:0:0:0:
192,192,33911,1,0,0:0:0:0:
192,192,34090,128,2,34179:0:0:0:0:
448,192,34090,1,0,0:0:0:0:
64,192,34179,1,2,0:0:0:0:
192,192,34269,128,2,34447:0:0:0:0:
320,192,34269,128,0,34358:0:0:0:0:
320,192,34447,128,8,34626:0:0:0:0:
448,192,34447,128,4,34536:0:0:0:0:
64,192,34626,128,8,34894:0:0:0:0:
192,192,34626,128,4,34715:0:0:0:0:
320,192,34804,128,8,34894:0:0:0:0:
448,192,34804,128,4,34894:0:0:0:0:
64,192,34983,128,8,35072:0:0:0:0:
320,192,34983,128,4,35161:0:0:0:0:
64,192,35161,1,8,0:0:0:0:
192,192,35161,1,0,0:0:0:0:
320,192,35251,1,2,0:0:0:0:
64,192,35340,1,8,0:0:0:0:
448,192,35340,1,0,0:0:0:0:
192,192,35429,1,8,0:0:0:0:
320,192,35519,1,2,0:0:0:0:
448,192,35519,1,0,0:0:0:0:
192,192,35608,1,2,0:0:0:0:
64,192,35697,128,2,35876:0:0:0:0:
320,192,35697,128,4,35876:0:0:0:0:
448,192,35697,128,0,35876:0:0:0:0:
192,192,36054,1,2,0:0:0:0:
320,192,36054,128,4,36411:0:0:0:0:
64,192,36411,128,8,36769:0:0:0:0:
448,192,36411,1,0,0:0:0:0:
192,192,36590,1,2,0:0:0:0:
448,192,36590,1,0,0:0:0:0:
192,192,36769,128,0,37036:0:0:0:0:
320,192,36947,128,8,37036:0:0:0:0:
448,192,36947,1,0,0:0:0:0:
64,192,37126,128,2,37751:0:0:0:0:
192,192,37126,128,0,37215:0:0:0:0:
192,192,37304,1,8,0:0:0:0:
320,192,37304,1,4,0:0:0:0:
448,192,37304,1,0,0:0:0:0:
320,192,37483,1,2,0:0:0:0:
448,192,37483,1,0,0:0:0:0:
320,192,37661,128,0,37840:0:0:0:0:
64,192,37840,128,8,38197:0:0:0:0:
192,192,37840,128,4,38197:0:0:0:0:
448,192,37840,1,0,0:0:0:0:
320,192,38197,1,2,0:0:0:0:
448,192,38197,1,0,0:0:0:0:
192,192,38376,1,2,0:0:0:0:
320,192,38465,1,2,0:0:0:0:
64,192,38554,128,2,38733:0:0:0:0:
192,192,38554,128,4,38733:0:0:0:0:
448,192,38554,128,0,38733:0:0:0:0:
320,192,38733,1,2,0:0:0:0:
64,192,38911,1,2,0:0:0:0:
192,192,38911,128,0,39269:0:0:0:0:
320,192,39269,1,8,0:0:0:0:
448,192,39269,128,0,39536:0:0:0:0:
320,192,39536,128,0,39894:0:0:0:0:
64,192,39626,1,2,0:0:0:0:
192,192,39626,1,0,0:0:0:0:
64,192,39804,1,8,0:0:0:0:
192,192,39804,128,0,39894:0:0:0:0:
320,192,39983,128,2,40072:0:0:0:0:
448,192,39983,128,0,40697:0:0:0:0:
64,192,40161,1,8,0:0:0:0:
192,192,40161,1,4,0:0:0:0:
320,192,40161,1,0,0:0:0:0:
64,192,40340,1,2,0:0:0:0:
192,192,40340,1,0,0:0:0:0:
192,192,40519,128,8,40697:0:0:0:0:
320,192,40519,1,0,0:0:0:0:
64,192,40697,128,8,40876:0:0:0:0:
320,192,40697,128,0,40965:0:0:0:0:
192,192,40876,1,0,0:0:0:0:
64,192,40965,1,2,0:0:0:0:
320,192,41054,1,8,0:0:0:0:
448,192,41054,1,0,0:0:0:0:
192,192,41144,1,8,0:0:0:0:
64,192,41233,1,8,0:0:0:0:
448,192,41233,1,0,0:0:0:0:
320,192,41322,1,8,0:0:0:0:
64,192,41411,1,2,0:0:0:0:
192,192,41411,1,4,0:0:0:0:
448,192,41411,1,0,0:0:0:0:
192,192,41590,1,2,0:0:0:0:
320,192,41590,1,0,0:0:0:0:
64,192,41769,128,8,41947:0:0:0:0:
320,192,41769,128,0,41947:0:0:0:0:
448,192,41769,1,0,0:0:0:0:
192,192,41947,1,0,0:0:0:0:
320,192,42036,1,2,0:0:0:0:
64,192,42126,128,2,42304:0:0:0:0:
448,192,42126,128,0,42394:0:0:0:0:
192,192,42304,128,2,42661:0:0:0:0:
320,192,42304,1,0,0:0:0:0:
320,192,42483,128,8,42661:0:0:0:0:
448,192,42483,1,0,0:0:0:0:
320,192,42840,1,2,0:0:0:0:
448,192,42840,1,0,0:0:0:0:
192,192,43019,1,2,0:0:0:0:
320,192,43019,1,0,0:0:0:0:
64,192,43197,1,8,0:0:0:0:
192,192,43197,128,0,43376:0:0:0:0:
448,192,43197,128,0,43376:0:0:0:0:
320,192,43376,1,0,0:0:0:0:
192,192,43465,1,2,0:0:0:0:
64,192,43554,128,2,43822:0:0:0:0:
448,192,43554,128,0,43733:0:0:0:0:
192,192,43733,1,2,0:0:0:0:
320,192,43733,128,0,44090:0:0:0:0:
64,192,43911,1,8,0:0:0:0:
192,192,43911,128,0,44090:0:0:0:0:
64,192,44269,1,2,0:0:0:0:
192,192,44269,1,4,0:0:0:0:
320,192,44269,1,0,0:0:0:0:
192,192,44447,128,0,44715:0:0:0:0:
64,192,44626,128,8,44983:0:0:0:0:
448,192,44626,1,4,0:0:0:0:
192,192,44804,128,2,44983:0:0:0:0:
448,192,44804,1,0,0:0:0:0:
320,192,44983,1,8,0:0:0:0:
448,192,44983,1,0,0:0:0:0:
64,192,45161,1,2,0:0:0:0:
320,192,45161,128,0,45429:0:0:0:0:
192,192,45340,1,8,0:0:0:0:
448,192,45340,128,0,45697:0:0:0:0:
64,192,45519,1,2,0:0:0:0:
320,192,45519,128,0,45697:0:0:0:0:
64,192,45697,1,8,0:0:0:0:
192,192,45697,1,0,0:0:0:0:
64,192,45876,128,2,46144:0:0:0:0:
320,192,45876,128,0,45965:0:0:0:0:
320,192,46054,1,8,0:0:0:0:
448,192,46054,128,4,46322:0:0:0:0:
64,192,46233,1,2,0:0:0:0:
192,192,46233,128,4,46411:0:0:0:0:
64,192,46411,128,4,46679:0:0:0:0:
320,192,46411,128,2,46590:0:0:0:0:
448,192,46411,1,0,0:0:0:0:
192,192,46679,128,2,46947:0:0:0:0:
320,192,46679,1,4,0:0:0:0:
448,192,46679,128,0,46858:0:0:0:0:
64,192,46947,1,2,0:0:0:0:
320,192,46947,128,4,47036:0:0:0:0:
448,192,46947,128,0,47126:0:0:0:0:
64,192,47126,128,2,47394:0:0:0:0:
192,192,47126,128,4,47304:0:0:0:0:
320,192,47126,128,0,47215:0:0:0:0:
448,192,47304,128,2,47394:0:0:0:0:
320,192,47394,128,2,47483:0:0:0:0:
64,192,47483,128,8,47572:0:0:0:0:
448,192,47483,128,0,47572:0:0:0:0:
192,192,47572,128,2,47661:0:0:0:0:
64,192,47661,128,2,47751:0:0:0:0:
320,192,47751,128,8,47840:0:0:0:0:
192,192,47840,128,8,47929:0:0:0:0:
448,192,47840,128,0,47929:0:0:0:0:
64,192,47929,128,2,48019:0:0:0:0:
320,192,48019,128,8,48108:0:0:0:0:
192,192,48108,128,2,48197:0:0:0:0:
64,192,48197,128,2,48286:0:0:0:0:
448,192,48197,128,0,48286:0:0:0:0:
320,192,48286,128,2,48376:0:0:0:0:
64,192,48376,128,8,48554:0:0:0:0:
192,192,48376,128,4,48554:0:0:0:0:
448,192,48376,128,0,48554:0:0:0:0:
64,192,48733,128,8,48911:0:0:0:0:
192,192,48733,128,4,49001:0:0:0:0:
448,192,48733,128,0,48822:0:0:0:0:
320,192,48911,128,8,49090:0:0:0:0:
448,192,48911,128,4,49090:0:0:0:0:
192,192,49269,128,0,49626:0:0:0:0:
320,192,49626,128,0,49983:0:0:0:0:
64,192,49983,128,2,50518:0:0:0:0:
192,192,49983,128,4,50161:0:0:0:0:
448,192,49983,1,0,0:0:0:0:
320,192,50161,1,0,0:0:0:0:
192,192,50340,128,8,50429:0:0:0:0:
448,192,50340,128,0,50608:0:0:0:0:
192,192,50518,128,2,50697:0:0:0:0:
320,192,50608,128,0,50697:0:0:0:0:
64,192,50697,1,0,0:0:0:0:
320,192,50786,1,2,0:0:0:0:
192,192,50875,128,2,51054:0:0:0:0:
448,192,50875,128,0,50965:0:0:0:0:
320,192,51054,1,8,0:0:0:0:
448,192,51054,1,0,0:0:0:0:
320,192,51233,128,0,51411:0:0:0:0:
192,192,51322,128,0,51500:0:0:0:0:
64,192,51411,128,2,51768:0:0:0:0:
448,192,51411,1,0,0:0:0:0:
320,192,51590,128,0,51858:0:0:0:0:
192,192,51768,1,8,0:0:0:0:
448,192,51768,128,0,52036:0:0:0:0:
64,192,51947,1,2,0:0:0:0:
192,192,51947,128,0,52125:0:0:0:0:
320,192,52036,128,2,52215:0:0:0:0:
448,192,52125,128,0,52304:0:0:0:0:
64,192,52304,1,2,0:0:0:0:
192,192,52304,1,0,0:0:0:0:
64,192,52483,128,8,52661:0:0:0:0:
320,192,52483,1,0,0:0:0:0:
192,192,52661,128,0,52840:0:0:0:0:
320,192,52840,128,2,53018:0:0:0:0:
448,192,52840,128,0,53286:0:0:0:0:
64,192,53018,1,0,0:0:0:0:
64,192,53197,128,8,53465:0:0:0:0:
320,192,53197,128,0,53286:0:0:0:0:
320,192,53375,128,2,53554:0:0:0:0:
448,192,53375,1,0,0:0:0:0:
192,192,53465,128,2,53554:0:0:0:0:
64,192,53554,1,0,0:0:0:0:
448,192,53643,1,2,0:0:0:0:
64,192,53733,128,2,53822:0:0:0:0:
320,192,53733,128,0,53911:0:0:0:0:
64,192,53911,1,8,0:0:0:0:
192,192,53911,1,0,0:0:0:0:
192,192,54090,128,0,54268:0:0:0:0:
320,192,54179,128,0,54358:0:0:0:0:
64,192,54268,1,2,0:0:0:0:
448,192,54268,128,0,54625:0:0:0:0:
192,192,54447,128,0,54536:0:0:0:0:
64,192,54625,128,8,54893:0:0:0:0:
320,192,54625,128,0,54715:0:0:0:0:
320,192,54804,1,2,0:0:0:0:
192,192,54893,1,2,0:0:0:0:
64,192,54983,128,2,55250:0:0:0:0:
320,192,54983,128,0,55250:0:0:0:0:
192,192,55161,128,2,55250:0:0:0:0:
448,192,55161,128,0,55250:0:0:0:0:
192,192,55340,128,8,55608:0:0:0:0:
448,192,55340,128,0,55608:0:0:0:0:
64,192,55518,128,0,55608:0:0:0:0:
64,192,55697,128,2,55965:0:0:0:0:
320,192,55697,1,0,0:0:0:0:
448,192,55875,1,0,0:0:0:0:
320,192,55965,1,0,0:0:0:0:
192,192,56054,128,8,56143:0:0:0:0:
448,192,56054,128,0,56322:0:0:0:0:
64,192,56233,1,2,0:0:0:0:
192,192,56233,128,0,56590:0:0:0:0:
320,192,56322,1,2,0:0:0:0:
64,192,56411,1,0,0:0:0:0:
320,192,56500,1,2,0:0:0:0:
64,192,56590,128,2,57036:0:0:0:0:
448,192,56590,128,0,56768:0:0:0:0:
192,192,56768,1,8,0:0:0:0:
320,192,56768,1,0,0:0:0:0:
320,192,56947,128,0,57125:0:0:0:0:
448,192,57036,1,0,0:0:0:0:
64,192,57125,128,2,57393:0:0:0:0:
192,192,57125,128,0,57215:0:0:0:0:
320,192,57304,128,0,57572:0:0:0:0:
192,192,57393,128,0,57483:0:0:0:0:
64,192,57483,1,8,0:0:0:0:
448,192,57483,128,0,57661:0:0:0:0:
64,192,57661,1,2,0:0:0:0:
192,192,57661,128,0,57840:0:0:0:0:
320,192,57750,128,2,57929:0:0:0:0:
64,192,57840,128,0,58018:0:0:0:0:
448,192,57929,1,2,0:0:0:0:
192,192,58018,1,2,0:0:0:0:
320,192,58018,1,0,0:0:0:0:
192,192,58197,128,8,58375:0:0:0:0:
448,192,58197,1,0,0:0:0:0:
320,192,58375,128,0,58554:0:0:0:0:
64,192,58554,128,2,58822:0:0:0:0:
448,192,58554,128,0,59179:0:0:0:0:
320,192,58822,1,12,0:0:0:0:
64,192,58911,1,8,0:0:0:0:
192,192,58911,128,4,59000:0:0:0:0:
192,192,59090,1,4,0:0:0:0:
320,192,59090,128,2,59179:0:0:0:0:
320,192,59268,1,2,0:0:0:0:
64,192,59358,1,2,0:0:0:0:
192,192,59447,128,8,59625:0:0:0:0:
448,192,59447,128,4,59625:0:0:0:0:
64,192,59625,1,2,0:0:0:0:
320,192,59625,1,0,0:0:0:0:
64,192,59804,128,8,60072:0:0:0:0:
320,192,59804,128,4,60250:0:0:0:0:
448,192,59804,128,0,59893:0:0:0:0:
64,192,60161,1,8,0:0:0:0:
192,192,60161,128,0,60429:0:0:0:0:
320,192,60340,128,8,60429:0:0:0:0:
448,192,60340,128,0,60429:0:0:0:0:
64,192,60518,1,2,0:0:0:0:
192,192,60518,1,0,0:0:0:0:
448,192,60608,1,8,0:0:0:0:
192,192,60697,1,8,0:0:0:0:
320,192,60697,1,0,0:0:0:0:
64,192,60786,1,2,0:0:0:0:
320,192,60875,1,2,0:0:0:0:
448,192,60875,1,0,0:0:0:0:
192,192,60965,1,8,0:0:0:0:
64,192,61054,1,8,0:0:0:0:
448,192,61054,1,0,0:0:0:0:
320,192,61143,1,8,0:0:0:0:
64,192,61232,1,8,0:0:0:0:
448,192,61232,1,0,0:0:0:0:
192,192,61322,1,8,0:0:0:0:
64,192,61411,1,2,0:0:0:0:
320,192,61411,128,4,61590:0:0:0:0:
448,192,61411,128,0,61947:0:0:0:0:
192,192,61590,1,0,0:0:0:0:
64,192,61768,128,8,62036:0:0:0:0:
320,192,61768,128,0,61857:0:0:0:0:
320,192,61947,128,2,62125:0:0:0:0:
192,192,62036,128,2,62125:0:0:0:0:
64,192,62125,1,0,0:0:0:0:
192,192,62215,1,2,0:0:0:0:
64,192,62304,128,2,62393:0:0:0:0:
320,192,62304,128,0,62482:0:0:0:0:
64,192,62482,1,8,0:0:0:0:
192,192,62482,1,0,0:0:0:0:
192,192,62661,128,0,62840:0:0:0:0:
320,192,62750,128,0,62929:0:0:0:0:
64,192,62840,1,2,0:0:0:0:
448,192,62840,128,0,63197:0:0:0:0:
192,192,63018,128,0,63286:0:0:0:0:
64,192,63197,128,8,63465:0:0:0:0:
320,192,63197,1,0,0:0:0:0:
320,192,63375,128,2,63554:0:0:0:0:
448,192,63375,1,0,0:0:0:0:
192,192,63465,128,2,63643:0:0:0:0:
64,192,63554,128,0,63732:0:0:0:0:
320,192,63732,1,2,0:0:0:0:
448,192,63732,1,0,0:0:0:0:
192,192,63911,1,8,0:0:0:0:
448,192,63911,128,0,64090:0:0:0:0:
320,192,64090,128,0,64268:0:0:0:0:
64,192,64268,128,2,64715:0:0:0:0:
192,192,64268,128,0,64447:0:0:0:0:
448,192,64447,1,0,0:0:0:0:
192,192,64625,128,8,64715:0:0:0:0:
448,192,64625,128,0,64893:0:0:0:0:
64,192,64804,1,2,0:0:0:0:
192,192,64804,128,0,64982:0:0:0:0:
320,192,64893,128,2,64982:0:0:0:0:
448,192,64982,1,0,0:0:0:0:
64,192,65072,1,2,0:0:0:0:
192,192,65161,128,2,65340:0:0:0:0:
448,192,65161,128,0,65250:0:0:0:0:
320,192,65340,1,8,0:0:0:0:
448,192,65340,1,0,0:0:0:0:
320,192,65518,128,0,65786:0:0:0:0:
192,192,65608,128,0,65697:0:0:0:0:
64,192,65697,128,2,66322:0:0:0:0:
448,192,65697,128,0,65965:0:0:0:0:
192,192,66054,128,8,66143:0:0:0:0:
448,192,66054,128,0,66322:0:0:0:0:
192,192,66233,128,2,66500:0:0:0:0:
320,192,66322,128,2,66411:0:0:0:0:
64,192,66411,128,2,66590:0:0:0:0:
448,192,66411,1,0,0:0:0:0:
320,192,66590,128,8,66679:0:0:0:0:
448,192,66590,1,0,0:0:0:0:
192,192,66679,128,0,66768:0:0:0:0:
64,192,66768,1,8,0:0:0:0:
320,192,66768,128,4,66858:0:0:0:0:
448,192,66768,128,0,66947:0:0:0:0:
192,192,66947,1,8,0:0:0:0:
320,192,67036,1,8,0:0:0:0:
64,192,67125,128,2,67750:0:0:0:0:
192,192,67125,128,4,67215:0:0:0:0:
448,192,67125,128,0,67393:0:0:0:0:
320,192,67483,1,8,0:0:0:0:
448,192,67483,1,0,0:0:0:0:
192,192,67661,128,2,67750:0:0:0:0:
320,192,67661,128,4,67750:0:0:0:0:
448,192,67661,128,0,68197:0:0:0:0:
64,192,67929,1,2,0:0:0:0:
192,192,68018,1,2,0:0:0:0:
320,192,68018,128,0,68197:0:0:0:0:
64,192,68197,1,8,0:0:0:0:
192,192,68197,1,0,0:0:0:0:
64,192,68375,128,2,68465:0:0:0:0:
192,192,68375,128,0,68554:0:0:0:0:
320,192,68465,128,8,68554:0:0:0:0:
64,192,68554,128,2,68911:0:0:0:0:
448,192,68554,128,4,68733:0:0:0:0:
320,192,68733,128,0,68911:0:0:0:0:
192,192,68911,128,8,69090:0:0:0:0:
448,192,68911,128,0,69000:0:0:0:0:
64,192,69090,128,2,69268:0:0:0:0:
320,192,69090,128,4,69179:0:0:0:0:
448,192,69179,128,2,69447:0:0:0:0:
320,192,69268,128,0,69447:0:0:0:0:
64,192,69447,1,2,0:0:0:0:
192,192,69447,1,0,0:0:0:0:
64,192,69625,1,8,0:0:0:0:
320,192,69625,128,0,69804:0:0:0:0:
448,192,69715,128,2,69804:0:0:0:0:
192,192,69804,128,8,69983:0:0:0:0:
320,192,69893,128,2,69983:0:0:0:0:
64,192,69983,128,2,70608:0:0:0:0:
448,192,69983,128,0,70250:0:0:0:0:
192,192,70161,1,0,0:0:0:0:
320,192,70340,1,8,0:0:0:0:
448,192,70340,1,0,0:0:0:0:
192,192,70518,128,2,70608:0:0:0:0:
320,192,70518,1,0,0:0:0:0:
448,192,70608,1,2,0:0:0:0:
64,192,70697,128,2,70786:0:0:0:0:
192,192,70697,128,0,70786:0:0:0:0:
320,192,70786,128,0,70875:0:0:0:0:
64,192,70875,128,4,70965:0:0:0:0:
448,192,70875,128,2,70965:0:0:0:0:
192,192,70965,128,0,71054:0:0:0:0:
320,192,71054,128,4,71143:0:0:0:0:
448,192,71054,128,2,71143:0:0:0:0:
192,192,71143,128,0,71233:0:0:0:0:
64,192,71233,128,0,71411:0:0:0:0:
320,192,71233,128,0,71411:0:0:0:0:
448,192,71233,128,0,71411:0:0:0:0:
64,192,71590,128,4,71679:0:0:0:0:
320,192,71590,128,8,71858:0:0:0:0:
448,192,71590,128,0,71768:0:0:0:0:
64,192,71768,128,4,71947:0:0:0:0:
192,192,71768,128,8,71947:0:0:0:0:
64,192,72125,128,0,72482:0:0:0:0:
448,192,72304,128,0,72661:0:0:0:0:
192,192,72482,128,0,72572:0:0:0:0:
320,192,72572,128,0,72661:0:0:0:0:
64,192,72661,128,0,72750:0:0:0:0:
448,192,72750,128,0,72840:0:0:0:0:
64,192,72840,128,2,73107:0:0:0:0:
192,192,72840,1,4,0:0:0:0:
320,192,72840,128,0,73197:0:0:0:0:
448,192,73018,128,0,73197:0:0:0:0:
64,192,73197,128,8,73375:0:0:0:0:
192,192,73197,128,0,73286:0:0:0:0:
192,192,73375,128,2,73554:0:0:0:0:
448,192,73375,128,0,73465:0:0:0:0:
448,192,73554,1,0,0:0:0:0:
192,192,73643,1,2,0:0:0:0:
320,192,73732,128,2,73822:0:0:0:0:
448,192,73732,128,0,74000:0:0:0:0:
64,192,73911,128,8,74090:0:0:0:0:
320,192,73911,1,0,0:0:0:0:
448,192,74090,1,0,0:0:0:0:
64,192,74179,1,0,0:0:0:0:
192,192,74268,128,2,74447:0:0:0:0:
448,192,74268,128,0,74625:0:0:0:0:
320,192,74447,128,0,74625:0:0:0:0:
64,192,74625,128,8,74804:0:0:0:0:
192,192,74625,128,0,74715:0:0:0:0:
192,192,74804,128,2,75161:0:0:0:0:
448,192,74804,128,0,74893:0:0:0:0:
448,192,74982,128,0,75161:0:0:0:0:
64,192,75161,1,2,0:0:0:0:
320,192,75161,128,0,75340:0:0:0:0:
192,192,75340,128,8,75518:0:0:0:0:
448,192,75340,1,0,0:0:0:0:
64,192,75518,1,0,0:0:0:0:
192,192,75607,1,0,0:0:0:0:
64,192,75697,128,2,75965:0:0:0:0:
320,192,75697,128,0,76054:0:0:0:0:
448,192,75697,1,0,0:0:0:0:
448,192,75875,128,0,76054:0:0:0:0:
64,192,76054,128,8,76232:0:0:0:0:
192,192,76054,128,0,76143:0:0:0:0:
192,192,76232,128,2,76500:0:0:0:0:
448,192,76232,128,0,76322:0:0:0:0:
448,192,76411,1,0,0:0:0:0:
320,192,76500,1,2,0:0:0:0:
192,192,76590,128,2,76679:0:0:0:0:
448,192,76590,128,0,76768:0:0:0:0:
64,192,76768,128,8,77036:0:0:0:0:
320,192,76768,128,0,76857:0:0:0:0:
320,192,76947,128,0,77125:0:0:0:0:
192,192,77036,1,0,0:0:0:0:
64,192,77125,128,2,77482:0:0:0:0:
448,192,77125,128,0,77304:0:0:0:0:
192,192,77304,128,0,77482:0:0:0:0:
320,192,77482,128,8,77572:0:0:0:0:
448,192,77482,128,0,77661:0:0:0:0:
320,192,77661,128,0,77929:0:0:0:0:
64,192,77840,128,2,77929:0:0:0:0:
192,192,77840,1,0,0:0:0:0:
448,192,77929,1,2,0:0:0:0:
64,192,78018,128,2,78375:0:0:0:0:
320,192,78018,1,0,0:0:0:0:
192,192,78197,1,8,0:0:0:0:
320,192,78197,1,0,0:0:0:0:
448,192,78375,128,0,78554:0:0:0:0:
320,192,78465,1,0,0:0:0:0:
64,192,78554,128,2,78911:0:0:0:0:
192,192,78554,128,0,78822:0:0:0:0:
192,192,78911,1,8,0:0:0:0:
448,192,78911,128,0,79000:0:0:0:0:
64,192,79090,128,2,79357:0:0:0:0:
448,192,79090,128,0,79357:0:0:0:0:
320,192,79268,1,0,0:0:0:0:
192,192,79357,1,2,0:0:0:0:
320,192,79447,128,2,79804:0:0:0:0:
448,192,79447,128,0,79625:0:0:0:0:
64,192,79625,1,8,0:0:0:0:
192,192,79625,1,0,0:0:0:0:
64,192,79804,128,0,79982:0:0:0:0:
192,192,79804,128,0,79893:0:0:0:0:
320,192,79893,1,0,0:0:0:0:
192,192,79982,128,2,80340:0:0:0:0:
448,192,79982,128,0,80072:0:0:0:0:
448,192,80161,128,0,80340:0:0:0:0:
64,192,80340,128,8,80518:0:0:0:0:
320,192,80340,128,0,80429:0:0:0:0:
192,192,80518,1,2,0:0:0:0:
320,192,80518,128,0,80697:0:0:0:0:
448,192,80607,1,2,0:0:0:0:
64,192,80697,128,0,80875:0:0:0:0:
320,192,80786,1,2,0:0:0:0:
192,192,80875,128,2,81054:0:0:0:0:
448,192,80875,128,0,81232:0:0:0:0:
64,192,81054,1,8,0:0:0:0:
320,192,81054,128,0,81232:0:0:0:0:
192,192,81232,1,0,0:0:0:0:
64,192,81322,1,0,0:0:0:0:
320,192,81411,128,2,81679:0:0:0:0:
448,192,81411,128,0,81857:0:0:0:0:
64,192,81768,128,8,81857:0:0:0:0:
320,192,81768,128,0,81857:0:0:0:0:
64,192,81947,128,2,82036:0:0:0:0:
192,192,81947,128,4,82036:0:0:0:0:
320,192,81947,1,0,0:0:0:0:
192,192,82125,1,0,0:0:0:0:
64,192,82304,1,8,0:0:0:0:
192,192,82304,128,0,82393:0:0:0:0:
320,192,82304,128,0,82393:0:0:0:0:
192,192,82482,1,8,0:0:0:0:
320,192,82482,1,4,0:0:0:0:
448,192,82482,128,0,82572:0:0:0:0:
192,192,82661,128,4,82840:0:0:0:0:
320,192,82661,128,2,82929:0:0:0:0:
448,192,82661,128,0,83018:0:0:0:0:
64,192,82840,1,0,0:0:0:0:
64,192,83018,1,8,0:0:0:0:
192,192,83018,1,0,0:0:0:0:
320,192,83107,1,8,0:0:0:0:
64,192,83197,1,8,0:0:0:0:
448,192,83197,1,0,0:0:0:0:
192,192,83286,1,2,0:0:0:0:
448,192,83375,1,2,0:0:0:0:
320,192,83465,1,2,0:0:0:0:
64,192,83554,128,8,83732:0:0:0:0:
192,192,83554,128,0,83822:0:0:0:0:
448,192,83554,128,0,83643:0:0:0:0:
320,192,83732,128,8,83911:0:0:0:0:
448,192,83732,128,4,83911:0:0:0:0:
64,192,83911,1,8,0:0:0:0:
192,192,83911,1,0,0:0:0:0:
320,192,84000,1,2,0:0:0:0:
64,192,84090,1,8,0:0:0:0:
448,192,84090,1,0,0:0:0:0:
192,192,84179,1,2,0:0:0:0:
64,192,84268,128,2,84447:0:0:0:0:
320,192,84268,128,4,84447:0:0:0:0:
448,192,84268,128,0,84357:0:0:0:0:
192,192,84447,128,8,84625:0:0:0:0:
448,192,84447,128,0,84536:0:0:0:0:
320,192,84625,128,2,84804:0:0:0:0:
448,192,84625,1,0,0:0:0:0:
64,192,84804,128,8,85429:0:0:0:0:
192,192,84804,128,4,85161:0:0:0:0:
448,192,84804,128,0,85072:0:0:0:0:
320,192,85161,1,8,0:0:0:0:
448,192,85161,1,0,0:0:0:0:
192,192,85250,1,8,0:0:0:0:
320,192,85340,128,2,85518:0:0:0:0:
64,192,85518,128,2,87840:0:0:0:0:
448,192,85518,128,4,87840:0:0:0:0:
320,192,85607,128,0,87840:0:0:0:0:
