osu file format v14

[General]
AudioFilename: audio.mp3
AudioLeadIn: 0
PreviewTime: 49224
Countdown: 0
SampleSet: Drum
StackLeniency: 0.7
Mode: 3
LetterboxInBreaks: 0
SpecialStyle: 0
WidescreenStoryboard: 0

[Editor]
Bookmarks: 12840,24269,35697,49983,61411,72840
DistanceSpacing: 1
BeatDivisor: 4
GridSize: 32
TimelineZoom: 1.5

[Metadata]
Title:Ashita e tobutameni (TV Size)
TitleUnicode:未来へ翔ぶために (TV Size)
Artist:Trial & Error
ArtistUnicode:Trial & Error
Creator:Muse Dash
Version:Normal
Source:
Tags:Seiran- royalty free Japanese fantasy anime game opening rock j-rock jrock featured artist fa mappers' guild mg mpg 天乙准花 Junca Amaoto takigyousou 阪神総一 Souichi Sakagami 小野瀬旭 Akira Onose
BeatmapID:4460579
BeatmapSetID:2122738

[Difficulty]
HPDrainRate:7
CircleSize:4
OverallDifficulty:7.5
ApproachRate:5
SliderMultiplier:1.4
SliderTickRate:1

[Events]
//Background and Video events
0,0,"bg.jpg",0,0
//Break Periods
//Storyboard Layer 0 (Background)
//Storyboard Layer 1 (Fail)
//Storyboard Layer 2 (Pass)
//Storyboard Layer 3 (Foreground)
//Storyboard Layer 4 (Overlay)
//Storyboard Sound Samples

[TimingPoints]
1412,357.142857142857,4,3,1,60,1,0
49983,357.142857142857,4,3,1,60,1,1
72840,-100,4,3,1,60,0,0

[HitObjects]
192,192,697,128,8,1054:0:0:0:0:
448,192,1054,1,8,0:0:0:0:
320,192,1233,1,8,0:0:0:0:
64,192,1412,128,2,1769:0:0:0:0:
192,192,1412,1,4,0:0:0:0:
320,192,1769,1,8,0:0:0:0:
192,192,1947,128,2,2304:0:0:0:0:
448,192,2304,1,2,0:0:0:0:
320,192,2483,128,8,2840:0:0:0:0:
192,192,2840,1,2,0:0:0:0:
448,192,2840,128,0,3197:0:0:0:0:
192,192,3197,1,8,0:0:0:0:
64,192,3376,128,2,3733:0:0:0:0:
320,192,3733,1,2,0:0:0:0:
64,192,3911,1,8,0:0:0:0:
192,192,3911,1,0,0:0:0:0:
320,192,4269,1,2,0:0:0:0:
448,192,4269,128,0,4626:0:0:0:0:
192,192,4626,1,8,0:0:0:0:
320,192,4804,128,2,5161:0:0:0:0:
64,192,5161,1,2,0:0:0:0:
192,192,5340,128,8,5697:0:0:0:0:
64,192,5697,128,2,6054:0:0:0:0:
320,192,5697,1,0,0:0:0:0:
320,192,6054,1,8,0:0:0:0:
448,192,6233,128,0,6590:0:0:0:0:
192,192,6590,1,2,0:0:0:0:
448,192,6769,1,8,0:0:0:0:
320,192,6947,1,0,0:0:0:0:
64,192,7126,1,2,0:0:0:0:
192,192,7126,128,0,7483:0:0:0:0:
448,192,7483,1,8,0:0:0:0:
320,192,7661,128,2,8019:0:0:0:0:
64,192,8019,1,2,0:0:0:0:
448,192,8197,1,8,0:0:0:0:
64,192,8376,128,0,8733:0:0:0:0:
448,192,8554,1,2,0:0:0:0:
320,192,8733,1,0,0:0:0:0:
192,192,8911,1,8,0:0:0:0:
64,192,9090,1,2,0:0:0:0:
320,192,9269,1,0,0:0:0:0:
448,192,9447,128,2,9804:0:0:0:0:
192,192,9804,1,0,0:0:0:0:
64,192,9983,1,2,0:0:0:0:
320,192,9983,128,0,10340:0:0:0:0:
64,192,10340,1,8,0:0:0:0:
192,192,10519,128,2,10876:0:0:0:0:
448,192,10519,1,4,0:0:0:0:
64,192,10876,1,8,0:0:0:0:
448,192,10876,128,0,11233:0:0:0:0:
64,192,11233,128,4,11590:0:0:0:0:
192,192,11233,1,2,0:0:0:0:
448,192,11590,1,8,0:0:0:0:
192,192,11769,1,8,0:0:0:0:
64,192,11947,1,2,0:0:0:0:
320,192,12126,1,12,0:0:0:0:
192,192,12304,1,8,0:0:0:0:
448,192,12304,128,4,12661:0:0:0:0:
64,192,12840,128,2,13197:0:0:0:0:
448,192,12840,128,4,13197:0:0:0:0:
192,192,13197,1,8,0:0:0:0:
448,192,13733,1,2,0:0:0:0:
192,192,13911,1,8,0:0:0:0:
448,192,14269,128,2,14626:0:0:0:0:
192,192,14626,1,8,0:0:0:0:
448,192,15161,1,2,0:0:0:0:
192,192,15340,1,8,0:0:0:0:
64,192,15697,128,2,16054:0:0:0:0:
320,192,16054,1,8,0:0:0:0:
64,192,16590,1,2,0:0:0:0:
320,192,16769,1,8,0:0:0:0:
64,192,17126,128,2,17483:0:0:0:0:
320,192,17483,1,8,0:0:0:0:
448,192,17840,128,2,18197:0:0:0:0:
320,192,18197,1,8,0:0:0:0:
192,192,18554,128,2,18911:0:0:0:0:
448,192,18911,1,8,0:0:0:0:
192,192,19447,1,2,0:0:0:0:
448,192,19626,1,8,0:0:0:0:
192,192,19983,128,2,20340:0:0:0:0:
448,192,20340,1,8,0:0:0:0:
192,192,20876,1,2,0:0:0:0:
448,192,21054,1,8,0:0:0:0:
320,192,21411,128,2,21769:0:0:0:0:
64,192,21769,1,8,0:0:0:0:
192,192,21947,128,2,22304:0:0:0:0:
448,192,22304,1,8,0:0:0:0:
64,192,22483,1,8,0:0:0:0:
320,192,22661,1,8,0:0:0:0:
192,192,22840,1,6,0:0:0:0:
64,192,23019,1,2,0:0:0:0:
448,192,23019,128,4,23376:0:0:0:0:
64,192,23376,128,8,23733:0:0:0:0:
192,192,23376,1,4,0:0:0:0:
320,192,23733,128,8,24001:0:0:0:0:
192,192,24001,128,8,24269:0:0:0:0:
64,192,24269,128,2,24626:0:0:0:0:
448,192,24269,128,4,24626:0:0:0:0:
192,192,24626,1,8,0:0:0:0:
320,192,24804,128,0,25161:0:0:0:0:
448,192,25161,1,2,0:0:0:0:
64,192,25340,1,8,0:0:0:0:
192,192,25519,1,0,0:0:0:0:
320,192,25697,1,2,0:0:0:0:
448,192,25697,128,0,26054:0:0:0:0:
192,192,26054,1,8,0:0:0:0:
320,192,26233,1,0,0:0:0:0:
64,192,26411,1,0,0:0:0:0:
448,192,26590,1,2,0:0:0:0:
320,192,26769,1,8,0:0:0:0:
192,192,26947,1,0,0:0:0:0:
64,192,27126,128,2,27483:0:0:0:0:
448,192,27126,1,0,0:0:0:0:
320,192,27483,1,8,0:0:0:0:
192,192,27661,128,0,28019:0:0:0:0:
64,192,28019,1,2,0:0:0:0:
320,192,28197,128,8,28554:0:0:0:0:
64,192,28554,128,2,28911:0:0:0:0:
448,192,28554,1,0,0:0:0:0:
320,192,28911,1,8,0:0:0:0:
192,192,29090,1,0,0:0:0:0:
448,192,29269,1,0,0:0:0:0:
64,192,29447,1,2,0:0:0:0:
320,192,29626,1,8,0:0:0:0:
448,192,29626,1,0,0:0:0:0:
64,192,29983,1,2,0:0:0:0:
192,192,29983,128,0,30340:0:0:0:0:
448,192,30340,128,8,30697:0:0:0:0:
320,192,30697,1,0,0:0:0:0:
192,192,30876,1,2,0:0:0:0:
448,192,31054,1,8,0:0:0:0:
64,192,31233,1,0,0:0:0:0:
320,192,31411,128,2,31769:0:0:0:0:
448,192,31411,1,0,0:0:0:0:
192,192,31769,1,8,0:0:0:0:
64,192,31947,1,0,0:0:0:0:
448,192,32126,1,0,0:0:0:0:
320,192,32304,1,2,0:0:0:0:
64,192,32483,128,8,32840:0:0:0:0:
320,192,32840,128,2,33197:0:0:0:0:
64,192,33197,1,12,0:0:0:0:
192,192,33376,128,8,33733:0:0:0:0:
320,192,33376,1,4,0:0:0:0:
448,192,33733,1,8,0:0:0:0:
192,192,33911,1,8,0:0:0:0:
320,192,34090,1,2,0:0:0:0:
64,192,34269,128,2,34626:0:0:0:0:
192,192,34269,1,0,0:0:0:0:
320,192,34626,1,12,0:0:0:0:
448,192,34804,1,12,0:0:0:0:
64,192,34983,1,12,0:0:0:0:
192,192,35161,128,8,35429:0:0:0:0:
320,192,35429,128,8,35697:0:0:0:0:
64,192,35697,1,2,0:0:0:0:
448,192,35697,1,4,0:0:0:0:
448,192,36054,1,6,0:0:0:0:
64,192,36411,1,8,0:0:0:0:
320,192,36590,1,2,0:0:0:0:
192,192,36947,1,8,0:0:0:0:
448,192,37126,1,2,0:0:0:0:
64,192,37304,1,12,0:0:0:0:
320,192,37483,1,2,0:0:0:0:
448,192,37840,128,12,38197:0:0:0:0:
192,192,38197,1,2,0:0:0:0:
448,192,38376,1,2,0:0:0:0:
320,192,38554,1,6,0:0:0:0:
64,192,38911,1,2,0:0:0:0:
448,192,39269,1,8,0:0:0:0:
192,192,39536,1,0,0:0:0:0:
320,192,39804,1,8,0:0:0:0:
64,192,39983,1,2,0:0:0:0:
320,192,40161,128,8,40519:0:0:0:0:
448,192,40161,1,4,0:0:0:0:
192,192,40519,1,8,0:0:0:0:
64,192,40697,128,8,41054:0:0:0:0:
192,192,41054,1,8,0:0:0:0:
448,192,41054,128,0,41411:0:0:0:0:
64,192,41411,1,2,0:0:0:0:
192,192,41411,1,4,0:0:0:0:
320,192,41590,1,2,0:0:0:0:
64,192,41769,1,8,0:0:0:0:
320,192,42126,1,2,0:0:0:0:
192,192,42304,1,2,0:0:0:0:
448,192,42483,1,8,0:0:0:0:
320,192,42840,1,2,0:0:0:0:
64,192,43019,1,2,0:0:0:0:
192,192,43197,1,8,0:0:0:0:
448,192,43554,1,2,0:0:0:0:
192,192,43733,1,2,0:0:0:0:
320,192,43911,1,8,0:0:0:0:
64,192,44269,1,2,0:0:0:0:
192,192,44269,1,4,0:0:0:0:
192,192,44626,1,8,0:0:0:0:
320,192,44626,1,4,0:0:0:0:
320,192,44983,1,8,0:0:0:0:
448,192,44983,1,0,0:0:0:0:
192,192,45340,1,8,0:0:0:0:
448,192,45340,1,0,0:0:0:0:
192,192,45697,1,8,0:0:0:0:
320,192,45697,1,0,0:0:0:0:
64,192,46054,1,8,0:0:0:0:
320,192,46054,1,4,0:0:0:0:
64,192,46411,1,4,0:0:0:0:
192,192,46411,1,2,0:0:0:0:
192,192,46679,1,2,0:0:0:0:
320,192,46679,1,4,0:0:0:0:
448,192,46947,1,6,0:0:0:0:
320,192,47126,128,2,47483:0:0:0:0:
448,192,47126,1,4,0:0:0:0:
192,192,47483,128,8,47751:0:0:0:0:
64,192,47751,128,8,48019:0:0:0:0:
320,192,48019,1,8,0:0:0:0:
64,192,48197,1,2,0:0:0:0:
320,192,48376,1,8,0:0:0:0:
448,192,48376,1,4,0:0:0:0:
192,192,48733,1,12,0:0:0:0:
64,192,48911,1,8,0:0:0:0:
192,192,48911,1,4,0:0:0:0:
320,192,49269,128,0,49626:0:0:0:0:
448,192,49626,128,0,49983:0:0:0:0:
64,192,49983,128,2,50340:0:0:0:0:
192,192,49983,128,4,50340:0:0:0:0:
320,192,50340,1,8,0:0:0:0:
448,192,50340,1,0,0:0:0:0:
64,192,50518,128,2,50875:0:0:0:0:
320,192,50875,1,2,0:0:0:0:
64,192,51054,1,8,0:0:0:0:
192,192,51054,1,0,0:0:0:0:
448,192,51233,128,0,51590:0:0:0:0:
192,192,51411,1,2,0:0:0:0:
320,192,51590,1,0,0:0:0:0:
192,192,51768,128,8,52125:0:0:0:0:
448,192,51768,1,0,0:0:0:0:
64,192,52125,1,0,0:0:0:0:
320,192,52304,1,2,0:0:0:0:
64,192,52483,1,8,0:0:0:0:
192,192,52483,1,0,0:0:0:0:
448,192,52661,1,0,0:0:0:0:
192,192,52840,1,2,0:0:0:0:
320,192,52840,128,0,53197:0:0:0:0:
64,192,53197,1,8,0:0:0:0:
192,192,53197,1,0,0:0:0:0:
448,192,53375,128,2,53733:0:0:0:0:
192,192,53733,1,2,0:0:0:0:
320,192,53911,1,8,0:0:0:0:
448,192,53911,1,0,0:0:0:0:
64,192,54090,128,0,54447:0:0:0:0:
320,192,54268,1,2,0:0:0:0:
192,192,54447,1,0,0:0:0:0:
64,192,54625,1,8,0:0:0:0:
448,192,54625,1,0,0:0:0:0:
320,192,54804,1,2,0:0:0:0:
192,192,54983,128,2,55340:0:0:0:0:
64,192,55340,1,8,0:0:0:0:
320,192,55340,128,0,55697:0:0:0:0:
192,192,55697,1,2,0:0:0:0:
448,192,55697,128,0,56054:0:0:0:0:
64,192,56054,1,8,0:0:0:0:
320,192,56054,1,0,0:0:0:0:
64,192,56233,128,2,56590:0:0:0:0:
448,192,56590,1,2,0:0:0:0:
64,192,56768,1,8,0:0:0:0:
192,192,56768,1,0,0:0:0:0:
320,192,56947,128,0,57304:0:0:0:0:
192,192,57125,1,2,0:0:0:0:
448,192,57304,1,0,0:0:0:0:
64,192,57483,1,8,0:0:0:0:
192,192,57483,128,0,57840:0:0:0:0:
320,192,57840,1,0,0:0:0:0:
192,192,58018,1,2,0:0:0:0:
64,192,58197,1,8,0:0:0:0:
448,192,58197,1,0,0:0:0:0:
320,192,58375,1,0,0:0:0:0:
64,192,58554,128,2,58911:0:0:0:0:
448,192,58554,128,0,58911:0:0:0:0:
320,192,58911,1,12,0:0:0:0:
320,192,59090,128,4,59447:0:0:0:0:
448,192,59090,1,2,0:0:0:0:
64,192,59447,1,8,0:0:0:0:
192,192,59447,128,4,59804:0:0:0:0:
64,192,59804,128,8,60161:0:0:0:0:
320,192,59804,1,4,0:0:0:0:
192,192,60161,1,8,0:0:0:0:
320,192,60161,1,0,0:0:0:0:
192,192,60340,1,8,0:0:0:0:
448,192,60518,1,2,0:0:0:0:
64,192,60697,128,8,61054:0:0:0:0:
192,192,60697,1,0,0:0:0:0:
192,192,61054,128,8,61411:0:0:0:0:
320,192,61054,1,0,0:0:0:0:
320,192,61411,128,2,61768:0:0:0:0:
448,192,61411,128,4,61768:0:0:0:0:
64,192,61768,1,8,0:0:0:0:
192,192,61768,1,0,0:0:0:0:
448,192,61947,128,2,62304:0:0:0:0:
192,192,62304,1,2,0:0:0:0:
192,192,62482,1,8,0:0:0:0:
448,192,62482,1,0,0:0:0:0:
64,192,62661,128,0,63018:0:0:0:0:
448,192,62840,1,2,0:0:0:0:
192,192,63018,1,0,0:0:0:0:
192,192,63197,1,8,0:0:0:0:
320,192,63197,128,0,63554:0:0:0:0:
448,192,63554,1,0,0:0:0:0:
192,192,63732,1,2,0:0:0:0:
64,192,63911,1,8,0:0:0:0:
320,192,63911,1,0,0:0:0:0:
320,192,64090,1,0,0:0:0:0:
192,192,64268,128,2,64625:0:0:0:0:
448,192,64268,1,0,0:0:0:0:
320,192,64625,1,8,0:0:0:0:
448,192,64625,1,0,0:0:0:0:
64,192,64804,128,2,65161:0:0:0:0:
192,192,65161,1,2,0:0:0:0:
64,192,65340,1,8,0:0:0:0:
192,192,65340,1,0,0:0:0:0:
448,192,65518,1,0,0:0:0:0:
192,192,65697,1,2,0:0:0:0:
448,192,65697,128,0,66054:0:0:0:0:
192,192,66054,1,8,0:0:0:0:
320,192,66054,1,0,0:0:0:0:
64,192,66233,1,2,0:0:0:0:
64,192,66411,128,2,66768:0:0:0:0:
192,192,66411,1,0,0:0:0:0:
320,192,66768,1,8,0:0:0:0:
448,192,66768,128,4,67125:0:0:0:0:
192,192,67125,128,2,67483:0:0:0:0:
320,192,67125,1,4,0:0:0:0:
448,192,67483,1,8,0:0:0:0:
192,192,67661,1,2,0:0:0:0:
448,192,67661,128,4,68018:0:0:0:0:
64,192,68018,1,2,0:0:0:0:
320,192,68197,1,8,0:0:0:0:
192,192,68375,1,2,0:0:0:0:
320,192,68375,128,0,68733:0:0:0:0:
64,192,68554,1,6,0:0:0:0:
448,192,68733,1,0,0:0:0:0:
192,192,68911,1,8,0:0:0:0:
64,192,69090,1,2,0:0:0:0:
192,192,69090,128,4,69447:0:0:0:0:
320,192,69447,1,2,0:0:0:0:
320,192,69625,1,8,0:0:0:0:
448,192,69625,1,0,0:0:0:0:
64,192,69804,1,8,0:0:0:0:
64,192,69983,128,2,70340:0:0:0:0:
448,192,69983,128,0,70340:0:0:0:0:
320,192,70340,1,8,0:0:0:0:
192,192,70518,1,2,0:0:0:0:
192,192,70697,128,2,71054:0:0:0:0:
448,192,70697,1,0,0:0:0:0:
320,192,70875,1,6,0:0:0:0:
64,192,71054,1,6,0:0:0:0:
192,192,71233,1,0,0:0:0:0:
448,192,71233,128,0,71590:0:0:0:0:
320,192,71590,1,12,0:0:0:0:
64,192,71768,1,4,0:0:0:0:
320,192,71768,128,8,72125:0:0:0:0:
448,192,72125,1,0,0:0:0:0:
320,192,72304,1,0,0:0:0:0:
64,192,72482,1,0,0:0:0:0:
192,192,72661,1,0,0:0:0:0:
320,192,72840,1,2,0:0:0:0:
448,192,72840,128,4,73197:0:0:0:0:
192,192,73197,1,8,0:0:0:0:
320,192,73375,128,2,73732:0:0:0:0:
64,192,73732,1,2,0:0:0:0:
192,192,73911,128,8,74268:0:0:0:0:
64,192,74268,128,2,74625:0:0:0:0:
320,192,74268,1,0,0:0:0:0:
320,192,74625,1,8,0:0:0:0:
448,192,74804,128,2,75161:0:0:0:0:
192,192,75161,1,2,0:0:0:0:
320,192,75340,1,8,0:0:0:0:
448,192,75340,1,0,0:0:0:0:
64,192,75697,128,2,76054:0:0:0:0:
192,192,75697,1,0,0:0:0:0:
320,192,76054,1,8,0:0:0:0:
192,192,76232,128,2,76590:0:0:0:0:
448,192,76590,1,2,0:0:0:0:
320,192,76768,128,8,77125:0:0:0:0:
192,192,77125,1,2,0:0:0:0:
448,192,77125,128,0,77482:0:0:0:0:
192,192,77482,1,8,0:0:0:0:
64,192,77661,128,0,78018:0:0:0:0:
320,192,78018,1,2,0:0:0:0:
64,192,78197,1,8,0:0:0:0:
192,192,78375,1,0,0:0:0:0:
320,192,78554,128,2,78911:0:0:0:0:
448,192,78554,1,0,0:0:0:0:
64,192,78911,1,8,0:0:0:0:
192,192,79090,128,2,79447:0:0:0:0:
448,192,79447,1,2,0:0:0:0:
64,192,79625,1,8,0:0:0:0:
448,192,79804,128,0,80161:0:0:0:0:
64,192,79982,1,2,0:0:0:0:
192,192,80161,1,0,0:0:0:0:
320,192,80340,1,8,0:0:0:0:
448,192,80518,1,2,0:0:0:0:
192,192,80697,1,0,0:0:0:0:
64,192,80875,128,2,81232:0:0:0:0:
320,192,81232,1,0,0:0:0:0:
192,192,81411,128,2,81768:0:0:0:0:
448,192,81411,1,0,0:0:0:0:
448,192,81768,1,8,0:0:0:0:
64,192,81947,1,2,0:0:0:0:
320,192,81947,128,4,82304:0:0:0:0:
64,192,82304,128,8,82661:0:0:0:0:
448,192,82304,1,0,0:0:0:0:
320,192,82661,1,4,0:0:0:0:
448,192,82661,128,2,83018:0:0:0:0:
64,192,83018,1,8,0:0:0:0:
320,192,83197,1,8,0:0:0:0:
448,192,83375,1,2,0:0:0:0:
192,192,83554,1,8,0:0:0:0:
64,192,83732,128,8,84090:0:0:0:0:
320,192,83732,1,4,0:0:0:0:
448,192,84090,1,8,0:0:0:0:
64,192,84268,1,2,0:0:0:0:
192,192,84268,128,4,84625:0:0:0:0:
320,192,84625,1,2,0:0:0:0:
192,192,84804,1,8,0:0:0:0:
448,192,84804,128,4,85161:0:0:0:0:
64,192,85161,1,8,0:0:0:0:
192,192,85340,1,2,0:0:0:0:
448,192,85518,1,4,0:0:0:0:
320,192,85518,128,2,87840:0:0:0:0:
