osu file format v14

[General]
AudioFilename: audio.mp3
AudioLeadIn: 0
PreviewTime: 160578
Countdown: 1
SampleSet: Soft
StackLeniency: 0.5
Mode: 0
LetterboxInBreaks: 0
WidescreenStoryboard: 0

[Editor]
Bookmarks: 26837,53690,68795,83899,97326,110753,130892,145997,161102,174529,187955,201382,214809,215228,228235,241662,258445,271871,286976,307011
DistanceSpacing: 1
BeatDivisor: 4
GridSize: 4
TimelineZoom: 2.9

[Metadata]
Title:Trancing Pulse
TitleUnicode:Trancing Pulse
Artist:Triad Primus
ArtistUnicode:Triad Primus
Creator:Ayalis
Version:Coll@b
Source:アイドルマスター シンデレラガールズ
Tags:GimBab THE IDOLM@STER CINDERELLA GIRLS ANIMATION PROJECT 2nd Season 05 starlight stage スターライトステージ
BeatmapID:966335
BeatmapSetID:450406

[Difficulty]
HPDrainRate:6.9
CircleSize:4.2
OverallDifficulty:7.4
ApproachRate:9
SliderMultiplier:2.3
SliderTickRate:1

[Events]
//Background and Video events
0,0,"tp.jpg",0,0
//Break Periods
//Storyboard Layer 0 (Background)
//Storyboard Layer 1 (Fail)
//Storyboard Layer 2 (Pass)
//Storyboard Layer 3 (Foreground)
//Storyboard Sound Samples

[TimingPoints]
1251,530.973451327434,4,2,1,50,1,0
7091,-100,4,2,1,10,0,0
7622,-111.111111111111,4,2,0,30,0,0
23552,495.867768595041,4,2,1,50,1,0
24791,472.44094488189,4,2,1,50,1,0
25735,431.654676258993,4,2,1,50,1,0
26837,419.58041958042,4,2,1,80,1,0
28515,-111.111111111111,4,2,1,80,0,0
33130,-111.111111111111,4,2,1,65,0,0
33550,-111.111111111111,4,2,1,80,0,0
40263,-111.111111111111,4,2,1,65,0,0
52011,-83.3333333333333,4,2,1,80,0,0
53690,-100,4,2,1,80,0,0
68095,-100,4,2,1,5,0,0
68235,-100,4,2,1,80,0,0
68375,-100,4,2,1,5,0,0
68515,-100,4,2,1,80,0,0
68655,-100,4,2,1,5,0,0
68795,-166.666666666667,4,2,3,50,0,0
68899,-166.666666666667,4,2,1,50,0,0
70053,-111.111111111111,4,2,1,80,0,0
70473,-166.666666666666,4,2,1,50,0,0
71732,-111.111111111111,4,2,1,80,0,0
72151,-166.666666666666,4,2,1,50,0,0
73410,-111.111111111111,4,2,1,80,0,0
73830,-166.666666666666,4,2,1,50,0,0
74669,-142.857142857142,4,2,1,50,0,0
75508,-111.111111111111,4,2,1,80,0,0
83899,-100,4,2,1,90,0,1
110753,-111.111111111111,4,2,1,80,0,0
112221,-83.3333333333333,4,2,1,80,0,0
112431,-111.111111111111,4,2,1,80,0,0
117466,-153.846153846154,4,2,1,50,0,0
118095,-153.846153846154,4,2,0,50,0,0
124179,-153.846153846154,4,2,2,50,0,0
130053,-153.846153846154,4,2,1,70,0,0
130473,-117.647058823529,4,2,1,80,0,0
130892,-100,4,2,1,80,0,0
131941,-100,4,2,1,5,0,0
132046,-100,4,2,1,80,0,0
132256,-100,4,2,1,5,0,0
132361,-100,4,2,1,80,0,0
143480,-125,4,2,1,80,0,0
143899,-111.111111111111,4,2,1,80,0,0
145997,-153.846153846154,4,2,3,50,0,0
146102,-153.846153846154,4,2,1,50,0,0
147256,-153.846153846154,4,2,1,80,0,0
147676,-153.846153846154,4,2,1,50,0,0
148934,-153.846153846154,4,2,1,80,0,0
149354,-153.846153846154,4,2,1,50,0,0
150613,-153.846153846154,4,2,1,80,0,0
150718,-153.846153846154,4,2,1,50,0,0
152711,-111.111111111111,4,2,1,80,0,0
160683,-111.111111111111,4,2,1,50,0,0
161102,-100,4,2,1,90,0,1
187955,-100,4,2,1,80,0,0
215228,-83.3333333333333,4,2,1,80,0,0
215438,-100,4,2,1,80,0,0
228235,-200,4,2,0,50,0,0
241662,-200,4,2,1,50,0,0
256347,-166.666666666667,4,2,1,50,0,0
256557,-142.857142857143,4,2,1,50,0,0
256767,-125,4,2,1,50,0,0
258445,-133.333333333333,4,2,1,60,0,0
258760,-100,4,2,1,5,0,0
258864,-83.3333333333333,4,2,1,90,0,1
259284,-100,4,2,1,90,0,1
286976,-100,4,2,1,80,0,0
302081,-172.413793103448,4,2,1,80,0,0
302186,-172.413793103448,4,2,1,50,0,0
307011,-172.413793103448,4,2,1,30,0,0

[Colours]
Combo1 : 0,128,255
Combo2 : 188,188,188
Combo3 : 51,51,51
Combo4 : 15,15,255
Combo5 : 6,255,255

[HitObjects]
256,192,1781,12,0,7091,0:0:0:0:
64,104,7622,6,0,P|90:113|132:108,1,51.7499984207154
244,72,7888,2,0,P|218:63|176:68,1,51.7499984207154
160,188,8153,6,0,B|124:272|188:248|160:340,2,155.249995262146,2|0|0,0:0|0:0|0:0,0:0:0:0:
336,256,9215,2,0,P|392:304|472:272,2,155.249995262146,2|0|0,0:0|0:0|0:0,0:0:0:0:
312,96,10277,2,0,P|240:73|184:122,1,155.249995262146,2|0,0:0|0:0,0:0:0:0:
44,76,11074,1,0,0:0:0:0:
84,152,11339,2,0,P|66:247|102:351,1,206.999993682861,2|0,0:0|0:0,0:0:0:0:
320,296,12401,54,0,P|396:296|484:328,2,155.249995262146,2|0|0,0:0|0:0|0:0,0:0:0:0:
244,192,13463,2,0,P|260:112|314:61,2,155.249995262146,2|0|0,0:0|0:0|0:0,0:0:0:0:
200,328,14525,2,0,P|124:343|56:263,1,155.249995262146,2|0,0:0|0:0,0:0:0:0:
44,132,15321,1,0,0:0:0:0:
132,104,15587,1,2,0:0:0:0:
424,148,16118,2,0,P|433:122|428:80,1,51.7499984207154
328,52,16383,2,0,P|319:78|324:120,1,51.7499984207154
352,184,16649,6,0,P|436:212|372:268,1,206.999993682861,2|0,0:0|0:0,0:0:0:0:
220,336,17445,2,0,P|195:323|153:322,1,51.7499984207154
72,344,17711,2,0,B|63:196|63:196|74:226|110:256,1,206.999993682861,2|0,0:0|0:0,0:0:0:0:
416,280,18773,53,2,0:0:0:0:
300,168,19171,1,2,0:0:0:0:
262,325,19569,1,2,0:0:0:0:
451,113,19835,5,2,0:0:0:0:
326,255,20233,1,0,0:0:0:0:
263,76,20631,1,2,0:0:0:0:
136,320,21162,53,2,0:0:0:0:
95,193,21427,1,2,0:0:0:0:
256,192,21560,12,4,26837,0:0:0:0:
81,221,27466,21,0,0:0:0:0:
75,237,27571,1,0,0:0:0:0:
69,253,27676,1,0,0:0:0:0:
194,100,28305,1,0,0:0:0:0:
194,100,28410,1,0,0:0:0:0:
194,100,28515,6,0,P|118:108|59:61,2,155.249995262146,6|0|2,0:0|0:0|0:0,0:0:0:0:
299,147,29354,2,0,B|377:124|374:186|452:160,2,155.249995262146,6|2|4,0:0|0:0|0:3,0:0:0:0:
330,230,30193,5,4,0:1:0:0:
422,74,30823,1,0,0:0:0:0:
425,58,30927,1,0,0:0:0:0:
428,42,31032,1,0,0:0:0:0:
232,77,31662,1,0,0:0:0:0:
232,77,31767,1,0,0:0:0:0:
232,77,31871,38,0,P|216:152|224:229,2,155.249995262146,6|2|2,0:0|0:0|0:0,0:0:0:0:
265,320,32711,2,0,P|211:267|137:279,1,155.249995262146,6|0,0:0|0:0,0:0:0:0:
112,312,33130,2,0,L|106:260,1,51.7499984207154,8|8,0:0|0:0,0:0:0:0:
31,220,33340,2,0,L|36:168,1,51.7499984207154,8|8,0:0|0:0,0:0:0:0:
105,69,33550,6,0,B|154:35|213:27|263:50|263:50|228:81,1,206.999993682861,6|8,0:0|0:0,0:0:0:0:
152,230,34179,1,0,0:0:0:0:
152,230,34284,1,0,0:0:0:0:
152,230,34389,2,0,P|143:179|164:133,1,103.499996841431,2|0,0:0|0:0,0:0:0:0:
314,177,34809,1,8,0:0:0:0:
345,203,34913,1,0,0:0:0:0:
384,216,35018,1,0,0:0:0:0:
425,211,35123,1,0,0:0:0:0:
458,190,35228,6,0,P|481:144|472:94,1,103.499996841431,2|0,0:0|0:0,0:0:0:0:
473,95,35543,1,0,0:0:0:0:
473,95,35648,1,8,0:0:0:0:
406,304,35857,1,0,0:0:0:0:
406,304,35962,1,0,0:0:0:0:
406,304,36067,2,0,P|361:279|310:287,1,103.499996841431,2|0,0:0|0:0,0:0:0:0:
293,297,36382,1,0,0:0:0:0:
278,311,36487,1,8,0:0:0:0:
140,250,36697,1,0,0:0:0:0:
140,250,36906,38,0,L|144:353,1,103.499996841431,2|0,0:0|0:0,0:0:0:0:
28,220,37326,2,0,P|10:171|19:121,1,103.499996841431,8|0,0:0|0:0,0:0:0:0:
19,121,37641,1,0,0:0:0:0:
19,121,37746,1,2,0:0:0:0:
156,68,37955,2,0,L|206:56,1,51.7499984207154
206,56,38165,2,0,L|196:160,1,103.499996841431,8|0,0:0|0:0,0:0:0:0:
89,320,38585,6,0,P|100:270|137:234,1,103.499996841431,2|0,0:0|0:0,0:0:0:0:
232,254,39004,2,0,B|323:283|294:215|382:244,1,155.249995262146,8|0,0:0|0:0,0:0:0:0:
408,257,39424,5,2,0:0:0:0:
266,169,39634,1,8,0:0:0:0:
402,91,39843,1,8,0:0:0:0:
348,310,40053,1,0,0:0:0:0:
348,310,40158,1,0,0:0:0:0:
348,310,40263,38,0,L|244:305,1,103.499996841431,2|0,0:0|0:0,0:0:0:0:
115,348,40683,2,0,P|76:310|74:240,1,103.499996841431,2|0,0:0|0:0,0:0:0:0:
188,108,41102,2,0,L|182:211,1,103.499996841431,2|0,0:0|0:0,0:0:0:0:
58,154,41522,2,0,L|63:50,1,103.499996841431,2|0,0:0|0:0,0:0:0:0:
317,67,41941,6,0,B|311:146|311:146|328:188|328:188|322:271,1,206.999993682861,2|2,0:0|0:0,0:0:0:0:
223,343,42571,1,0,0:0:0:0:
223,343,42676,1,0,0:0:0:0:
223,343,42781,2,0,P|294:273|389:299,1,206.999993682861,2|2,0:0|0:0,0:0:0:0:
380,160,43410,1,0,0:0:0:0:
242,219,43620,6,0,L|249:371,1,103.499996841431,2|0,0:0|0:0,0:0:0:0:
246,322,43934,1,0,0:0:0:0:
246,322,44039,1,2,0:0:0:0:
332,192,44249,1,0,0:0:0:0:
408,256,44459,2,0,B|428:308|428:308|408:352,1,103.499996841431,2|0,0:0|0:0,0:0:0:0:
204,240,44878,2,0,B|184:188|184:188|204:144,1,103.499996841431,2|0,0:0|0:0,0:0:0:0:
245,334,45298,38,0,B|177:324|177:324|112:355|112:355|45:346,1,206.999993682861,2|2,0:0|0:0,0:0:0:0:
97,258,45927,1,0,0:0:0:0:
108,229,46032,1,0,0:0:0:0:
105,198,46137,1,2,0:0:0:0:
95,168,46242,1,0,0:0:0:0:
77,142,46347,1,0,0:0:0:0:
67,112,46452,1,0,0:0:0:0:
64,81,46557,1,2,0:0:0:0:
75,52,46662,1,0,0:0:0:0:
95,28,46767,1,0,0:0:0:0:
12,216,46976,6,0,B|168:201|168:201|128:235,1,206.999993682861,2|2,0:0|0:0,0:0:0:0:
68,305,47606,1,0,0:0:0:0:
24,120,47816,2,0,P|13:69|34:23,1,103.499996841431,2|0,0:0|0:0,0:0:0:0:
227,180,48235,2,0,P|236:229|215:275,1,103.499996841431,2|0,0:0|0:0,0:0:0:0:
100,300,48655,6,0,L|116:93,1,206.999993682861,2|2,0:0|0:0,0:0:0:0:
233,28,49284,1,0,0:0:0:0:
233,28,49389,1,0,0:0:0:0:
233,28,49494,2,0,P|277:56|328:61,1,103.499996841431,2|0,0:0|0:0,0:0:0:0:
512,106,49913,2,0,P|488:60|446:30,1,103.499996841431,2|0,0:0|0:0,0:0:0:0:
398,137,50333,38,0,B|359:242|439:233|401:338,1,206.999993682861,2|2,0:0|0:0,0:0:0:0:
311,288,50962,1,0,0:0:0:0:
505,201,51172,1,2,0:0:0:0:
233,28,51592,1,2,0:0:0:0:
90,163,52011,6,0,P|68:226|90:290,1,137.999995788574,8|0,0:0|0:0,0:0:0:0:
183,226,52326,2,0,P|204:161|182:97,1,137.999995788574,8|0,0:0|0:0,0:0:0:0:
59,166,52641,1,8,0:0:0:0:
75,194,52746,1,0,0:0:0:0:
58,222,52850,5,2,0:0:0:0:
108,198,52955,1,0,0:0:0:0:
163,203,53060,1,0,0:0:0:0:
209,232,53165,1,0,0:0:0:0:
238,278,53270,1,2,0:0:0:0:
284,307,53375,1,0,0:0:0:0:
339,312,53480,1,0,0:0:0:0:
389,288,53585,1,0,0:0:0:0:
435,222,53690,37,4,0:0:0:0:
284,307,53899,1,0,0:0:0:0:
286,295,54004,1,0,0:0:0:0:
288,283,54109,1,8,0:0:0:0:
214,107,54319,1,0,0:0:0:0:
97,260,54529,1,2,0:0:0:0:
97,260,54634,2,0,B|130:263|130:263|164:234|164:234|218:239,1,115
238,301,54948,1,8,0:0:0:0:
93,148,55158,1,0,0:0:0:0:
337,63,55368,6,0,L|325:186,1,115,2|0,0:0|0:0,0:0:0:0:
326,177,55683,1,0,0:0:0:0:
326,177,55788,1,8,0:0:0:0:
180,300,55997,1,0,0:0:0:0:
65,144,56207,1,2,0:0:0:0:
65,144,56312,2,0,P|117:121|172:130,1,115
200,144,56627,2,0,P|230:144|254:129,1,57.5,8|0,0:0|0:0,0:0:0:0:
438,67,56837,2,0,P|412:53|384:53,1,57.5
309,226,57046,5,2,0:0:0:0:
467,152,57256,1,0,0:0:0:0:
467,152,57361,1,0,0:0:0:0:
467,152,57466,1,8,0:0:0:0:
386,338,57676,1,0,0:0:0:0:
210,239,57885,2,0,P|153:238|106:270,1,115,2|0,0:0|0:0,0:0:0:0:
386,338,58305,2,0,P|417:290|417:234,1,115,8|0,0:0|0:0,0:0:0:0:
344,76,58725,38,0,L|229:89,1,115,2|0,0:0|0:0,0:0:0:0:
229,89,59039,1,0,0:0:0:0:
229,89,59144,1,8,0:0:0:0:
280,254,59354,1,0,0:0:0:0:
289,284,59459,1,0,0:0:0:0:
279,313,59564,1,2,0:0:0:0:
303,298,59669,1,0,0:0:0:0:
331,295,59774,1,0,0:0:0:0:
357,304,59878,1,0,0:0:0:0:
381,319,59983,1,8,0:0:0:0:
409,319,60087,1,0,0:0:0:0:
435,309,60192,1,0,0:0:0:0:
452,285,60297,1,0,0:0:0:0:
393,231,60403,6,0,L|381:381,1,115,2|0,0:0|0:0,0:0:0:0:
231,68,60823,1,8,0:0:0:0:
233,79,60927,1,0,0:0:0:0:
235,91,61032,1,0,0:0:0:0:
237,103,61137,1,0,0:0:0:0:
239,115,61242,2,0,L|227:265,1,115,2|0,0:0|0:0,0:0:0:0:
96,346,61662,2,0,P|53:290|81:219,1,115,8|0,0:0|0:0,0:0:0:0:
77,67,62081,6,0,P|129:53|159:97,1,115,2|0,0:0|0:0,0:0:0:0:
249,271,62501,2,0,B|313:297|313:297|506:245,1,230,8|2,0:0|0:0,0:0:0:0:
370,70,63130,1,0,0:0:0:0:
370,70,63235,1,0,0:0:0:0:
370,70,63340,1,8,0:0:0:0:
298,225,63550,2,0,P|279:194|280:158,1,57.5
431,209,63760,38,0,L|414:363,1,115,2|0,0:0|0:0,0:0:0:0:
266,99,64179,1,8,0:0:0:0:
181,349,64389,2,0,B|150:237|208:293|179:165,1,172.5,8|0,0:0|0:0,0:0:0:0:
132,108,64809,2,0,P|102:98|14:133,1,115,2|8,0:0|0:0,0:0:0:0:
190,254,65228,6,0,P|274:229|283:139,1,172.5,2|0,0:0|0:0,0:0:0:0:
242,86,65648,1,2,0:0:0:0:
244,74,65753,1,0,0:0:0:0:
246,62,65858,1,8,0:0:0:0:
449,190,66067,1,0,0:0:0:0:
283,325,66277,5,2,0:0:0:0:
256,315,66382,1,0,0:0:0:0:
228,315,66487,1,0,0:0:0:0:
200,323,66592,1,0,0:0:0:0:
176,339,66697,1,8,0:0:0:0:
148,347,66802,1,0,0:0:0:0:
120,347,66907,1,0,0:0:0:0:
93,336,67012,1,0,0:0:0:0:
64,307,67116,37,2,0:0:0:0:
48,271,67221,1,0,0:0:0:0:
52,231,67326,1,0,0:0:0:0:
72,195,67431,1,0,0:0:0:0:
108,175,67536,1,8,0:0:0:0:
136,147,67641,1,0,0:0:0:0:
144,107,67746,1,2,0:0:0:0:
128,71,67850,1,0,0:0:0:0:
148,36,67955,6,0,P|176:32|220:81,1,76.6666666666667,8|0,0:0|0:0,0:0:0:0:
286,41,68235,6,0,P|274:67|210:81,1,76.6666666666667,8|0,0:0|0:0,0:0:0:0:
212,158,68515,38,0,P|195:135|215:72,1,76.6666666666667,8|0,0:0|0:0,0:0:0:0:
372,60,68795,54,0,B|409:42|409:42|473:50,2,103.499996841431,4|0|2,0:0|0:0|0:0,0:0:0:0:
304,139,69634,1,2,0:0:0:0:
395,324,70053,22,0,B|384:211|384:211|370:250,1,155.249995262146,8|0,0:0|0:0,0:0:0:0:
370,250,70473,22,0,P|421:259|467:238,2,103.499996841431,2|0|2,0:0|0:0|0:0,0:0:0:0:
409,165,71311,1,2,0:0:0:0:
246,35,71732,54,0,P|306:80|307:155,1,155.249995262146,8|0,0:0|0:0,0:0:0:0:
307,155,72151,22,0,B|267:150|267:150|248:136|248:136|208:132,2,103.499996841431,2|0|2,0:0|0:0|0:0,0:0:0:0:
211,218,72990,1,2,0:0:0:0:
209,331,73410,6,0,B|156:338|125:288|125:288|107:315|80:321,1,155.249995262146,8|0,2:0|2:0,2:0:0:0:
83,321,73830,38,0,P|51:261|65:196,1,137.999995788574,2|0,2:0|2:0,2:0:0:0:
143,109,74459,1,2,0:0:0:0:
143,109,74564,1,0,0:0:0:0:
143,109,74669,2,0,L|225:115,1,80.499997543335,2|0,0:0|0:0,0:0:0:0:
432,52,75088,37,8,0:0:0:0:
432,52,75193,1,8,0:0:0:0:
432,52,75298,1,8,0:0:0:0:
432,52,75403,1,8,0:0:0:0:
432,52,75508,6,0,B|465:106|465:106|444:248,1,206.999993682861,4|8,0:0|0:0,0:0:0:0:
369,339,76137,1,0,0:0:0:0:
369,339,76242,1,0,0:0:0:0:
369,339,76347,2,0,P|326:367|275:363,1,103.499996841431,2|0,0:0|0:0,0:0:0:0:
201,169,76767,2,0,P|243:141|294:145,1,103.499996841431,8|0,0:0|0:0,0:0:0:0:
382,255,77186,38,0,B|310:244|310:244|254:273|254:273|182:263,1,206.999993682861,2|8,0:0|0:0,0:0:0:0:
54,170,77816,1,0,0:0:0:0:
54,170,77920,1,0,0:0:0:0:
54,170,78025,1,2,0:0:0:0:
212,21,78340,1,2,0:0:0:0:
261,233,78655,1,2,0:0:0:0:
179,143,78864,1,2,0:0:0:0:
36,305,79284,5,8,0:0:0:0:
108,152,79494,1,0,0:0:0:0:
123,149,79599,1,0,0:0:0:0:
139,146,79704,2,0,P|189:157|234:133,1,103.499996841431,2|8,0:0|0:0,0:0:0:0:
234,134,80018,1,8,0:0:0:0:
234,134,80123,1,2,0:0:0:0:
57,81,80333,2,0,L|52:29,2,51.7499984207154,8|8|2,0:0|0:0|0:0,0:0:0:0:
128,230,80753,2,0,L|132:281,1,51.7499984207154
115,319,80962,5,8,0:0:0:0:
146,292,81067,1,0,0:0:0:0:
186,284,81172,1,0,0:0:0:0:
226,294,81277,1,0,0:0:0:0:
257,321,81382,1,2,0:0:0:0:
297,330,81487,1,0,0:0:0:0:
337,321,81592,1,0,0:0:0:0:
368,294,81697,1,0,0:0:0:0:
381,254,81802,1,8,0:0:0:0:
372,213,81906,1,0,0:0:0:0:
346,180,82011,1,0,0:0:0:0:
305,170,82116,1,0,0:0:0:0:
264,178,82221,37,2,0:0:0:0:
219,7,82536,1,8,0:0:0:0:
390,51,82850,1,8,0:0:0:0:
299,249,83060,2,0,L|295:300,1,51.7499984207154,8|8,0:0|0:0,0:0:0:0:
192,348,83270,2,0,L|196:297,1,51.7499984207154,8|8,0:0|0:0,0:0:0:0:
120,232,83480,6,0,L|92:236,3,25.8749992103577,2|2|2|2,0:0|0:0|0:0|0:0,0:0:0:0:
53,167,83690,2,0,L|28:156,3,25.8749992103577,2|2|2|2,0:0|0:0|0:0|0:0,0:0:0:0:
111,100,83899,6,0,B|132:101|155:92|155:92|180:107|180:107|234:76|292:101,1,172.5,6|0,0:0|0:0,0:0:0:0:
369,137,84319,2,0,P|405:90|391:32,1,115,8|0,0:0|0:0,0:0:0:0:
149,203,84739,2,0,P|153:289|247:329,1,172.5,2|0,0:0|0:0,0:0:0:0:
321,299,85158,2,0,B|367:307|367:307|385:299|385:299|432:307,1,115,8|0,0:0|0:0,0:0:0:0:
365,74,85578,37,2,0:0:0:0:
243,171,85788,1,0,0:0:0:0:
243,171,85892,1,0,0:0:0:0:
243,171,85997,1,8,0:0:0:0:
149,45,86207,1,0,0:0:0:0:
48,268,86417,2,0,P|119:231|101:153,1,172.5,2|0,0:0|0:0,0:0:0:0:
206,241,86837,2,0,P|243:280|238:337,1,115,8|0,0:0|0:0,0:0:0:0:
316,120,87256,5,2,0:0:0:0:
372,256,87466,1,0,0:0:0:0:
372,256,87571,1,0,0:0:0:0:
372,256,87676,2,0,P|416:300|472:276,1,115,8|0,0:0|0:0,0:0:0:0:
424,104,88095,2,0,P|380:60|324:84,1,115,2|0,0:0|0:0,0:0:0:0:
264,112,88410,2,0,P|209:122|174:80,1,115,2|0,0:0|0:0,0:0:0:0:
170,43,88725,1,2,0:0:0:0:
28,166,88934,5,2,0:0:0:0:
27,211,89038,1,0,0:0:0:0:
54,247,89143,1,0,0:0:0:0:
97,260,89248,1,0,0:0:0:0:
140,244,89353,1,8,0:0:0:0:
166,205,89459,1,0,0:0:0:0:
209,189,89564,1,0,0:0:0:0:
252,202,89669,1,0,0:0:0:0:
279,238,89774,1,2,0:0:0:0:
299,196,89879,1,0,0:0:0:0:
343,183,89984,1,0,0:0:0:0:
384,202,90088,1,0,0:0:0:0:
431,206,90193,1,8,0:0:0:0:
464,174,90298,1,0,0:0:0:0:
485,102,90403,38,0,L|480:28,1,57.5,8|8,0:0|0:0,0:0:0:0:
492,281,90613,1,2,0:0:0:0:
284,154,90822,5,0,0:0:0:0:
281,159,90927,1,0,0:0:0:0:
277,163,91032,2,0,L|272:89,1,57.5,8|0,0:0|0:0,0:0:0:0:
288,334,91242,1,0,0:0:0:0:
65,106,91452,5,2,0:0:0:0:
62,111,91557,1,0,0:0:0:0:
58,115,91662,2,0,L|53:41,1,57.5
67,299,91872,1,8,0:0:0:0:
216,229,92291,38,0,P|301:253|296:347,1,172.5,2|0,0:0|0:0,0:0:0:0:
397,243,92711,2,0,P|461:292|501:279,1,115,8|0,0:0|0:0,0:0:0:0:
414,68,93130,1,2,0:0:0:0:
391,72,93235,1,0,0:0:0:0:
368,76,93340,1,0,0:0:0:0:
345,79,93445,1,0,0:0:0:0:
311,102,93550,2,0,L|299:194,1,57.5,8|0,0:0|0:0,0:0:0:0:
156,335,93760,2,0,L|148:277,1,57.5
52,130,93969,6,0,L|175:146,1,115,2|0,0:0|0:0,0:0:0:0:
264,44,94389,1,8,0:0:0:0:
302,309,94599,2,0,P|376:260|369:198,1,115,0|2,0:0|0:0,0:0:0:0:
259,155,95018,1,0,0:0:0:0:
259,155,95123,1,0,0:0:0:0:
259,155,95228,1,8,0:0:0:0:
63,311,95438,6,0,B|122:299|122:299|176:325|176:325|248:313,1,172.5
305,298,95857,1,2,0:0:0:0:
434,117,96067,1,2,0:0:0:0:
475,353,96277,1,2,0:0:0:0:
423,153,96487,37,2,0:0:0:0:
422,147,96592,1,0,0:0:0:0:
421,141,96697,1,2,0:0:0:0:
420,135,96802,1,0,0:0:0:0:
432,104,96906,5,2,0:0:0:0:
389,54,97011,1,2,0:0:0:0:
330,78,97116,1,2,0:0:0:0:
336,139,97221,1,2,0:0:0:0:
399,154,97327,6,0,B|443:163|470:132|470:132|443:196|508:245,1,172.5,6|0,0:0|0:0,0:0:0:0:
414,73,97746,2,0,P|368:39|313:45,1,115,8|0,0:0|0:0,0:0:0:0:
64,116,98165,2,0,B|93:103|127:109|127:109|170:132|170:132|202:138|230:126,1,172.5,2|0,0:0|0:0,0:0:0:0:
104,192,98585,2,0,P|73:238|84:293,1,115,8|0,0:0|0:0,0:0:0:0:
272,332,99004,38,0,L|266:217,1,115,2|0,0:0|0:0,0:0:0:0:
266,217,99319,1,0,0:0:0:0:
266,217,99424,1,8,0:0:0:0:
188,44,99633,1,0,0:0:0:0:
69,193,99843,1,2,0:0:0:0:
57,187,99948,1,0,0:0:0:0:
47,179,100053,2,0,P|31:154|30:126,1,57.5
95,67,100263,2,0,P|123:64|148:77,1,57.5,8|0,0:0|0:0,0:0:0:0:
170,164,100473,2,0,P|157:188|133:203,1,57.5
47,179,100683,6,0,B|31:57|31:57|66:99,1,172.5,2|0,0:0|0:0,0:0:0:0:
127,157,101102,2,0,P|182:172|231:145,1,115,8|0,0:0|0:0,0:0:0:0:
324,59,101522,2,0,P|373:31|427:46,1,115,2|0,0:0|0:0,0:0:0:0:
427,46,101837,1,0,0:0:0:0:
427,46,101941,1,8,0:0:0:0:
354,183,102151,2,0,L|361:240,1,57.5
418,297,102361,5,2,0:0:0:0:
445,260,102466,1,0,0:0:0:0:
442,214,102571,1,2,0:0:0:0:
415,176,102676,1,2,0:0:0:0:
373,156,102781,1,8,0:0:0:0:
327,162,102885,1,0,0:0:0:0:
287,186,102990,1,2,0:0:0:0:
241,194,103095,1,0,0:0:0:0:
196,181,103200,1,2,0:0:0:0:
164,147,103305,1,0,0:0:0:0:
153,102,103410,1,2,0:0:0:0:
167,58,103515,1,2,0:0:0:0:
204,31,103620,2,0,L|263:35,1,57.5,2|2,0:0|0:0,0:0:0:0:
126,119,103830,2,0,L|67:115,1,57.5,2|2,0:0|0:0,0:0:0:0:
245,104,104039,37,2,0:0:0:0:
80,27,104248,1,4,0:0:0:0:
96,211,104459,1,8,0:0:0:0:
236,281,104670,1,2,0:0:0:0:
249,274,104774,1,0,0:0:0:0:
262,267,104879,2,0,B|388:279|388:279|343:296,2,172.5,2|2|2,0:0|0:0|0:0,0:0:0:0:
142,117,105718,5,8,0:0:0:0:
284,312,106032,1,8,0:0:0:0:
416,111,106347,1,8,0:0:0:0:
274,203,106557,5,8,0:0:0:0:
428,40,106871,1,2,0:0:0:0:
472,284,107186,1,8,0:0:0:0:
295,62,107396,37,2,0:0:0:0:
295,62,107606,1,8,0:0:0:0:
295,62,107816,2,0,L|409:72,1,115,2|8,0:0|0:0,0:0:0:0:
308,147,108130,1,0,0:0:0:0:
308,147,108235,2,0,L|422:157,1,115,2|8,0:0|0:0,0:0:0:0:
321,232,108550,1,0,0:0:0:0:
321,232,108655,2,0,L|435:242,1,115,2|8,0:0|0:0,0:0:0:0:
362,321,108969,1,0,0:0:0:0:
362,321,109074,5,2,0:0:0:0:
323,346,109179,1,2,0:0:0:0:
277,349,109284,1,2,0:0:0:0:
235,329,109389,1,2,0:0:0:0:
210,290,109494,1,2,0:0:0:0:
205,244,109599,1,2,0:0:0:0:
223,201,109704,1,2,0:0:0:0:
225,155,109809,1,2,0:0:0:0:
206,113,109913,1,2,0:0:0:0:
172,81,110018,1,2,0:0:0:0:
126,73,110123,1,2,0:0:0:0:
82,87,110228,1,2,0:0:0:0:
49,119,110333,1,2,0:0:0:0:
36,163,110438,1,2,0:0:0:0:
41,208,110543,1,2,0:0:0:0:
67,245,110648,1,2,0:0:0:0:
109,264,110753,6,0,P|187:222|275:246,2,155.249995262146,4|8|2,0:0|0:0|0:0,0:0:0:0:
109,264,111487,1,0,0:0:0:0:
109,264,111592,1,0,0:0:0:0:
398,349,111802,1,2,0:0:0:0:
407,345,111907,1,0,0:0:0:0:
416,340,112011,2,0,L|424:272,1,51.7499984207154,8|0,0:0|0:0,0:0:0:0:
433,197,112221,2,0,L|442:117,1,68.9999978942872
450,37,112431,38,0,B|366:6|382:69|298:37,2,155.249995262146,2|8|2,0:0|0:0|0:0,0:0:0:0:
415,111,113165,1,0,0:0:0:0:
416,118,113270,1,0,0:0:0:0:
161,54,113480,2,0,P|137:54|90:83,1,51.7499984207154,2|0,0:0|0:0,0:0:0:0:
155,264,113690,2,0,L|168:159,1,103.499996841431,8|8,0:0|0:0,0:0:0:0:
158,142,114004,1,8,0:0:0:0:
147,124,114109,6,0,L|123:304,1,155.249995262146,2|0,0:0|0:0,0:0:0:0:
184,332,114529,2,0,P|251:314|250:244,1,103.499996841431,8|0,0:0|0:0,0:0:0:0:
288,208,114843,1,0,0:0:0:0:
278,185,114948,2,0,P|271:113|328:31,2,155.249995262146,2|2|2,0:0|0:0|0:0,0:0:0:0:
375,326,115788,5,2,0:0:0:0:
441,233,115997,1,0,0:0:0:0:
441,233,116102,1,0,0:0:0:0:
441,233,116207,2,0,P|392:205|347:216,1,103.499996841431,8|0,0:0|0:0,0:0:0:0:
131,325,116627,1,2,0:0:0:0:
129,330,116732,1,2,0:0:0:0:
126,334,116837,2,0,P|116:304|116:260,1,51.7499984207154,8|0,0:0|0:0,0:0:0:0:
164,208,117046,2,0,P|174:178|174:134,1,51.7499984207154,2|0,0:0|0:0,0:0:0:0:
116,80,117256,2,0,L|108:24,2,51.7499984207154,8|0|2,0:0|0:0|0:0,0:0:0:0:
75,257,118095,21,0,0:0:0:0:
231,193,118305,2,0,P|245:139|228:86,1,112.124994867325
229,87,118725,1,2,0:0:0:0:
61,294,119144,1,0,0:0:0:0:
202,342,119459,1,0,0:0:0:0:
173,197,119774,1,0,0:0:0:0:
173,197,119879,1,0,0:0:0:0:
173,197,119983,1,0,0:0:0:0:
358,328,120403,1,2,0:0:0:0:
272,220,120613,53,0,0:0:0:0:
272,220,120718,1,0,0:0:0:0:
272,220,120823,1,0,0:0:0:0:
408,68,121137,1,0,0:0:0:0:
460,264,121452,1,0,0:0:0:0:
385,183,121662,1,0,0:0:0:0:
385,183,121767,1,0,0:0:0:0:
385,183,121871,1,0,0:0:0:0:
350,332,122081,1,2,0:0:0:0:
126,308,122501,5,0,0:0:0:0:
62,186,122711,1,0,0:0:0:0:
65,141,122815,1,0,0:0:0:0:
88,102,122920,1,0,0:0:0:0:
119,76,123025,1,0,0:0:0:0:
158,63,123130,1,0,0:0:0:0:
195,64,123235,1,0,0:0:0:0:
230,76,123340,1,0,0:0:0:0:
254,98,123445,1,0,0:0:0:0:
283,113,123550,1,0,0:0:0:0:
316,117,123655,1,0,0:0:0:0:
349,111,123760,1,2,0:0:0:0:
377,94,123864,1,0,0:0:0:0:
392,64,123969,1,0,0:0:0:0:
240,264,124179,53,2,0:0:0:0:
120,220,124389,1,0,0:0:0:0:
120,220,124494,1,0,0:0:0:0:
120,220,124599,2,0,L|132:138,1,74.7499965782167,2|0,0:0|0:0,0:0:0:0:
308,64,125018,2,0,L|297:137,1,74.7499965782167,2|0,0:0|0:0,0:0:0:0:
212,236,125438,1,2,0:0:0:0:
297,334,125648,1,2,0:0:0:0:
297,334,125753,1,2,0:0:0:0:
297,334,125857,6,0,B|364:303|377:362|446:334,1,149.499993156433,2|2,0:0|0:0,0:0:0:0:
404,196,126697,1,2,0:0:0:0:
407,179,126802,1,2,0:0:0:0:
410,162,126907,1,2,0:0:0:0:
285,47,127116,1,2,0:0:0:0:
198,195,127326,1,2,0:0:0:0:
195,206,127431,1,2,0:0:0:0:
192,218,127536,53,2,0:0:0:0:
166,197,127640,1,0,0:0:0:0:
133,190,127745,1,0,0:0:0:0:
101,200,127850,1,0,0:0:0:0:
78,224,127955,1,2,0:0:0:0:
68,256,128060,1,0,0:0:0:0:
75,288,128165,1,0,0:0:0:0:
96,314,128270,1,0,0:0:0:0:
127,326,128375,1,2,0:0:0:0:
160,323,128480,1,0,0:0:0:0:
188,304,128584,1,0,0:0:0:0:
208,282,128690,1,0,0:0:0:0:
239,269,128795,1,2,0:0:0:0:
268,268,128900,1,0,0:0:0:0:
296,277,129004,1,0,0:0:0:0:
319,295,129109,1,0,0:0:0:0:
334,320,129214,6,0,L|338:338,4,18.6874991445542
461,235,129529,2,0,L|465:216,4,18.6874991445542
456,320,129843,2,0,P|434:315|406:302,1,37.3749982891084
364,144,130053,5,0,0:0:0:0:
334,121,130158,1,0,0:0:0:0:
325,84,130263,2,0,P|331:63|346:36,1,37.3749982891084
233,163,130473,5,0,0:0:0:0:
190,132,130578,1,0,0:0:0:0:
187,80,130683,2,0,P|191:60|212:29,1,48.8750009322167
49,64,130892,21,2,0:0:0:0:
49,64,131312,54,0,P|63:119|70:176,1,115,4|0,0:0|0:0,0:0:0:0:
142,334,131732,1,2,0:0:0:0:
148,311,131837,2,0,L|140:255,1,57.5
201,177,132046,1,2,0:0:0:0:
207,154,132151,2,0,L|199:98,1,57.5
161,5,132361,1,2,0:0:0:0:
156,20,132466,1,2,0:0:0:0:
151,35,132571,38,0,P|200:64|256:55,1,115,2|0,0:0|0:0,0:0:0:0:
287,39,132885,2,0,P|342:30|391:58,1,115,2|0,0:0|0:0,0:0:0:0:
424,43,133200,1,2,0:0:0:0:
417,94,133305,1,0,0:0:0:0:
410,145,133410,1,2,0:0:0:0:
402,195,133515,2,0,P|355:165|300:175,1,115
259,208,133830,2,0,L|268:264,1,57.5,8|0,0:0|0:0,0:0:0:0:
122,148,134039,2,0,L|131:92,1,57.5
141,292,134249,5,2,0:0:0:0:
40,150,134459,1,0,0:0:0:0:
52,177,134564,1,0,0:0:0:0:
64,204,134669,2,0,B|107:211|107:211|133:203|133:203|176:211,1,115,8|0,0:0|0:0,0:0:0:0:
321,330,135088,1,2,0:0:0:0:
321,330,135193,2,0,P|375:342|423:313,1,115
460,272,135508,2,0,L|452:158,1,115,8|0,0:0|0:0,0:0:0:0:
265,114,135927,6,0,L|255:227,1,115,2|0,0:0|0:0,0:0:0:0:
255,229,136242,1,0,0:0:0:0:
255,229,136347,1,8,0:0:0:0:
356,107,136557,1,0,0:0:0:0:
353,73,136662,1,0,0:0:0:0:
368,42,136767,1,2,0:0:0:0:
396,23,136871,1,0,0:0:0:0:
430,24,136976,1,0,0:0:0:0:
459,42,137081,1,0,0:0:0:0:
469,74,137186,1,8,0:0:0:0:
462,107,137291,1,0,0:0:0:0:
439,133,137396,1,0,0:0:0:0:
405,140,137501,1,0,0:0:0:0:
370,131,137606,38,0,B|284:103|293:176|205:148,1,172.5,2|0,0:0|0:0,0:0:0:0:
127,96,138025,1,8,0:0:0:0:
111,88,138130,1,0,0:0:0:0:
93,86,138235,1,0,0:0:0:0:
75,87,138340,1,0,0:0:0:0:
58,91,138445,2,0,P|39:145|51:200,1,115,2|0,0:0|0:0,0:0:0:0:
258,154,138864,2,0,P|276:100|264:45,1,115,8|0,0:0|0:0,0:0:0:0:
152,292,139284,6,0,P|259:312|323:224,2,230,2|8|2,0:0|0:0|0:0,0:0:0:0:
197,116,140333,1,0,0:0:0:0:
197,116,140438,1,0,0:0:0:0:
197,116,140543,2,0,P|230:161|223:217,1,115,8|0,0:0|0:0,0:0:0:0:
117,308,140962,5,2,0:0:0:0:
40,92,141382,1,8,0:0:0:0:
4,185,141592,2,0,P|60:191|109:164,1,115,2|0,0:0|0:0,0:0:0:0:
239,19,142011,2,0,P|183:13|134:40,1,115,2|8,0:0|0:0,0:0:0:0:
36,280,142431,38,0,B|95:301|142:258|142:258|191:212|250:237,1,230,2|2,0:0|0:0,0:0:0:0:
300,124,143060,2,0,P|356:122|403:154,1,115,8|0,0:0|0:0,0:0:0:0:
388,312,143480,2,0,L|342:319,3,46,2|0|0|0,0:0|0:0|0:0|0:0,0:0:0:0:
460,232,143899,2,0,L|511:240,3,51.7499984207154,8|0|0|0,0:0|0:0|0:0|0:0,0:0:0:0:
423,212,144319,5,2,0:0:0:0:
396,180,144424,1,0,0:0:0:0:
385,139,144529,1,0,0:0:0:0:
392,98,144634,1,0,0:0:0:0:
418,65,144739,1,2,0:0:0:0:
382,86,144843,1,0,0:0:0:0:
341,95,144948,1,2,0:0:0:0:
299,93,145053,1,0,0:0:0:0:
260,77,145158,5,8,0:0:0:0:
477,139,145438,37,8,0:0:0:0:
324,10,145718,5,8,0:0:0:0:
326,222,145997,38,0,B|338:149|338:149|382:117,2,112.124994867325,4|0|2,0:0|0:0|0:0,0:0:0:0:
401,338,146837,2,0,L|422:207,1,112.124994867325,2|0,0:0|0:0,0:0:0:0:
424,198,147256,37,8,0:0:0:0:
342,87,147676,6,0,P|292:61|238:69,2,112.124994867325,2|0|2,0:0|0:0|0:0,0:0:0:0:
154,229,148515,2,0,B|141:142|141:142|186:173,1,112.124994867325,2|0,0:0|0:0,0:0:0:0:
176,169,148934,21,8,0:0:0:0:
319,323,149354,54,0,B|363:326|363:326|382:314|382:314|434:319,2,112.124994867325,2|0|2,0:0|0:0|0:0,0:0:0:0:
245,223,150193,2,0,P|193:215|145:248,1,112.124994867325,2|0,0:0|0:0,0:0:0:0:
134,233,150613,22,0,L|122:312,1,74.7499965782167,8|0,0:0|0:0,0:0:0:0:
32,192,151032,22,0,P|23:123|62:49,1,149.499993156433,2|0,0:0|0:0,0:0:0:0:
202,113,151662,1,2,0:0:0:0:
202,113,151767,1,0,0:0:0:0:
202,113,151871,2,0,L|190:197,1,74.7499965782167,2|0,0:0|0:0,0:0:0:0:
404,311,152291,53,8,0:0:0:0:
404,311,152396,1,8,0:0:0:0:
404,311,152501,1,8,0:0:0:0:
404,311,152606,1,8,0:0:0:0:
404,311,152711,38,0,B|449:219|449:219|432:95,1,206.999993682861,2|8,0:0|0:0,0:0:0:0:
335,36,153340,1,0,0:0:0:0:
335,36,153445,1,0,0:0:0:0:
335,36,153550,2,0,P|297:91|317:164,1,103.499996841431,2|0,0:0|0:0,0:0:0:0:
192,221,153969,2,0,P|158:182|154:131,1,103.499996841431,8|0,0:0|0:0,0:0:0:0:
321,253,154389,6,0,P|295:323|141:331,1,206.999993682861,2|8,0:0|0:0,0:0:0:0:
49,241,155018,2,0,P|44:216|45:179,1,51.7499984207154
96,108,155228,1,2,0:0:0:0:
135,74,155333,1,2,0:0:0:0:
186,68,155438,1,2,0:0:0:0:
232,90,155543,1,2,0:0:0:0:
251,137,155648,1,2,0:0:0:0:
285,175,155753,1,2,0:0:0:0:
334,189,155857,1,2,0:0:0:0:
384,177,155962,1,2,0:0:0:0:
414,134,156067,6,0,P|426:103|423:69,1,68.9999978942872,2|0,0:0|0:0,0:0:0:0:
345,107,156347,2,0,P|377:92|398:65,1,68.9999978942872,2|0,0:0|0:0,0:0:0:0:
317,35,156627,2,0,P|349:47|383:43,1,68.9999978942872,2|0,0:0|0:0,0:0:0:0:
195,35,156906,2,0,P|162:47|129:43,1,68.9999978942872,2|0,0:0|0:0,0:0:0:0:
167,106,157186,2,0,P|136:93|115:66,1,68.9999978942872,2|0,0:0|0:0,0:0:0:0:
99,134,157466,2,0,P|87:103|90:69,1,68.9999978942872,2|0,0:0|0:0,0:0:0:0:
239,217,157746,38,0,L|227:286,1,51.7499984207154,2|0,0:0|0:0,0:0:0:0:
136,333,157955,1,0,0:0:0:0:
104,306,158059,1,0,0:0:0:0:
91,267,158164,1,0,0:0:0:0:
97,227,158269,1,0,0:0:0:0:
123,195,158374,1,2,0:0:0:0:
161,180,158479,1,0,0:0:0:0:
202,186,158585,1,8,0:0:0:0:
239,204,158690,1,0,0:0:0:0:
272,227,158794,1,0,0:0:0:0:
313,230,158899,1,0,0:0:0:0:
349,211,159004,1,0,0:0:0:0:
370,175,159109,1,0,0:0:0:0:
369,135,159214,1,2,0:0:0:0:
347,100,159319,1,0,0:0:0:0:
310,80,159424,6,0,B|236:73|236:73|221:58|221:58|150:51,2,155.249995262146,2|8|2,0:0|0:0|0:0,0:0:0:0:
428,159,160263,1,2,0:0:0:0:
423,200,160368,1,2,0:0:0:0:
420,241,160473,1,2,0:0:0:0:
416,282,160578,1,2,0:0:0:0:
410,323,160683,38,0,L|344:339,1,51.7499984207154
237,260,160892,2,0,L|171:250,1,51.7499984207154
87,298,161102,38,0,B|73:248|73:248|89:186|89:186|73:132,1,172.5,6|0,0:0|0:0,0:0:0:0:
161,248,161522,2,0,P|215:261|267:239,1,115,8|0,0:0|0:0,0:0:0:0:
360,40,161941,2,0,B|227:52|227:52|265:69,1,172.5,2|0,0:0|0:0,0:0:0:0:
388,121,162361,2,0,P|414:170|403:226,1,115,8|0,0:0|0:0,0:0:0:0:
208,326,162781,38,0,P|181:276|192:221,1,115,2|0,0:0|0:0,0:0:0:0:
192,222,163095,1,0,0:0:0:0:
192,222,163200,1,8,0:0:0:0:
448,52,163410,1,0,0:0:0:0:
436,305,163620,1,2,0:0:0:0:
424,312,163725,1,0,0:0:0:0:
411,315,163830,2,0,P|382:311|359:294,1,57.5
339,205,164039,2,0,P|356:182|382:170,1,57.5,8|0,0:0|0:0,0:0:0:0:
470,197,164250,2,0,P|480:223|478:251,1,57.5
411,315,164459,6,0,B|367:332|331:297|331:297|290:324|250:298,1,172.5,2|0,0:0|0:0,0:0:0:0:
387,243,164878,2,0,P|415:195|404:140,1,115,8|0,0:0|0:0,0:0:0:0:
226,40,165298,2,0,P|197:88|208:143,1,115,2|0,0:0|0:0,0:0:0:0:
208,143,165613,1,0,0:0:0:0:
208,143,165718,1,8,0:0:0:0:
70,76,165927,2,0,L|13:67,1,57.5
82,0,166137,5,2,0:0:0:0:
125,16,166242,1,0,0:0:0:0:
148,56,166347,1,0,0:0:0:0:
148,102,166452,1,0,0:0:0:0:
119,137,166557,1,8,0:0:0:0:
157,111,166662,1,0,0:0:0:0:
203,111,166767,1,0,0:0:0:0:
242,135,166872,1,0,0:0:0:0:
259,177,166976,1,2,0:0:0:0:
276,219,167081,1,0,0:0:0:0:
315,243,167186,1,0,0:0:0:0:
361,243,167291,1,0,0:0:0:0:
399,217,167396,1,8,0:0:0:0:
416,175,167501,1,0,0:0:0:0:
405,129,167606,1,8,0:0:0:0:
373,97,167711,1,8,0:0:0:0:
327,89,167816,37,2,0:0:0:0:
424,314,168025,2,0,L|418:257,1,57.5
250,137,168235,2,0,L|256:194,1,57.5,8|0,0:0|0:0,0:0:0:0:
333,280,168445,2,0,B|330:248|330:248|341:198|341:198|338:167,1,115,0|2,0:0|0:0,0:0:0:0:
250,137,168864,6,0,L|243:194,1,57.5
162,282,169074,2,0,B|165:250|165:250|154:200|154:200|158:169,1,115,8|0,0:0|0:0,0:0:0:0:
65,315,169494,6,0,L|72:258,3,57.5,2|0|0|2,0:0|0:0|0:0|0:0,0:0:0:0:
36,182,169913,2,0,L|29:125,3,57.5,8|0|0|0,0:0|0:0|0:0|0:0,0:0:0:0:
4,53,170333,1,2,0:0:0:0:
31,97,170438,1,0,0:0:0:0:
77,119,170543,1,0,0:0:0:0:
128,111,170648,1,0,0:0:0:0:
173,85,170753,1,8,0:0:0:0:
218,59,170857,1,0,0:0:0:0:
269,51,170962,1,0,0:0:0:0:
315,73,171067,1,0,0:0:0:0:
342,117,171172,37,2,0:0:0:0:
379,237,171381,1,0,0:0:0:0:
462,141,171592,1,8,0:0:0:0:
342,117,171802,2,0,L|228:132,1,115,0|2,0:0|0:0,0:0:0:0:
59,234,172221,2,0,L|173:219,1,115,0|8,0:0|0:0,0:0:0:0:
325,332,172641,6,0,P|406:350|468:295,1,172.5
468,295,173060,1,2,0:0:0:0:
273,243,173270,1,2,0:0:0:0:
381,254,173480,2,0,P|394:229|399:201,1,57.5,2|0,0:0|0:0,0:0:0:0:
390,124,173690,5,2,0:0:0:0:
380,90,173795,1,0,0:0:0:0:
380,55,173899,1,2,0:0:0:0:
396,24,174004,1,0,0:0:0:0:
367,43,174109,37,2,0:0:0:0:
333,49,174214,1,2,0:0:0:0:
298,47,174319,1,2,0:0:0:0:
265,35,174424,1,2,0:0:0:0:
235,18,174529,6,0,B|142:70|160:-6|66:45,1,172.5,6|0,0:0|0:0,0:0:0:0:
51,180,174948,2,0,P|104:167|124:115,1,115,8|0,0:0|0:0,0:0:0:0:
313,52,175368,2,0,B|381:44|435:83|435:83|340:111,1,172.5,2|0,0:0|0:0,0:0:0:0:
323,235,175788,2,0,P|294:187|313:135,1,115,8|0,0:0|0:0,0:0:0:0:
408,316,176207,5,2,0:0:0:0:
504,176,176417,1,0,0:0:0:0:
504,176,176522,1,0,0:0:0:0:
504,176,176627,1,8,0:0:0:0:
408,316,176837,1,0,0:0:0:0:
301,169,177046,2,0,P|246:156|197:185,1,115,2|0,0:0|0:0,0:0:0:0:
59,304,177466,2,0,B|40:176|40:176|80:220,1,172.5,8|0,0:0|0:0,0:0:0:0:
144,256,177885,38,0,B|184:228|191:188|191:188|220:220|272:216,1,172.5,2|0,0:0|0:0,0:0:0:0:
261,130,178305,2,0,P|229:86|249:26,1,115,8|0,0:0|0:0,0:0:0:0:
467,190,178725,2,0,P|423:222|363:202,1,115,2|0,0:0|0:0,0:0:0:0:
368,207,179039,1,0,0:0:0:0:
368,207,179144,1,8,0:0:0:0:
470,98,179354,2,0,L|479:42,1,57.5
455,199,179564,5,2,0:0:0:0:
216,80,179774,1,8,0:0:0:0:
252,58,179878,1,8,0:0:0:0:
295,69,179983,1,2,0:0:0:0:
468,192,180193,1,8,0:0:0:0:
431,170,180297,1,8,0:0:0:0:
388,181,180402,1,2,0:0:0:0:
160,250,180613,1,8,0:0:0:0:
203,249,180717,1,8,0:0:0:0:
234,280,180823,2,0,P|262:296|309:299,1,57.5,2|0,0:0|0:0,0:0:0:0:
389,202,181032,2,0,P|361:186|314:183,1,57.5,8|0,0:0|0:0,0:0:0:0:
413,332,181242,5,2,0:0:0:0:
477,70,181452,1,4,0:0:0:0:
423,297,181662,1,8,0:0:0:0:
284,120,181871,1,0,0:0:0:0:
284,120,181976,1,0,0:0:0:0:
284,120,182081,2,0,P|229:130|194:88,1,115,2|8,0:0|0:0,0:0:0:0:
123,49,182396,1,8,0:0:0:0:
101,71,182501,2,0,L|92:204,1,115,2|8,0:0|0:0,0:0:0:0:
88,284,182920,37,8,0:0:0:0:
233,136,183235,1,8,0:0:0:0:
258,336,183550,1,8,0:0:0:0:
152,252,183760,5,8,0:0:0:0:
331,93,184074,1,2,0:0:0:0:
405,320,184389,1,8,0:0:0:0:
469,94,184599,5,2,0:0:0:0:
349,38,184809,1,8,0:0:0:0:
441,186,185018,2,0,B|351:217|364:139|273:177,1,172.5,2|0,0:0|0:0,0:0:0:0:
249,202,185438,2,0,P|221:126|253:94,1,115,8|0,0:0|0:0,0:0:0:0:
335,49,185857,1,2,0:0:0:0:
452,184,186067,2,0,L|440:256,1,57.5,8|8,0:0|0:0,0:0:0:0:
380,320,186277,37,2,0:0:0:0:
340,341,186381,1,0,0:0:0:0:
294,340,186486,1,2,0:0:0:0:
256,315,186591,1,0,0:0:0:0:
235,275,186696,1,2,0:0:0:0:
237,230,186801,1,0,0:0:0:0:
260,192,186906,1,2,0:0:0:0:
264,146,187010,1,0,0:0:0:0:
245,105,187115,1,2,0:0:0:0:
207,79,187220,1,0,0:0:0:0:
162,75,187325,1,2,0:0:0:0:
121,94,187430,1,0,0:0:0:0:
95,131,187535,1,2,0:0:0:0:
91,177,187640,1,2,0:0:0:0:
110,218,187745,1,2,0:0:0:0:
148,240,187850,1,2,0:0:0:0:
194,240,187955,5,4,0:0:0:0:
256,192,188060,12,4,189634,0:0:0:0:
256,192,189739,12,4,191312,0:0:0:0:
256,192,191417,12,4,192990,0:0:0:0:
256,192,193095,12,4,193830,0:0:0:0:
126,209,194249,5,2,0:0:0:0:
122,175,194354,1,2,0:0:0:0:
129,142,194459,1,2,0:0:0:0:
145,112,194564,1,2,0:0:0:0:
172,91,194669,38,0,B|216:52|287:44|338:76|338:76|305:115,1,230,4|8,0:0|0:0,0:0:0:0:
90,158,195298,1,0,0:0:0:0:
90,158,195403,1,0,0:0:0:0:
90,158,195508,2,0,P|68:105|76:49,1,115,2|0,0:0|0:0,0:0:0:0:
193,193,195927,1,8,0:0:0:0:
196,227,196032,1,0,0:0:0:0:
199,261,196137,1,0,0:0:0:0:
202,295,196243,1,0,0:0:0:0:
205,329,196347,6,0,P|248:293|303:299,1,115,2|0,0:0|0:0,0:0:0:0:
374,342,196662,2,0,P|429:348|472:312,1,115,2|0,0:0|0:0,0:0:0:0:
420,221,196976,1,2,0:0:0:0:
420,221,197081,1,0,0:0:0:0:
420,221,197186,2,0,L|408:106,1,115,2|0,0:0|0:0,0:0:0:0:
324,42,197501,2,0,L|312:156,1,115,2|0,0:0|0:0,0:0:0:0:
240,213,197816,2,0,L|177:208,1,57.5,8|0,0:0|0:0,0:0:0:0:
99,110,198025,6,0,L|213:120,1,115,2|0,0:0|0:0,0:0:0:0:
296,284,198445,2,0,P|247:313|192:304,1,115,8|0,0:0|0:0,0:0:0:0:
192,304,198760,1,0,0:0:0:0:
192,304,198864,1,2,0:0:0:0:
28,213,199074,2,0,L|18:156,1,57.5
18,156,199284,2,0,L|132:169,1,115,8|0,0:0|0:0,0:0:0:0:
360,199,199704,37,2,0:0:0:0:
405,212,199809,1,2,0:0:0:0:
448,197,199913,1,2,0:0:0:0:
473,158,200018,1,2,0:0:0:0:
471,111,200123,2,0,L|462:54,1,57.5,2|2,0:0|0:0,0:0:0:0:
273,128,200333,2,0,L|264:184,1,57.5,2|2,0:0|0:0,0:0:0:0:
192,304,200543,2,0,L|163:309,3,28.75,2|2|2|2,0:0|0:0|0:0|0:0,0:0:0:0:
125,239,200753,2,0,L|98:227,3,28.75,2|2|2|2,0:0|0:0|0:0|0:0,0:0:0:0:
80,150,200962,2,0,L|87:92,1,57.5,2|2,0:0|0:0,0:0:0:0:
236,220,201172,2,0,L|229:278,1,57.5,2|2,0:0|0:0,0:0:0:0:
384,72,201382,6,0,B|294:23|312:99|219:47,1,172.5,4|0,0:0|0:0,0:0:0:0:
152,88,201802,2,0,P|141:141|182:178,1,115,8|0,0:0|0:0,0:0:0:0:
214,165,202116,1,0,0:0:0:0:
246,152,202221,2,0,B|301:184|370:168|370:168|347:190|343:230,1,172.5,2|0,0:0|0:0,0:0:0:0:
432,296,202641,2,0,B|465:261|447:212|447:212|395:243,1,115,8|0,0:0|0:0,0:0:0:0:
172,132,203060,6,0,P|189:56|264:74,1,172.5,2|0,0:0|0:0,0:0:0:0:
301,149,203480,2,0,B|293:196|293:196|300:213|300:213|290:268,1,115,8|0,0:0|0:0,0:0:0:0:
82,343,203899,2,0,P|47:292|75:161,1,172.5,2|0,0:0|0:0,0:0:0:0:
73,156,204319,1,8,0:0:0:0:
203,60,204529,2,0,L|261:67,1,57.5
334,124,204739,38,0,P|400:144|436:43,1,172.5,2|0,0:0|0:0,0:0:0:0:
422,41,205158,1,8,0:0:0:0:
336,176,205368,1,0,0:0:0:0:
336,176,205473,1,0,0:0:0:0:
336,176,205578,2,0,B|364:264|309:256|336:348,2,172.5,2|0|0,0:0|0:0|0:0,0:0:0:0:
208,128,206417,6,0,P|184:188|80:160,2,172.5,2|0|0,0:0|0:0|0:0,0:0:0:0:
306,46,207256,2,0,P|362:38|418:74,1,115,2|0,0:0|0:0,0:0:0:0:
356,272,207676,2,0,P|328:222|336:166,1,115,8|0,0:0|0:0,0:0:0:0:
349,141,207990,1,0,0:0:0:0:
363,116,208095,5,2,0:0:0:0:
442,326,208515,1,8,0:0:0:0:
356,272,208725,2,0,B|285:248|250:291|250:291|216:336|145:317,1,230
60,263,209354,1,8,0:0:0:0:
147,147,209564,38,0,P|153:89|122:33,1,115,0|2,0:0|0:0,0:0:0:0:
45,109,209983,1,0,0:0:0:0:
164,239,210193,1,8,0:0:0:0:
244,68,210403,2,0,L|488:92,1,230
412,284,211032,2,0,B|364:232|404:168|404:168|444:208,1,172.5,8|0,0:0|0:0,0:0:0:0:
436,200,211452,6,0,B|364:208|364:208|336:196|336:196|256:204,1,172.5,2|0,0:0|0:0,0:0:0:0:
204,152,211871,2,0,P|216:100|284:96,1,115,8|0,0:0|0:0,0:0:0:0:
338,266,212291,2,0,B|298:294|291:334|291:334|262:302|211:305,1,172.5,2|0,0:0|0:0,0:0:0:0:
132,272,212711,2,0,P|105:222|116:148,1,115,8|0,0:0|0:0,0:0:0:0:
380,104,213130,6,0,P|325:133|268:32,1,172.5,2|0,0:0|0:0,0:0:0:0:
272,32,213550,1,8,0:0:0:0:
432,116,213760,1,2,0:0:0:0:
300,160,213969,1,2,0:0:0:0:
384,48,214179,1,2,0:0:0:0:
457,213,214389,38,0,P|429:213|401:221,1,57.5,8|8,0:0|0:0,0:0:0:0:
266,320,214599,2,0,P|292:330|321:332,1,57.5,8|8,0:0|0:0,0:0:0:0:
225,151,214809,6,0,L|229:119,9,19.1666666666667
36,239,215228,6,0,L|174:224,1,137.999995788574,8|0,0:0|0:0,0:0:0:0:
173,225,215648,2,0,B|149:277|149:277|173:329,1,115,8|0,0:0|0:0,0:0:0:0:
303,331,215962,2,0,B|327:279|327:279|303:227,1,115,8|0,0:0|0:0,0:0:0:0:
238,278,216277,1,8,0:0:0:0:
238,278,216487,38,0,P|214:226|231:172,1,115,2|0,0:0|0:0,0:0:0:0:
221,127,216802,2,0,L|279:133,1,57.5,0|8,0:0|0:0,0:0:0:0:
454,66,217116,2,0,L|396:60,1,57.5
354,40,217326,2,0,P|382:88|376:144,1,115,2|0,0:0|0:0,0:0:0:0:
365,167,217641,1,0,0:0:0:0:
352,187,217746,2,0,P|323:235|329:291,1,115,8|0,0:0|0:0,0:0:0:0:
339,314,218061,1,0,0:0:0:0:
408,360,218165,6,0,P|434:348|462:348,3,57.5,2|0|0|0,0:0|0:0|0:0|0:0,0:0:0:0:
425,254,218585,2,0,P|440:229|463:213,3,57.5,8|0|0|0,0:0|0:0|0:0|0:0,0:0:0:0:
415,138,219004,1,2,0:0:0:0:
384,120,219109,1,0,0:0:0:0:
349,114,219214,1,0,0:0:0:0:
315,120,219319,1,0,0:0:0:0:
284,137,219424,1,8,0:0:0:0:
250,144,219529,1,0,0:0:0:0:
216,137,219634,1,0,0:0:0:0:
185,120,219739,1,0,0:0:0:0:
163,93,219843,6,0,L|167:35,1,57.5,2|0,0:0|0:0,0:0:0:0:
265,110,220053,2,0,L|260:167,1,57.5
107,257,220263,38,0,L|101:199,1,57.5,8|0,0:0|0:0,0:0:0:0:
212,253,220473,2,0,L|217:310,1,57.5
157,107,220683,6,0,L|155:49,1,57.5,2|0,0:0|0:0,0:0:0:0:
274,96,220893,2,0,L|275:153,1,57.5
95,246,221102,5,8,0:0:0:0:
127,234,221207,1,0,0:0:0:0:
161,234,221312,1,8,0:0:0:0:
194,243,221417,1,8,0:0:0:0:
222,260,221522,38,0,B|346:301|314:190|438:231,1,230,2|8,0:0|0:0,0:0:0:0:
147,327,222152,2,0,B|89:343|89:343|62:286|90:220|149:205,1,230
162,203,222641,2,0,L|200:198,2,38.3333333333333,0|0|8,0:0|0:0|0:0,0:0:0:0:
315,296,222990,5,0,0:0:0:0:
315,296,223200,2,0,P|370:307|423:285,1,115,2|0,0:0|0:0,0:0:0:0:
199,159,223620,2,0,P|143:147|90:169,1,115,8|0,0:0|0:0,0:0:0:0:
222,258,224039,1,2,0:0:0:0:
259,243,224144,1,0,0:0:0:0:
287,214,224249,1,0,0:0:0:0:
301,176,224354,1,0,0:0:0:0:
299,135,224459,1,8,0:0:0:0:
282,98,224564,1,0,0:0:0:0:
252,70,224669,1,0,0:0:0:0:
213,59,224774,1,0,0:0:0:0:
173,62,224878,6,0,P|90:48|24:102,1,172.5,2|0,0:0|0:0,0:0:0:0:
89,252,225298,2,0,P|119:204|114:147,1,115,8|0,0:0|0:0,0:0:0:0:
115,148,225613,1,0,0:0:0:0:
115,148,225718,1,2,0:0:0:0:
18,313,225927,2,0,P|35:335|61:348,1,57.5
193,346,226137,2,0,P|220:336|241:317,1,57.5,8|0,0:0|0:0,0:0:0:0:
283,191,226347,2,0,P|283:162|272:135,1,57.5
168,53,226557,37,2,0:0:0:0:
168,53,226767,2,0,L|225:55,1,57.5,8|0,0:0|0:0,0:0:0:0:
176,173,226976,2,0,L|233:175,1,57.5,8|0,0:0|0:0,0:0:0:0:
184,293,227186,2,0,L|241:295,1,57.5,8|0,0:0|0:0,0:0:0:0:
348,326,227396,5,2,0:0:0:0:
346,290,227501,1,2,0:0:0:0:
345,255,227606,1,2,0:0:0:0:
344,220,227711,1,2,0:0:0:0:
373,189,227816,5,2,0:0:0:0:
376,153,227921,1,2,0:0:0:0:
380,118,228026,1,2,0:0:0:0:
383,83,228131,1,2,0:0:0:0:
369,50,228235,5,0,0:0:0:0:
264,7,228550,1,0,0:0:0:0:
275,120,228864,1,0,0:0:0:0:
332,51,229074,5,2,0:0:0:0:
152,97,229494,1,0,0:0:0:0:
284,226,229913,53,0,0:0:0:0:
259,118,230228,1,0,0:0:0:0:
202,246,230543,1,0,0:0:0:0:
240,173,230753,1,2,0:0:0:0:
187,108,230963,1,0,0:0:0:0:
107,133,231172,1,2,0:0:0:0:
156,301,231592,5,0,0:0:0:0:
241,195,231907,1,0,0:0:0:0:
255,342,232221,1,0,0:0:0:0:
189,288,232431,53,2,0:0:0:0:
397,231,232850,1,0,0:0:0:0:
255,342,233270,5,0,0:0:0:0:
182,107,233690,1,0,0:0:0:0:
423,163,234109,1,2,0:0:0:0:
280,228,234529,1,0,0:0:0:0:
462,338,234948,54,0,P|379:349|306:306,1,172.5
224,176,236207,1,2,0:0:0:0:
135,266,236627,2,0,P|94:249|42:250,2,86.25
163,340,237466,1,0,0:0:0:0:
344,308,238305,6,0,P|402:313|446:257,1,115,2|0,0:0|0:0,0:0:0:0:
469,190,238934,2,0,P|411:185|367:241,1,115
301,355,239774,1,2,0:0:0:0:
73,312,240193,1,0,0:0:0:0:
136,245,240403,1,0,0:0:0:0:
163,333,240613,1,0,0:0:0:0:
219,278,240823,5,0,0:0:0:0:
238,281,240927,1,0,0:0:0:0:
257,284,241032,1,0,0:0:0:0:
276,287,241137,1,0,0:0:0:0:
295,290,241242,1,0,0:0:0:0:
314,293,241347,1,0,0:0:0:0:
333,296,241452,1,0,0:0:0:0:
352,299,241557,1,0,0:0:0:0:
371,302,241662,38,0,L|399:307,1,28.75,2|0,0:0|0:0,0:0:0:0:
416,227,241976,2,0,L|442:215,1,28.75
409,139,242291,1,0,0:0:0:0:
324,48,242501,6,0,L|327:77,1,28.75
255,118,242816,2,0,L|273:140,1,28.75
237,215,243130,1,0,0:0:0:0:
328,296,243340,54,0,L|301:306,1,28.75
206,352,243655,2,0,L|178:342,1,28.75
82,287,243969,1,0,0:0:0:0:
36,160,244179,5,0,0:0:0:0:
46,182,244284,2,0,P|68:200|95:206,1,57.5
170,242,244599,2,0,P|197:230|225:225,1,57.5
249,226,244913,1,0,0:0:0:0:
284,241,245018,53,0,0:0:0:0:
289,264,245123,1,0,0:0:0:0:
409,153,245333,1,0,0:0:0:0:
405,176,245438,1,0,0:0:0:0:
309,45,245648,1,0,0:0:0:0:
287,37,245753,1,0,0:0:0:0:
264,38,245857,5,0,0:0:0:0:
243,48,245962,1,0,0:0:0:0:
182,134,246172,1,0,0:0:0:0:
159,130,246277,1,0,0:0:0:0:
116,15,246487,1,0,0:0:0:0:
94,22,246592,1,0,0:0:0:0:
48,13,246697,53,0,0:0:0:0:
67,41,246802,1,0,0:0:0:0:
73,74,246906,1,0,0:0:0:0:
67,108,247011,1,0,0:0:0:0:
53,139,247116,1,0,0:0:0:0:
89,122,247221,1,0,0:0:0:0:
129,125,247326,1,0,0:0:0:0:
162,146,247431,1,0,0:0:0:0:
176,184,247536,5,0,0:0:0:0:
207,218,247642,1,0,0:0:0:0:
251,228,247746,1,0,0:0:0:0:
296,221,247851,1,0,0:0:0:0:
333,193,247956,1,0,0:0:0:0:
359,149,248060,1,0,0:0:0:0:
363,97,248165,1,0,0:0:0:0:
346,48,248270,1,0,0:0:0:0:
304,17,248375,53,0,0:0:0:0:
258,131,248585,2,0,L|255:159,1,28.75
176,57,248795,2,0,L|173:28,1,28.75
377,111,249004,1,0,0:0:0:0:
377,111,249109,1,0,0:0:0:0:
377,111,249214,2,0,B|447:103|447:103|432:92,2,86.25
292,239,250053,6,0,L|300:295,1,57.5
328,364,250368,2,0,L|336:308,1,57.5
362,201,250683,1,0,0:0:0:0:
349,212,250892,54,0,L|291:219,1,57.5
221,242,251207,2,0,L|278:249,1,57.5
368,280,251522,1,0,0:0:0:0:
448,46,251941,5,0,0:0:0:0:
480,152,252151,2,0,L|423:144,1,57.5
324,126,252571,2,0,L|331:211,1,86.25
339,233,252990,2,0,P|315:217|286:213,1,57.5
94,240,253410,53,0,0:0:0:0:
74,252,253515,1,0,0:0:0:0:
61,271,253620,1,0,0:0:0:0:
54,293,253725,1,0,0:0:0:0:
54,316,253830,1,0,0:0:0:0:
59,338,253934,1,0,0:0:0:0:
73,356,254039,1,0,0:0:0:0:
93,367,254144,1,0,0:0:0:0:
115,372,254249,6,0,L|143:367,3,28.75
186,302,254669,2,0,L|214:296,1,28.75
328,223,254878,1,0,0:0:0:0:
293,218,254983,1,0,0:0:0:0:
258,213,255088,1,0,0:0:0:0:
223,208,255193,1,0,0:0:0:0:
188,203,255298,1,0,0:0:0:0:
153,198,255403,1,0,0:0:0:0:
118,193,255508,54,0,L|89:189,3,28.75
29,112,255927,2,0,L|57:108,3,28.75
137,24,256347,2,0,L|140:58,1,34.4999989471436
238,170,256557,2,0,L|242:130,1,40.2499987716675
364,43,256767,38,0,B|393:24|393:24|379:126,2,138,4|0|2,3:0|0:0|0:0,0:0:0:0:
322,299,257606,2,0,L|299:296,7,23,8|0|8|0|8|0|8|0,0:0|0:0|0:0|0:0|0:0|0:0|0:0|0:0,0:0:0:0:
230,256,258025,2,0,L|207:253,7,23,2|2|2|2|2|2|2|2,0:0|0:0|0:0|0:0|0:0|0:0|0:0|0:0,0:0:0:0:
150,195,258445,38,2,P|187:165|164:206,1,129.375004935265,0|0,0:0|0:0,0:0:0:0:
60,234,258864,38,0,P|58:140|104:87,1,137.999995788574,6|0,0:0|0:0,0:0:0:0:
323,141,259284,2,0,P|263:160|225:50,1,172.5,2|0,0:0|0:0,0:0:0:0:
311,48,259704,2,0,P|366:36|415:63,1,115,8|0,0:0|0:0,0:0:0:0:
483,226,260123,38,0,B|432:229|403:197|403:197|396:237|356:265,1,172.5,2|0,0:0|0:0,0:0:0:0:
273,315,260543,2,0,P|218:327|169:300,1,115,8|0,0:0|0:0,0:0:0:0:
221,85,260962,1,2,0:0:0:0:
65,153,261172,1,0,0:0:0:0:
63,175,261277,1,0,0:0:0:0:
60,197,261382,2,0,L|46:326,1,115,8|0,0:0|0:0,0:0:0:0:
243,241,261802,6,0,P|261:153|194:68,1,172.5,2|0,0:0|0:0,0:0:0:0:
149,50,262221,1,8,0:0:0:0:
82,182,262431,1,0,0:0:0:0:
269,83,262641,2,0,P|323:72|358:114,1,115,2|0,0:0|0:0,0:0:0:0:
373,191,262955,2,0,P|408:232|462:222,1,115,2|0,0:0|0:0,0:0:0:0:
490,198,263270,1,8,0:0:0:0:
414,71,263480,5,2,0:0:0:0:
390,109,263584,1,0,0:0:0:0:
349,128,263689,1,0,0:0:0:0:
305,119,263794,1,0,0:0:0:0:
270,89,263899,1,8,0:0:0:0:
225,79,264004,1,0,0:0:0:0:
184,98,264109,1,0,0:0:0:0:
161,137,264213,1,0,0:0:0:0:
157,182,264319,1,2,0:0:0:0:
188,152,264423,1,0,0:0:0:0:
194,108,264528,1,0,0:0:0:0:
173,68,264633,1,0,0:0:0:0:
132,48,264738,1,8,0:0:0:0:
88,56,264843,1,0,0:0:0:0:
39,125,264948,38,0,L|44:195,1,57.5,8|8,0:0|0:0,0:0:0:0:
51,338,265158,1,2,0:0:0:0:
238,62,265368,5,0,0:0:0:0:
242,66,265473,1,0,0:0:0:0:
245,70,265578,2,0,L|250:140,1,57.5,8|0,0:0|0:0,0:0:0:0:
257,285,265788,1,0,0:0:0:0:
434,98,265997,5,2,0:0:0:0:
437,102,266102,1,0,0:0:0:0:
440,105,266207,2,0,L|445:175,1,57.5
453,320,266417,1,8,0:0:0:0:
286,256,266837,38,0,P|205:242|172:352,1,172.5,2|0,0:0|0:0,0:0:0:0:
51,348,267256,2,0,P|78:289|55:218,1,115,8|0,0:0|0:0,0:0:0:0:
72,88,267676,1,2,0:0:0:0:
110,63,267781,1,0,0:0:0:0:
155,67,267885,1,0,0:0:0:0:
189,97,267990,1,0,0:0:0:0:
199,141,268095,2,0,L|187:233,1,57.5,8|0,0:0|0:0,0:0:0:0:
348,337,268305,2,0,L|340:280,1,57.5
431,167,268515,6,0,L|446:37,1,115,2|0,0:0|0:0,0:0:0:0:
255,166,268934,1,8,0:0:0:0:
441,354,269144,2,0,P|472:309|476:227,1,115,0|2,0:0|0:0,0:0:0:0:
260,80,269564,2,0,P|292:126|299:183,1,115,0|8,0:0|0:0,0:0:0:0:
104,336,269983,6,0,B|116:277|116:277|90:223|90:223|102:151,1,172.5
113,96,270402,1,2,0:0:0:0:
208,222,270613,1,2,0:0:0:0:
15,120,270823,1,2,0:0:0:0:
206,61,271032,37,2,0:0:0:0:
246,39,271137,1,0,0:0:0:0:
290,47,271241,1,2,0:0:0:0:
321,80,271346,1,0,0:0:0:0:
373,134,271452,5,2,0:0:0:0:
413,156,271557,1,2,0:0:0:0:
457,148,271661,1,2,0:0:0:0:
488,115,271766,1,2,0:0:0:0:
493,39,271871,6,0,B|410:12|410:12|339:62,1,172.5,6|0,0:0|0:0,0:0:0:0:
372,184,272291,2,0,L|485:168,1,115,8|0,0:0|0:0,0:0:0:0:
248,253,272711,2,0,B|216:203|235:126|235:126|253:163,1,172.5,2|0,0:0|0:0,0:0:0:0:
153,234,273130,2,0,B|99:246|99:246|43:226,1,115,8|0,0:0|0:0,0:0:0:0:
35,20,273550,37,2,0:0:0:0:
116,244,273760,1,0,0:0:0:0:
135,239,273864,1,0,0:0:0:0:
153,234,273969,2,0,P|209:223|263:242,1,115,8|0,0:0|0:0,0:0:0:0:
471,211,274389,1,2,0:0:0:0:
477,199,274494,1,0,0:0:0:0:
479,185,274599,2,0,P|461:163|435:152,1,57.5
354,188,274809,2,0,P|343:214|346:243,1,57.5,8|0,0:0|0:0,0:0:0:0:
418,296,275018,2,0,P|446:291|469:274,1,57.5
417,223,275228,6,0,B|396:227|367:217|354:188|354:188|336:216|308:234|245:224,1,172.5,2|0,0:0|0:0,0:0:0:0:
419,149,275648,2,0,P|448:101|443:44,1,115,8|0,0:0|0:0,0:0:0:0:
244,0,276067,2,0,P|214:47|219:104,1,115,2|0,0:0|0:0,0:0:0:0:
219,104,276382,1,0,0:0:0:0:
219,104,276487,1,8,0:0:0:0:
299,282,276697,2,0,L|355:292,1,57.5
128,314,276906,5,2,0:0:0:0:
268,211,277116,1,8,0:0:0:0:
268,211,277221,1,8,0:0:0:0:
268,211,277326,2,0,L|264:268,1,57.5,2|0,0:0|0:0,0:0:0:0:
76,171,277536,2,0,L|80:114,1,57.5,8|0,0:0|0:0,0:0:0:0:
129,21,277746,1,2,0:0:0:0:
173,10,277850,1,2,0:0:0:0:
219,10,277955,1,2,0:0:0:0:
260,29,278060,1,2,0:0:0:0:
285,67,278165,2,0,L|280:124,1,57.5,8|8,0:0|0:0,0:0:0:0:
416,260,278375,2,0,L|411:203,1,57.5,8|8,0:0|0:0,0:0:0:0:
233,318,278585,1,2,0:0:0:0:
349,177,278795,38,0,L|407:184,1,57.5,4|0,2:0|0:0,0:0:0:0:
263,120,279004,2,0,L|205:127,1,57.5,8|0,0:0|0:0,0:0:0:0:
441,64,279214,1,2,0:0:0:0:
443,58,279319,1,0,0:0:0:0:
445,52,279424,2,0,B|437:118|437:118|451:148|451:148|444:221,2,172.5,2|2|2,0:0|0:0|0:0,0:0:0:0:
260,221,280263,5,8,0:0:0:0:
91,20,280578,1,8,0:0:0:0:
0,266,280892,1,8,0:0:0:0:
156,120,281102,5,8,0:0:0:0:
240,324,281417,1,2,0:0:0:0:
384,156,281732,1,8,0:0:0:0:
132,259,281941,37,2,0:0:0:0:
132,259,282151,1,8,0:0:0:0:
132,259,282361,2,0,L|246:271,1,115,2|0,0:0|0:0,0:0:0:0:
268,298,282676,1,0,0:0:0:0:
290,323,282781,2,0,B|296:262|296:262|273:219|273:219|280:157,1,172.5,8|0,0:0|0:0,0:0:0:0:
310,79,283200,2,0,P|353:44|409:48,1,115,2|2,0:0|0:0,0:0:0:0:
480,98,283515,1,2,0:0:0:0:
480,98,283620,5,2,0:0:0:0:
489,143,283725,1,0,0:0:0:0:
476,187,283830,1,2,0:0:0:0:
443,218,283934,1,0,0:0:0:0:
398,230,284039,1,2,0:0:0:0:
353,219,284144,1,0,0:0:0:0:
321,185,284249,1,2,0:0:0:0:
277,171,284354,1,0,0:0:0:0:
231,179,284459,1,2,0:0:0:0:
201,213,284564,1,0,0:0:0:0:
202,260,284669,1,2,0:0:0:0:
231,296,284774,1,0,0:0:0:0:
276,304,284878,2,0,P|304:300|330:287,1,57.5,2|2,0:0|0:0,0:0:0:0:
409,171,285088,5,2,0:0:0:0:
432,223,285193,1,2,0:0:0:0:
423,279,285298,1,2,0:0:0:0:
389,325,285403,1,2,0:0:0:0:
336,347,285508,1,2,0:0:0:0:
278,347,285613,1,2,0:0:0:0:
227,319,285718,1,2,0:0:0:0:
204,266,285823,1,2,0:0:0:0:
204,208,285927,1,2,0:0:0:0:
233,158,286032,1,2,0:0:0:0:
238,100,286137,1,2,0:0:0:0:
213,47,286242,1,2,0:0:0:0:
161,20,286347,1,2,0:0:0:0:
103,20,286452,1,2,0:0:0:0:
53,49,286557,1,8,0:0:0:0:
28,101,286662,1,8,0:0:0:0:
35,158,286767,1,8,0:0:0:0:
70,202,286871,1,8,0:0:0:0:
123,222,286976,38,0,P|188:212|216:116,1,172.5,4|0,0:0|0:0,0:0:0:0:
188,100,287396,1,8,0:0:0:0:
300,288,287606,1,0,0:0:0:0:
300,288,287711,1,0,0:0:0:0:
300,288,287816,2,0,B|400:260|376:316|468:288,1,172.5,2|0,0:0|0:0,0:0:0:0:
428,212,288235,1,8,0:0:0:0:
407,192,288340,1,0,0:0:0:0:
403,163,288445,1,0,0:0:0:0:
414,136,288550,1,0,0:0:0:0:
437,120,288655,6,0,B|384:68|307:107|307:107|342:144,1,172.5,2|0,0:0|0:0,0:0:0:0:
234,145,289074,2,0,P|228:87|259:41,1,115,8|0,0:0|0:0,0:0:0:0:
316,241,289494,1,2,0:0:0:0:
439,130,289704,1,0,0:0:0:0:
439,130,289809,1,0,0:0:0:0:
439,130,289913,1,8,0:0:0:0:
369,339,290123,1,0,0:0:0:0:
228,230,290333,6,0,P|147:216|114:326,1,172.5,2|0,0:0|0:0,0:0:0:0:
100,312,290753,1,8,0:0:0:0:
33,132,290962,1,0,0:0:0:0:
33,132,291067,1,0,0:0:0:0:
33,132,291172,2,0,B|73:104|80:64|80:64|109:96|160:93,1,172.5,2|0,0:0|0:0,0:0:0:0:
233,49,291592,2,0,P|297:51|339:117,1,115,8|0,0:0|0:0,0:0:0:0:
354,159,291906,1,0,0:0:0:0:
350,174,292011,37,8,0:0:0:0:
229,275,292326,5,8,0:0:0:0:
352,44,292641,5,8,0:0:0:0:
412,268,292850,37,8,0:0:0:0:
216,102,293165,5,2,0:0:0:0:
243,109,293270,1,8,0:0:0:0:
271,115,293375,1,8,0:0:0:0:
298,122,293480,1,8,0:0:0:0:
326,128,293585,1,8,0:0:0:0:
353,134,293690,6,0,B|373:126|391:99|391:99|425:163|365:214,1,172.5,4|0,0:0|0:0,0:0:0:0:
314,287,294109,2,0,P|273:226|293:186,1,115,8|0,0:0|0:0,0:0:0:0:
277,171,294424,1,0,0:0:0:0:
277,171,294529,2,0,P|233:207|115:198,1,172.5,2|0,0:0|0:0,0:0:0:0:
45,172,294948,2,0,B|36:220|36:220|43:237|43:237|35:284,1,115,8|0,0:0|0:0,0:0:0:0:
57,303,295263,1,0,0:0:0:0:
77,321,295368,37,8,0:0:0:0:
244,124,295683,1,8,0:0:0:0:
444,291,295997,1,8,0:0:0:0:
281,199,296417,1,2,0:0:0:0:
360,267,296627,1,8,0:0:0:0:
403,172,296837,1,8,0:0:0:0:
403,172,296941,1,8,0:0:0:0:
403,172,297046,6,0,P|439:114|412:50,1,115,2|0,0:0|0:0,0:0:0:0:
301,17,297466,2,0,P|265:75|292:139,1,115,8|0,0:0|0:0,0:0:0:0:
259,143,297781,1,0,0:0:0:0:
259,143,297885,2,0,P|200:99|77:146,1,172.5,2|0,0:0|0:0,0:0:0:0:
106,254,298305,2,0,P|158:235|172:182,1,115,8|0,0:0|0:0,0:0:0:0:
22,252,298725,5,2,0:0:0:0:
29,296,298829,1,2,0:0:0:0:
58,331,298934,1,2,0:0:0:0:
101,342,299039,1,2,0:0:0:0:
145,334,299144,1,2,0:0:0:0:
177,302,299249,1,2,0:0:0:0:
209,270,299354,1,2,0:0:0:0:
253,259,299459,1,2,0:0:0:0:
292,267,299564,38,0,L|345:282,5,28.75,2|2|2|2|2|2,0:0|0:0|0:0|0:0|0:0|0:0,0:0:0:0:
374,213,299878,2,0,L|359:187,5,28.75,2|2|2|2|2|2,0:0|0:0|0:0|0:0|0:0|0:0,0:0:0:0:
461,201,300193,2,0,L|453:228,3,28.75,2|2|2|2,0:0|0:0|0:0|0:0,0:0:0:0:
470,168,300403,5,8,0:0:0:0:
304,232,300718,1,8,0:0:0:0:
331,55,301032,1,8,0:0:0:0:
389,165,301242,5,8,0:0:0:0:
169,81,301557,1,8,0:0:0:0:
205,313,301871,1,8,0:0:0:0:
256,192,302081,37,4,0:1:0:0:
256,192,302186,12,0,307011,0:0:0:0:
