osu file format v14

[General]
AudioFilename: audio.mp3
AudioLeadIn: 0
PreviewTime: 10649
Countdown: 0
SampleSet: Normal
StackLeniency: 0.7
Mode: 1
LetterboxInBreaks: 0
WidescreenStoryboard: 1

[Editor]
Bookmarks: 92,3784,11168,25938,40707,48092,55476,67938,70245,85015,99784,113861,129322,144092,158861,173630,188399
DistanceSpacing: 0.4
BeatDivisor: 4
GridSize: 32
TimelineZoom: 2.2

[Metadata]
Title:Voda
TitleUnicode:Вода
Artist:Tri dnya dozhdya, MUKKA
ArtistUnicode:Три дня дождя, МУККА
Creator:Tachibana_
Version:Loneliness
Source:
Tags:alternative рок альтернатива russian русский rock триднядождя Когда ты откроешь глаза Глеб Викторов Серафим Сидорин male vocalist тдд Euryalle
BeatmapID:4282119
BeatmapSetID:2050693

[Difficulty]
HPDrainRate:5
CircleSize:0
OverallDifficulty:5.5
ApproachRate:9
SliderMultiplier:1.4
SliderTickRate:1

[Events]
//Background and Video events
0,0,"bg.jpg",0,-15
//Break Periods
2,55937,69322
2,114552,128722
//Storyboard Layer 0 (Background)
//Storyboard Layer 1 (Fail)
//Storyboard Layer 2 (Pass)
//Storyboard Layer 3 (Foreground)
//Storyboard Layer 4 (Overlay)
//Storyboard Sound Samples

[TimingPoints]
92,461.538461538462,4,1,0,46,1,0
92,-133.333333333333,4,1,0,46,0,0
3784,-111.111111111111,4,1,0,60,0,0
11168,-89.2857142857143,4,1,0,82,0,1
37822,-89.7649310039048,4,1,0,82,0,1
37938,-90.2535546135677,4,1,0,82,0,1
38053,-90.7432453684773,4,1,0,82,0,1
38168,-91.2382789645958,4,1,0,82,0,1
38399,-92.2491526507642,4,1,0,82,0,1
38630,-93.2826772290033,4,1,0,82,0,1
38861,-94.3396226415094,4,1,0,82,0,1
38976,-94.8747882993242,4,1,0,82,0,1
39092,-95.4207941259158,4,1,0,82,0,1
39322,-96.5221900667459,4,1,0,82,0,1
39438,-97.0873786407767,4,1,0,82,0,1
39553,-97.6542666621535,4,1,0,82,0,1
39668,-98.2278136225124,4,1,0,82,0,1
39784,-98.8132139126265,4,1,0,82,0,1
39899,-99.3743766433947,4,1,0,82,0,1
40015,-100,4,1,0,82,0,0
40707,-100,4,1,0,75,0,0
54784,-103.092783505155,4,1,0,75,0,0
55015,-107.52688172043,4,1,0,66,0,0
55245,-111.111111111111,4,1,0,66,0,0
55476,-115.606936416185,4,1,0,66,0,0
70245,-111.111111111111,4,1,0,50,0,0
83861,-114.289252105002,4,1,0,50,0,0
84092,-117.654557042702,4,1,0,50,0,0
84322,-121.208141825345,4,1,0,50,0,0
84553,-125,4,1,0,50,0,0
85015,-89.2857142857143,4,1,0,82,0,1
111668,-89.769120667123,4,1,0,82,0,1
111784,-90.2535546135677,4,1,0,82,0,1
111899,-90.7475268546624,4,1,0,82,0,1
112015,-91.2426072930833,4,1,0,82,0,1
112245,-92.2491526507642,4,1,0,82,0,1
112476,-93.2826772290033,4,1,0,82,0,1
112707,-94.3396226415094,4,1,0,82,0,1
112822,-94.8794685434275,4,1,0,82,0,1
112938,-95.4255283961234,4,1,0,82,0,1
113168,-96.527034261242,4,1,0,82,0,1
113284,-97.0873786407767,4,1,0,82,0,1
113399,-97.6542666621535,4,1,0,82,0,1
113515,-98.2328305355988,4,1,0,82,0,1
113630,-98.8182908032197,4,1,0,82,0,1
113745,-99.4004961411246,4,1,0,82,0,1
113861,-100,4,1,0,60,0,0
114553,-115.606936416185,4,1,0,60,0,0
129322,-111.111111111111,4,1,0,60,0,0
144092,-89.2857142857143,4,1,0,82,0,1
170745,-89.7651398421814,4,1,0,82,0,1
170861,-90.2497418082809,4,1,0,82,0,1
170976,-90.7438874728594,4,1,0,82,0,1
171092,-91.2391438469935,4,1,0,82,0,1
171322,-92.2504798464491,4,1,0,82,0,1
171553,-93.2844873598913,4,1,0,82,0,1
171784,-94.3373080131508,4,1,0,82,0,1
171899,-94.8773626807481,4,1,0,82,0,1
172015,-95.4236362733906,4,1,0,82,0,1
172245,-96.5255811618215,4,1,0,82,0,1
172476,-97.6582342781672,4,1,0,82,0,1
172592,-98.2320780747024,4,1,0,82,0,1
172707,-98.8177846312002,4,1,0,82,0,1
172822,-99.4002378367199,4,1,0,82,0,1
172938,-100,4,1,0,66,0,0
173630,-100,4,1,0,75,0,0
187707,-103.092783505155,4,1,0,75,0,0
187938,-107.52688172043,4,1,0,75,0,0
188168,-111.111111111111,4,1,0,75,0,0
188399,-115.606936416185,4,1,0,75,0,0

[HitObjects]
256,192,92,5,0,1:0:0:0:
256,192,553,5,8,1:0:0:0:
256,192,1015,5,0,1:0:0:0:
256,192,1476,5,8,1:0:0:0:
256,192,1938,5,0,1:0:0:0:
256,192,2399,5,8,1:0:0:0:
256,192,2861,5,0,1:0:0:0:
256,192,3322,5,8,1:0:0:0:
256,192,3784,5,0,1:0:0:0:
256,192,4015,5,0,1:0:0:0:
256,192,4245,5,8,1:0:0:0:
256,192,4476,5,0,1:0:0:0:
256,192,4707,5,0,1:0:0:0:
256,192,4938,5,0,1:0:0:0:
256,192,5168,5,8,1:0:0:0:
256,192,5630,5,8,1:0:0:0:
256,192,5861,5,8,1:0:0:0:
256,192,6092,5,0,1:0:0:0:
256,192,6322,5,8,1:0:0:0:
256,192,6784,5,0,1:0:0:0:
256,192,7015,5,8,1:0:0:0:
256,192,7476,5,0,1:0:0:0:
256,192,7707,5,0,1:0:0:0:
256,192,7938,5,8,1:0:0:0:
256,192,8168,5,0,1:0:0:0:
256,192,8399,5,0,1:0:0:0:
256,192,8630,5,0,1:0:0:0:
256,192,8861,5,8,1:0:0:0:
256,192,9322,5,8,1:0:0:0:
256,192,9553,5,8,1:0:0:0:
256,192,9784,5,0,1:0:0:0:
256,192,10015,5,8,1:0:0:0:
256,192,10476,5,8,1:0:0:0:
256,192,10707,5,0,1:0:0:0:
256,192,11168,5,12,1:0:0:0:
256,192,11399,5,0,1:0:0:0:
256,192,11515,5,0,1:0:0:0:
256,192,11630,5,8,1:0:0:0:
256,192,11861,5,0,1:0:0:0:
256,192,12092,5,8,1:0:0:0:
256,192,12207,5,8,1:0:0:0:
256,192,12322,5,0,1:0:0:0:
256,192,12438,5,0,1:0:0:0:
256,192,12553,5,8,1:0:0:0:
256,192,12784,5,0,1:0:0:0:
256,192,13015,5,8,1:0:0:0:
256,192,13476,5,8,1:0:0:0:
256,192,13707,5,0,1:0:0:0:
256,192,13938,5,8,1:0:0:0:
256,192,14053,5,0,1:0:0:0:
256,192,14168,5,8,1:0:0:0:
256,192,14399,5,8,1:0:0:0:
256,192,14515,5,8,1:0:0:0:
256,192,14630,5,0,1:0:0:0:
256,192,14861,5,12,1:0:0:0:
256,192,15322,5,8,1:0:0:0:
256,192,15553,5,8,1:0:0:0:
256,192,15668,5,0,1:0:0:0:
256,192,15784,5,8,1:0:0:0:
256,192,15899,5,0,1:0:0:0:
256,192,16015,5,8,1:0:0:0:
256,192,16245,5,0,1:0:0:0:
256,192,16476,5,8,1:0:0:0:
256,192,16707,5,8,1:0:0:0:
256,192,16822,5,8,1:0:0:0:
256,192,16938,5,0,1:0:0:0:
256,192,17168,5,8,1:0:0:0:
256,192,17399,5,8,1:0:0:0:
256,192,17515,5,8,1:0:0:0:
256,192,17630,5,0,1:0:0:0:
256,192,17745,5,0,1:0:0:0:
256,192,17861,5,8,1:0:0:0:
256,192,18092,5,8,1:0:0:0:
256,192,18207,5,0,1:0:0:0:
256,192,18322,5,8,1:0:0:0:
256,192,18553,5,4,1:0:0:0:
256,192,19015,5,8,1:0:0:0:
256,192,19245,5,0,1:0:0:0:
256,192,19361,5,0,1:0:0:0:
256,192,19476,5,8,1:0:0:0:
256,192,19707,5,8,1:0:0:0:
256,192,19822,5,0,1:0:0:0:
256,192,19938,5,8,1:0:0:0:
256,192,20053,5,8,1:0:0:0:
256,192,20168,5,0,1:0:0:0:
256,192,20399,5,8,1:0:0:0:
256,192,20861,5,0,1:0:0:0:
256,192,21092,5,8,1:0:0:0:
256,192,21322,5,8,1:0:0:0:
256,192,21438,5,0,1:0:0:0:
256,192,21553,5,0,1:0:0:0:
256,192,21784,5,8,1:0:0:0:
256,192,21899,5,8,1:0:0:0:
256,192,22015,5,0,1:0:0:0:
256,192,22245,5,12,1:0:0:0:
256,192,22707,5,0,1:0:0:0:
256,192,22938,5,8,1:0:0:0:
256,192,23053,5,8,1:0:0:0:
256,192,23168,5,0,1:0:0:0:
256,192,23284,5,8,1:0:0:0:
256,192,23399,5,0,1:0:0:0:
256,192,23630,5,8,1:0:0:0:
256,192,23861,5,0,1:0:0:0:
256,192,24092,5,8,1:0:0:0:
256,192,24207,5,8,1:0:0:0:
256,192,24322,5,0,1:0:0:0:
256,192,24553,5,8,1:0:0:0:
256,192,24668,5,0,1:0:0:0:
256,192,24784,5,8,1:0:0:0:
256,192,24899,5,8,1:0:0:0:
256,192,25015,5,0,1:0:0:0:
256,192,25245,5,8,1:0:0:0:
256,192,25476,5,8,1:0:0:0:
256,192,25592,5,8,1:0:0:0:
256,192,25707,5,0,1:0:0:0:
256,192,25938,5,12,1:0:0:0:
256,192,26399,5,8,1:0:0:0:
256,192,26630,5,0,1:0:0:0:
256,192,26861,5,8,1:0:0:0:
256,192,26976,5,0,1:0:0:0:
256,192,27092,5,8,1:0:0:0:
256,192,27207,5,0,1:0:0:0:
256,192,27322,5,8,1:0:0:0:
256,192,27553,5,8,1:0:0:0:
256,192,27784,5,0,1:0:0:0:
256,192,28245,5,8,1:0:0:0:
256,192,28476,5,0,1:0:0:0:
256,192,28707,5,8,1:0:0:0:
256,192,28822,5,0,1:0:0:0:
256,192,28938,5,8,1:0:0:0:
256,192,29168,5,8,1:0:0:0:
256,192,29284,5,8,1:0:0:0:
256,192,29399,5,0,1:0:0:0:
256,192,29630,5,12,1:0:0:0:
256,192,30092,5,0,1:0:0:0:
256,192,30322,5,8,1:0:0:0:
256,192,30438,5,8,1:0:0:0:
256,192,30553,5,8,1:0:0:0:
256,192,30668,5,8,1:0:0:0:
256,192,30784,5,0,1:0:0:0:
256,192,31015,5,8,1:0:0:0:
256,192,31245,5,0,1:0:0:0:
256,192,31476,5,8,1:0:0:0:
256,192,31592,5,8,1:0:0:0:
256,192,31707,5,0,1:0:0:0:
256,192,31938,5,8,1:0:0:0:
256,192,32168,5,0,1:0:0:0:
256,192,32284,5,8,1:0:0:0:
256,192,32399,5,0,1:0:0:0:
256,192,32515,5,0,1:0:0:0:
256,192,32630,5,8,1:0:0:0:
256,192,32861,5,8,1:0:0:0:
256,192,32976,5,0,1:0:0:0:
256,192,33092,5,0,1:0:0:0:
256,192,33322,5,12,1:0:0:0:
256,192,33784,5,8,1:0:0:0:
256,192,34015,5,0,1:0:0:0:
256,192,34130,5,0,1:0:0:0:
256,192,34245,5,8,1:0:0:0:
256,192,34476,5,8,1:0:0:0:
256,192,34592,5,8,1:0:0:0:
256,192,34707,5,0,1:0:0:0:
256,192,34822,5,0,1:0:0:0:
256,192,34938,5,8,1:0:0:0:
256,192,35168,5,8,1:0:0:0:
256,192,35630,5,0,1:0:0:0:
256,192,35861,5,8,1:0:0:0:
256,192,36092,5,8,1:0:0:0:
256,192,36207,5,0,1:0:0:0:
256,192,36322,5,8,1:0:0:0:
256,192,36553,5,8,1:0:0:0:
256,192,36668,5,8,1:0:0:0:
256,192,36784,5,0,1:0:0:0:
256,192,37015,5,12,1:0:0:0:
256,192,37476,5,0,1:0:0:0:
256,192,37707,5,8,1:0:0:0:
256,192,37822,5,0,1:0:0:0:
256,192,37938,5,8,1:0:0:0:
256,192,38053,5,8,1:0:0:0:
256,192,38168,5,0,1:0:0:0:
256,192,38399,5,8,1:0:0:0:
256,192,38630,5,0,1:0:0:0:
256,192,38861,5,8,1:0:0:0:
256,192,38976,5,8,1:0:0:0:
256,192,39092,5,0,1:0:0:0:
256,192,39322,5,8,1:0:0:0:
256,192,39438,5,0,1:0:0:0:
256,192,39553,5,8,1:0:0:0:
256,192,39668,5,8,1:0:0:0:
256,192,39784,5,0,1:0:0:0:
256,192,40015,5,8,1:0:0:0:
256,192,40707,5,4,1:0:0:0:
256,192,41168,5,8,1:0:0:0:
256,192,41630,5,0,1:0:0:0:
256,192,41861,5,0,1:0:0:0:
256,192,41976,5,0,1:0:0:0:
256,192,42092,5,8,1:0:0:0:
256,192,42322,5,8,1:0:0:0:
256,192,42553,5,0,1:0:0:0:
256,192,42784,5,8,1:0:0:0:
256,192,42899,5,8,1:0:0:0:
256,192,43015,5,0,1:0:0:0:
256,192,43476,5,0,1:0:0:0:
256,192,43707,5,8,1:0:0:0:
256,192,43822,5,0,1:0:0:0:
256,192,43938,5,8,1:0:0:0:
256,192,44168,5,0,1:0:0:0:
256,192,44399,5,12,1:0:0:0:
256,192,44861,5,0,1:0:0:0:
256,192,45092,5,0,1:0:0:0:
256,192,45322,5,8,1:0:0:0:
256,192,45438,5,0,1:0:0:0:
256,192,45553,5,0,1:0:0:0:
256,192,45784,5,8,1:0:0:0:
256,192,46015,5,8,1:0:0:0:
256,192,46130,5,8,1:0:0:0:
256,192,46245,5,0,1:0:0:0:
256,192,46476,5,8,1:0:0:0:
256,192,46707,5,0,1:0:0:0:
256,192,47053,5,8,1:0:0:0:
256,192,47168,5,0,1:0:0:0:
256,192,47399,5,0,1:0:0:0:
256,192,47515,5,0,1:0:0:0:
256,192,47630,5,8,1:0:0:0:
256,192,47861,5,8,1:0:0:0:
256,192,48092,5,4,1:0:0:0:
256,192,48553,5,8,1:0:0:0:
256,192,49015,5,0,1:0:0:0:
256,192,49245,5,8,1:0:0:0:
256,192,49361,5,0,1:0:0:0:
256,192,49476,5,8,1:0:0:0:
256,192,49707,5,8,1:0:0:0:
256,192,49938,5,0,1:0:0:0:
256,192,50168,5,8,1:0:0:0:
256,192,50284,5,8,1:0:0:0:
256,192,50399,5,0,1:0:0:0:
256,192,50861,5,8,1:0:0:0:
256,192,51092,5,0,1:0:0:0:
256,192,51207,5,0,1:0:0:0:
256,192,51322,5,8,1:0:0:0:
256,192,51553,5,8,1:0:0:0:
256,192,51784,5,4,1:0:0:0:
256,192,52245,5,8,1:0:0:0:
256,192,52476,5,8,1:0:0:0:
256,192,52707,5,0,1:0:0:0:
256,192,52822,5,8,1:0:0:0:
256,192,52938,5,0,1:0:0:0:
256,192,53168,5,8,1:0:0:0:
256,192,53399,5,8,1:0:0:0:
256,192,53515,5,8,1:0:0:0:
256,192,53630,5,8,1:0:0:0:
256,192,53861,5,0,1:0:0:0:
256,192,54092,5,8,1:0:0:0:
256,192,54438,5,8,1:0:0:0:
256,192,54553,5,0,1:0:0:0:
256,192,54784,5,8,1:0:0:0:
256,192,55015,5,8,1:0:0:0:
256,192,55245,5,8,1:0:0:0:
256,192,70245,5,0,1:0:0:0:
256,192,70707,5,8,1:0:0:0:
256,192,71168,5,0,1:0:0:0:
256,192,71399,5,0,1:0:0:0:
256,192,71630,5,8,1:0:0:0:
256,192,71861,5,8,1:0:0:0:
256,192,72092,5,0,1:0:0:0:
256,192,72322,5,8,1:0:0:0:
256,192,72553,5,0,1:0:0:0:
256,192,73015,5,0,1:0:0:0:
256,192,73245,5,0,1:0:0:0:
256,192,73476,5,8,1:0:0:0:
256,192,73707,5,0,1:0:0:0:
256,192,74168,5,0,1:0:0:0:
256,192,74399,5,8,1:0:0:0:
256,192,74861,5,8,1:0:0:0:
256,192,75092,5,0,1:0:0:0:
256,192,75322,5,8,1:0:0:0:
256,192,75553,5,8,1:0:0:0:
256,192,75784,5,0,1:0:0:0:
256,192,76245,5,8,1:0:0:0:
256,192,76592,5,8,1:0:0:0:
256,192,76707,5,0,1:0:0:0:
256,192,76938,5,0,1:0:0:0:
256,192,77168,5,8,1:0:0:0:
256,192,77399,5,8,1:0:0:0:
256,192,77630,5,0,1:0:0:0:
256,192,78092,5,8,1:0:0:0:
256,192,78553,5,8,1:0:0:0:
256,192,78784,5,0,1:0:0:0:
256,192,79015,5,0,1:0:0:0:
256,192,79245,5,8,1:0:0:0:
256,192,79476,5,0,1:0:0:0:
256,192,79707,5,8,1:0:0:0:
256,192,79938,5,8,1:0:0:0:
256,192,80399,5,8,1:0:0:0:
256,192,80630,5,0,1:0:0:0:
256,192,80861,5,8,1:0:0:0:
256,192,81092,5,8,1:0:0:0:
256,192,81553,5,0,1:0:0:0:
256,192,81784,5,8,1:0:0:0:
256,192,82245,5,0,1:0:0:0:
256,192,82476,5,0,1:0:0:0:
256,192,82707,5,8,1:0:0:0:
256,192,82938,5,0,1:0:0:0:
256,192,83168,5,8,1:0:0:0:
256,192,83630,5,8,1:0:0:0:
256,192,83861,5,0,1:0:0:0:
256,192,84092,5,0,1:0:0:0:
256,192,84322,5,0,1:0:0:0:
256,192,84553,5,8,1:0:0:0:
256,192,85015,5,12,1:0:0:0:
256,192,85245,5,0,1:0:0:0:
256,192,85361,5,0,1:0:0:0:
256,192,85476,5,8,1:0:0:0:
256,192,85707,5,0,1:0:0:0:
256,192,85938,5,8,1:0:0:0:
256,192,86053,5,0,1:0:0:0:
256,192,86168,5,8,1:0:0:0:
256,192,86284,5,8,1:0:0:0:
256,192,86399,5,0,1:0:0:0:
256,192,86630,5,0,1:0:0:0:
256,192,86861,5,8,1:0:0:0:
256,192,87322,5,8,1:0:0:0:
256,192,87553,5,0,1:0:0:0:
256,192,87784,5,8,1:0:0:0:
256,192,87899,5,0,1:0:0:0:
256,192,88015,5,8,1:0:0:0:
256,192,88245,5,8,1:0:0:0:
256,192,88361,5,8,1:0:0:0:
256,192,88476,5,0,1:0:0:0:
256,192,88707,5,12,1:0:0:0:
256,192,89168,5,0,1:0:0:0:
256,192,89399,5,8,1:0:0:0:
256,192,89515,5,0,1:0:0:0:
256,192,89630,5,8,1:0:0:0:
256,192,89745,5,8,1:0:0:0:
256,192,89861,5,0,1:0:0:0:
256,192,90092,5,8,1:0:0:0:
256,192,90322,5,0,1:0:0:0:
256,192,90553,5,8,1:0:0:0:
256,192,90668,5,0,1:0:0:0:
256,192,90784,5,0,1:0:0:0:
256,192,91015,5,8,1:0:0:0:
256,192,91245,5,8,1:0:0:0:
256,192,91361,5,8,1:0:0:0:
256,192,91476,5,0,1:0:0:0:
256,192,91592,5,0,1:0:0:0:
256,192,91707,5,8,1:0:0:0:
256,192,91938,5,8,1:0:0:0:
256,192,92053,5,8,1:0:0:0:
256,192,92168,5,0,1:0:0:0:
256,192,92399,5,12,1:0:0:0:
256,192,92861,5,8,1:0:0:0:
256,192,93092,5,0,1:0:0:0:
256,192,93207,5,0,1:0:0:0:
256,192,93322,5,8,1:0:0:0:
256,192,93553,5,8,1:0:0:0:
256,192,93668,5,0,1:0:0:0:
256,192,93784,5,8,1:0:0:0:
256,192,93899,5,8,1:0:0:0:
256,192,94015,5,0,1:0:0:0:
256,192,94245,5,8,1:0:0:0:
256,192,94707,5,8,1:0:0:0:
256,192,94938,5,0,1:0:0:0:
256,192,95168,5,0,1:0:0:0:
256,192,95284,5,0,1:0:0:0:
256,192,95399,5,8,1:0:0:0:
256,192,95630,5,8,1:0:0:0:
256,192,95745,5,8,1:0:0:0:
256,192,95861,5,0,1:0:0:0:
256,192,96092,5,12,1:0:0:0:
256,192,96553,5,0,1:0:0:0:
256,192,96784,5,8,1:0:0:0:
256,192,96899,5,0,1:0:0:0:
256,192,97015,5,8,1:0:0:0:
256,192,97130,5,0,1:0:0:0:
256,192,97245,5,8,1:0:0:0:
256,192,97476,5,0,1:0:0:0:
256,192,97707,5,8,1:0:0:0:
256,192,97938,5,8,1:0:0:0:
256,192,98053,5,8,1:0:0:0:
256,192,98168,5,0,1:0:0:0:
256,192,98399,5,8,1:0:0:0:
256,192,98515,5,0,1:0:0:0:
256,192,98630,5,8,1:0:0:0:
256,192,98745,5,8,1:0:0:0:
256,192,98861,5,0,1:0:0:0:
256,192,99092,5,8,1:0:0:0:
256,192,99322,5,0,1:0:0:0:
256,192,99438,5,8,1:0:0:0:
256,192,99553,5,0,1:0:0:0:
256,192,99784,5,12,1:0:0:0:
256,192,100245,5,8,1:0:0:0:
256,192,100476,5,0,1:0:0:0:
256,192,100707,5,8,1:0:0:0:
256,192,100822,5,8,1:0:0:0:
256,192,100938,5,0,1:0:0:0:
256,192,101053,5,0,1:0:0:0:
256,192,101168,5,8,1:0:0:0:
256,192,101399,5,8,1:0:0:0:
256,192,101630,5,0,1:0:0:0:
256,192,102092,5,8,1:0:0:0:
256,192,102322,5,0,1:0:0:0:
256,192,102553,5,8,1:0:0:0:
256,192,102668,5,8,1:0:0:0:
256,192,102784,5,0,1:0:0:0:
256,192,103015,5,8,1:0:0:0:
256,192,103130,5,0,1:0:0:0:
256,192,103245,5,8,1:0:0:0:
256,192,103476,5,12,1:0:0:0:
256,192,103938,5,0,1:0:0:0:
256,192,104168,5,8,1:0:0:0:
256,192,104284,5,0,1:0:0:0:
256,192,104399,5,8,1:0:0:0:
256,192,104515,5,8,1:0:0:0:
256,192,104630,5,0,1:0:0:0:
256,192,104861,5,8,1:0:0:0:
256,192,105092,5,0,1:0:0:0:
256,192,105322,5,8,1:0:0:0:
256,192,105438,5,8,1:0:0:0:
256,192,105553,5,0,1:0:0:0:
256,192,105784,5,8,1:0:0:0:
256,192,106015,5,0,1:0:0:0:
256,192,106130,5,8,1:0:0:0:
256,192,106245,5,0,1:0:0:0:
256,192,106361,5,0,1:0:0:0:
256,192,106476,5,8,1:0:0:0:
256,192,106707,5,8,1:0:0:0:
256,192,106822,5,8,1:0:0:0:
256,192,106938,5,0,1:0:0:0:
256,192,107168,5,12,1:0:0:0:
256,192,107630,5,0,1:0:0:0:
256,192,107861,5,8,1:0:0:0:
256,192,107976,5,0,1:0:0:0:
256,192,108092,5,8,1:0:0:0:
256,192,108322,5,0,1:0:0:0:
256,192,108438,5,0,1:0:0:0:
256,192,108553,5,8,1:0:0:0:
256,192,108668,5,8,1:0:0:0:
256,192,108784,5,0,1:0:0:0:
256,192,109015,5,8,1:0:0:0:
256,192,109476,5,8,1:0:0:0:
256,192,109707,5,0,1:0:0:0:
256,192,109938,5,8,1:0:0:0:
256,192,110053,5,0,1:0:0:0:
256,192,110168,5,8,1:0:0:0:
256,192,110399,5,0,1:0:0:0:
256,192,110515,5,8,1:0:0:0:
256,192,110630,5,0,1:0:0:0:
256,192,110861,5,12,1:0:0:0:
256,192,111322,5,0,1:0:0:0:
256,192,111553,5,8,1:0:0:0:
256,192,111668,5,0,1:0:0:0:
256,192,111784,5,8,1:0:0:0:
256,192,111899,5,8,1:0:0:0:
256,192,112015,5,0,1:0:0:0:
256,192,112245,5,8,1:0:0:0:
256,192,112476,5,0,1:0:0:0:
256,192,112707,5,8,1:0:0:0:
256,192,112822,5,8,1:0:0:0:
256,192,112938,5,0,1:0:0:0:
256,192,113168,5,8,1:0:0:0:
256,192,113284,5,8,1:0:0:0:
256,192,113399,5,0,1:0:0:0:
256,192,113515,5,8,1:0:0:0:
256,192,113630,5,0,1:0:0:0:
256,192,113861,5,8,1:0:0:0:
256,192,129322,5,0,1:0:0:0:
256,192,129784,5,8,1:0:0:0:
256,192,130015,5,0,1:0:0:0:
256,192,130245,5,0,1:0:0:0:
256,192,130707,5,8,1:0:0:0:
256,192,131168,5,0,1:0:0:0:
256,192,131399,5,8,1:0:0:0:
256,192,131630,5,0,1:0:0:0:
256,192,131861,5,8,1:0:0:0:
256,192,132092,5,8,1:0:0:0:
256,192,132322,5,8,1:0:0:0:
256,192,132553,5,0,1:0:0:0:
256,192,133015,5,8,1:0:0:0:
256,192,133245,5,0,1:0:0:0:
256,192,133476,5,0,1:0:0:0:
256,192,133707,5,8,1:0:0:0:
256,192,133938,5,8,1:0:0:0:
256,192,134168,5,0,1:0:0:0:
256,192,134399,5,8,1:0:0:0:
256,192,134861,5,0,1:0:0:0:
256,192,135322,5,8,1:0:0:0:
256,192,135668,5,8,1:0:0:0:
256,192,135784,5,0,1:0:0:0:
256,192,136015,5,8,1:0:0:0:
256,192,136245,5,8,1:0:0:0:
256,192,136476,5,0,1:0:0:0:
256,192,136707,5,8,1:0:0:0:
256,192,137168,5,0,1:0:0:0:
256,192,137399,5,8,1:0:0:0:
256,192,137630,5,8,1:0:0:0:
256,192,138092,5,0,1:0:0:0:
256,192,138553,5,8,1:0:0:0:
256,192,138784,5,0,1:0:0:0:
256,192,139015,5,8,1:0:0:0:
256,192,139245,5,8,1:0:0:0:
256,192,139707,5,0,1:0:0:0:
256,192,139938,5,8,1:0:0:0:
256,192,140168,5,8,1:0:0:0:
256,192,140399,5,0,1:0:0:0:
256,192,140630,5,8,1:0:0:0:
256,192,140861,5,0,1:0:0:0:
256,192,141092,5,8,1:0:0:0:
256,192,141322,5,0,1:0:0:0:
256,192,141553,5,8,1:0:0:0:
256,192,141784,5,0,1:0:0:0:
256,192,142245,5,0,1:0:0:0:
256,192,142476,5,0,1:0:0:0:
256,192,142707,5,8,1:0:0:0:
256,192,142938,5,0,1:0:0:0:
256,192,143630,5,0,1:0:0:0:
256,192,144092,5,12,1:0:0:0:
256,192,144322,5,0,1:0:0:0:
256,192,144438,5,0,1:0:0:0:
256,192,144553,5,8,1:0:0:0:
256,192,144784,5,0,1:0:0:0:
256,192,145015,5,8,1:0:0:0:
256,192,145130,5,0,1:0:0:0:
256,192,145245,5,8,1:0:0:0:
256,192,145361,5,0,1:0:0:0:
256,192,145476,5,8,1:0:0:0:
256,192,145707,5,0,1:0:0:0:
256,192,145938,5,8,1:0:0:0:
256,192,146399,5,0,1:0:0:0:
256,192,146630,5,8,1:0:0:0:
256,192,146861,5,8,1:0:0:0:
256,192,146976,5,8,1:0:0:0:
256,192,147092,5,0,1:0:0:0:
256,192,147322,5,8,1:0:0:0:
256,192,147438,5,0,1:0:0:0:
256,192,147553,5,8,1:0:0:0:
256,192,147784,5,4,1:0:0:0:
256,192,148245,5,8,1:0:0:0:
256,192,148476,5,0,1:0:0:0:
256,192,148592,5,0,1:0:0:0:
256,192,148707,5,8,1:0:0:0:
256,192,148822,5,8,1:0:0:0:
256,192,148938,5,0,1:0:0:0:
256,192,149168,5,8,1:0:0:0:
256,192,149399,5,0,1:0:0:0:
256,192,149630,5,8,1:0:0:0:
256,192,149745,5,8,1:0:0:0:
256,192,149861,5,0,1:0:0:0:
256,192,150092,5,8,1:0:0:0:
256,192,150322,5,0,1:0:0:0:
256,192,150438,5,0,1:0:0:0:
256,192,150553,5,8,1:0:0:0:
256,192,150668,5,0,1:0:0:0:
256,192,150784,5,8,1:0:0:0:
256,192,151015,5,8,1:0:0:0:
256,192,151130,5,8,1:0:0:0:
256,192,151245,5,0,1:0:0:0:
256,192,151476,5,12,1:0:0:0:
256,192,151938,5,0,1:0:0:0:
256,192,152168,5,8,1:0:0:0:
256,192,152284,5,0,1:0:0:0:
256,192,152399,5,8,1:0:0:0:
256,192,152630,5,8,1:0:0:0:
256,192,152745,5,0,1:0:0:0:
256,192,152861,5,8,1:0:0:0:
256,192,152976,5,8,1:0:0:0:
256,192,153092,5,0,1:0:0:0:
256,192,153322,5,8,1:0:0:0:
256,192,153784,5,0,1:0:0:0:
256,192,154015,5,8,1:0:0:0:
256,192,154245,5,8,1:0:0:0:
256,192,154361,5,0,1:0:0:0:
256,192,154476,5,8,1:0:0:0:
256,192,154707,5,8,1:0:0:0:
256,192,154822,5,0,1:0:0:0:
256,192,154938,5,0,1:0:0:0:
256,192,155168,5,12,1:0:0:0:
256,192,155630,5,0,1:0:0:0:
256,192,155861,5,8,1:0:0:0:
256,192,155976,5,8,1:0:0:0:
256,192,156092,5,0,1:0:0:0:
256,192,156207,5,8,1:0:0:0:
256,192,156322,5,0,1:0:0:0:
256,192,156553,5,8,1:0:0:0:
256,192,156784,5,0,1:0:0:0:
256,192,157015,5,8,1:0:0:0:
256,192,157130,5,8,1:0:0:0:
256,192,157245,5,0,1:0:0:0:
256,192,157476,5,8,1:0:0:0:
256,192,157592,5,0,1:0:0:0:
256,192,157707,5,8,1:0:0:0:
256,192,157822,5,8,1:0:0:0:
256,192,157938,5,0,1:0:0:0:
256,192,158168,5,0,1:0:0:0:
256,192,158399,5,8,1:0:0:0:
256,192,158515,5,8,1:0:0:0:
256,192,158630,5,0,1:0:0:0:
256,192,158861,5,12,1:0:0:0:
256,192,159322,5,8,1:0:0:0:
256,192,159553,5,0,1:0:0:0:
256,192,159784,5,8,1:0:0:0:
256,192,159899,5,0,1:0:0:0:
256,192,160015,5,8,1:0:0:0:
256,192,160130,5,8,1:0:0:0:
256,192,160245,5,0,1:0:0:0:
256,192,160476,5,8,1:0:0:0:
256,192,160707,5,0,1:0:0:0:
256,192,161168,5,8,1:0:0:0:
256,192,161399,5,0,1:0:0:0:
256,192,161630,5,8,1:0:0:0:
256,192,161745,5,0,1:0:0:0:
256,192,161861,5,8,1:0:0:0:
256,192,162092,5,8,1:0:0:0:
256,192,162207,5,8,1:0:0:0:
256,192,162322,5,0,1:0:0:0:
256,192,162553,5,12,1:0:0:0:
256,192,163015,5,0,1:0:0:0:
256,192,163245,5,8,1:0:0:0:
256,192,163361,5,0,1:0:0:0:
256,192,163476,5,8,1:0:0:0:
256,192,163592,5,8,1:0:0:0:
256,192,163707,5,0,1:0:0:0:
256,192,163938,5,8,1:0:0:0:
256,192,164168,5,0,1:0:0:0:
256,192,164399,5,8,1:0:0:0:
256,192,164515,5,0,1:0:0:0:
256,192,164630,5,8,1:0:0:0:
256,192,164861,5,0,1:0:0:0:
256,192,165092,5,8,1:0:0:0:
256,192,165207,5,8,1:0:0:0:
256,192,165322,5,0,1:0:0:0:
256,192,165438,5,0,1:0:0:0:
256,192,165553,5,8,1:0:0:0:
256,192,165784,5,8,1:0:0:0:
256,192,165899,5,8,1:0:0:0:
256,192,166015,5,0,1:0:0:0:
256,192,166245,5,12,1:0:0:0:
256,192,166707,5,0,1:0:0:0:
256,192,166938,5,0,1:0:0:0:
256,192,167053,5,0,1:0:0:0:
256,192,167168,5,8,1:0:0:0:
256,192,167399,5,8,1:0:0:0:
256,192,167515,5,8,1:0:0:0:
256,192,167630,5,0,1:0:0:0:
256,192,167745,5,8,1:0:0:0:
256,192,167861,5,0,1:0:0:0:
256,192,168092,5,8,1:0:0:0:
256,192,168553,5,0,1:0:0:0:
256,192,168784,5,8,1:0:0:0:
256,192,169015,5,0,1:0:0:0:
256,192,169130,5,8,1:0:0:0:
256,192,169245,5,0,1:0:0:0:
256,192,169476,5,8,1:0:0:0:
256,192,169592,5,0,1:0:0:0:
256,192,169707,5,8,1:0:0:0:
256,192,169938,5,12,1:0:0:0:
256,192,170399,5,0,1:0:0:0:
256,192,170630,5,8,1:0:0:0:
256,192,170745,5,8,1:0:0:0:
256,192,170861,5,0,1:0:0:0:
256,192,170976,5,0,1:0:0:0:
256,192,171092,5,8,1:0:0:0:
256,192,171322,5,0,1:0:0:0:
256,192,171553,5,0,1:0:0:0:
256,192,171784,5,8,1:0:0:0:
256,192,171899,5,8,1:0:0:0:
256,192,172015,5,0,1:0:0:0:
256,192,172245,5,8,1:0:0:0:
256,192,172361,5,0,1:0:0:0:
256,192,172476,5,8,1:0:0:0:
256,192,172592,5,8,1:0:0:0:
256,192,172707,5,0,1:0:0:0:
256,192,172938,5,8,1:0:0:0:
256,192,173630,5,4,1:0:0:0:
256,192,174092,5,8,1:0:0:0:
256,192,174553,5,0,1:0:0:0:
256,192,174784,5,0,1:0:0:0:
256,192,174899,5,0,1:0:0:0:
256,192,175015,5,8,1:0:0:0:
256,192,175245,5,8,1:0:0:0:
256,192,175476,5,0,1:0:0:0:
256,192,175707,5,8,1:0:0:0:
256,192,175822,5,8,1:0:0:0:
256,192,175938,5,0,1:0:0:0:
256,192,176399,5,0,1:0:0:0:
256,192,176630,5,8,1:0:0:0:
256,192,176745,5,0,1:0:0:0:
256,192,176861,5,8,1:0:0:0:
256,192,177092,5,0,1:0:0:0:
256,192,177322,5,12,1:0:0:0:
256,192,177784,5,0,1:0:0:0:
256,192,178015,5,0,1:0:0:0:
256,192,178245,5,8,1:0:0:0:
256,192,178361,5,8,1:0:0:0:
256,192,178476,5,0,1:0:0:0:
256,192,178707,5,8,1:0:0:0:
256,192,178938,5,8,1:0:0:0:
256,192,179053,5,0,1:0:0:0:
256,192,179168,5,8,1:0:0:0:
256,192,179399,5,0,1:0:0:0:
256,192,179630,5,8,1:0:0:0:
256,192,179976,5,8,1:0:0:0:
256,192,180092,5,0,1:0:0:0:
256,192,180322,5,0,1:0:0:0:
256,192,180438,5,0,1:0:0:0:
256,192,180553,5,8,1:0:0:0:
256,192,180784,5,8,1:0:0:0:
256,192,181015,5,4,1:0:0:0:
256,192,181476,5,8,1:0:0:0:
256,192,181938,5,0,1:0:0:0:
256,192,182168,5,8,1:0:0:0:
256,192,182284,5,0,1:0:0:0:
256,192,182399,5,8,1:0:0:0:
256,192,182630,5,0,1:0:0:0:
256,192,182861,5,8,1:0:0:0:
256,192,183092,5,8,1:0:0:0:
256,192,183207,5,8,1:0:0:0:
256,192,183322,5,0,1:0:0:0:
256,192,183784,5,8,1:0:0:0:
256,192,184015,5,0,1:0:0:0:
256,192,184130,5,0,1:0:0:0:
256,192,184245,5,8,1:0:0:0:
256,192,184476,5,0,1:0:0:0:
256,192,184707,5,12,1:0:0:0:
256,192,185168,5,0,1:0:0:0:
256,192,185399,5,0,1:0:0:0:
256,192,185630,5,8,1:0:0:0:
256,192,185745,5,8,1:0:0:0:
256,192,185861,5,0,1:0:0:0:
256,192,186092,5,8,1:0:0:0:
256,192,186322,5,0,1:0:0:0:
256,192,186438,5,8,1:0:0:0:
256,192,186553,5,0,1:0:0:0:
256,192,186784,5,0,1:0:0:0:
256,192,187015,5,8,1:0:0:0:
256,192,187361,5,8,1:0:0:0:
256,192,187476,5,0,1:0:0:0:
256,192,187707,5,8,1:0:0:0:
256,192,187938,5,8,1:0:0:0:
256,192,188168,5,8,1:0:0:0:
