osu file format v14

[General]
AudioFilename: audio.mp3
AudioLeadIn: 0
PreviewTime: 931
Countdown: 0
SampleSet: None
StackLeniency: 0.4
Mode: 3
LetterboxInBreaks: 0
SpecialStyle: 0
WidescreenStoryboard: 0

[Editor]
DistanceSpacing: 1
BeatDivisor: 4
GridSize: 16
TimelineZoom: 1.3

[Metadata]
Title:Les Prisons de Nantes
TitleUnicode:Les Prisons de Nantes
Artist:Tri Yann
ArtistUnicode:Tri Yann
Creator:Daminator4113
Version:Insane
Source:
Tags:Les Prisons de Nantes Tri Yann
BeatmapID:1738954
BeatmapSetID:829930

[Difficulty]
HPDrainRate:7
CircleSize:4
OverallDifficulty:7
ApproachRate:5
SliderMultiplier:1.4
SliderTickRate:1

[Events]
//Background and Video events
0,0,"triskel_by_codysymes-d7ewlm9.png",0,0
//Break Periods
//Storyboard Layer 0 (Background)
//Storyboard Layer 1 (Fail)
//Storyboard Layer 2 (Pass)
//Storyboard Layer 3 (Foreground)
//Storyboard Sound Samples

[TimingPoints]
0,372.670807453416,5,2,0,50,1,0
25341,355.029585798817,4,2,0,50,1,0
34483,-80,4,2,0,50,0,0
34660,-66.6666666666667,4,2,0,50,0,0
34838,-66.6666666666667,4,2,0,50,0,1
37323,-66.6666666666667,4,2,0,50,0,0
54187,-66.6666666666667,4,2,0,50,0,1
58003,-66.6666666666667,4,2,0,50,0,0
73802,-80,4,2,0,50,0,0
74157,-100,4,2,0,50,0,0
85341,-80,4,2,0,50,0,0
88713,-66.6666666666667,4,2,0,50,0,0
89867,-66.6666666666667,4,2,0,50,0,1
93861,-66.6666666666667,4,2,0,50,0,0
113388,-66.6666666666667,4,2,0,50,0,1
119423,-100,4,2,0,50,0,0

[HitObjects]
448,192,931,128,0,1677:0:0:0:0:
320,192,1677,128,0,2049:0:0:0:0:
192,192,2049,128,0,2236:0:0:0:0:
64,192,2236,128,0,2701:0:0:0:0:
192,192,2701,128,0,2795:0:0:0:0:
320,192,2795,128,0,3447:0:0:0:0:
448,192,3447,128,0,3819:0:0:0:0:
192,192,3819,128,0,4192:0:0:0:0:
64,192,4192,128,0,4285:0:0:0:0:
192,192,4285,128,0,4378:0:0:0:0:
320,192,4378,128,0,4472:0:0:0:0:
448,192,4472,128,0,4565:0:0:0:0:
320,192,4565,128,0,4658:0:0:0:0:
192,192,4658,128,0,5124:0:0:0:0:
64,192,5124,128,0,5217:0:0:0:0:
192,192,5217,128,0,5310:0:0:0:0:
320,192,5310,128,0,5403:0:0:0:0:
448,192,5403,128,0,5683:0:0:0:0:
320,192,5683,128,0,5962:0:0:0:0:
192,192,5962,128,0,6242:0:0:0:0:
64,192,6242,128,0,6614:0:0:0:0:
448,192,6242,128,0,6614:0:0:0:0:
192,192,6614,128,0,6708:0:0:0:0:
320,192,6708,128,0,6801:0:0:0:0:
448,192,6801,128,0,6894:0:0:0:0:
320,192,6894,128,0,6987:0:0:0:0:
192,192,6987,128,0,7080:0:0:0:0:
64,192,7546,128,0,8291:0:0:0:0:
192,192,8291,128,0,8571:0:0:0:0:
320,192,8571,128,0,8850:0:0:0:0:
448,192,8850,128,0,9130:0:0:0:0:
320,192,9130,128,0,9409:0:0:0:0:
192,192,9409,128,0,10062:0:0:0:0:
64,192,10062,128,0,10341:0:0:0:0:
192,192,10341,128,0,10621:0:0:0:0:
320,192,10621,128,0,10900:0:0:0:0:
448,192,10900,128,0,11180:0:0:0:0:
320,192,11180,128,0,11645:0:0:0:0:
192,192,11645,128,0,12111:0:0:0:0:
64,192,12111,128,0,12484:0:0:0:0:
448,192,12484,128,0,12717:0:0:0:0:
320,192,12717,128,0,12950:0:0:0:0:
192,192,12950,128,0,13276:0:0:0:0:
64,192,13276,128,0,13509:0:0:0:0:
192,192,13509,128,0,13602:0:0:0:0:
320,192,13602,128,0,15093:0:0:0:0:
64,192,15559,128,0,15931:0:0:0:0:
192,192,15931,128,0,16211:0:0:0:0:
320,192,16211,128,0,16397:0:0:0:0:
448,192,16397,128,0,16677:0:0:0:0:
320,192,16677,128,0,17049:0:0:0:0:
192,192,17049,128,0,17422:0:0:0:0:
64,192,17422,128,0,17701:0:0:0:0:
192,192,17701,128,0,17795:0:0:0:0:
320,192,17795,128,0,17888:0:0:0:0:
448,192,17888,128,0,17981:0:0:0:0:
320,192,17981,128,0,18074:0:0:0:0:
192,192,18074,128,0,18307:0:0:0:0:
320,192,18307,128,0,18400:0:0:0:0:
192,192,18400,128,0,18493:0:0:0:0:
64,192,18493,128,0,18586:0:0:0:0:
192,192,18586,128,0,18680:0:0:0:0:
320,192,18680,128,0,18819:0:0:0:0:
192,192,18819,128,0,19006:0:0:0:0:
64,192,19006,128,0,19192:0:0:0:0:
192,192,19192,128,0,19378:0:0:0:0:
320,192,19378,128,0,19472:0:0:0:0:
448,192,19472,128,0,19565:0:0:0:0:
320,192,19565,128,0,19658:0:0:0:0:
192,192,19658,128,0,19751:0:0:0:0:
64,192,19751,128,0,19844:0:0:0:0:
448,192,20124,128,0,20496:0:0:0:0:
320,192,20496,128,0,20683:0:0:0:0:
192,192,20683,128,0,20869:0:0:0:0:
64,192,20869,128,0,21055:0:0:0:0:
192,192,21055,128,0,21242:0:0:0:0:
320,192,21242,128,0,21614:0:0:0:0:
448,192,21614,128,0,21801:0:0:0:0:
320,192,21801,128,0,21987:0:0:0:0:
192,192,21987,128,0,22173:0:0:0:0:
64,192,22173,128,0,22360:0:0:0:0:
192,192,22360,128,0,22732:0:0:0:0:
320,192,22732,128,0,23105:0:0:0:0:
448,192,23105,128,0,23291:0:0:0:0:
320,192,23291,128,0,23478:0:0:0:0:
192,192,23478,128,0,23664:0:0:0:0:
64,192,23664,128,0,23850:0:0:0:0:
192,192,23850,128,0,24037:0:0:0:0:
320,192,24037,128,0,25248:0:0:0:0:
64,192,25607,1,8,0:0:0:0:
448,192,25607,128,0,25962:0:0:0:0:
64,192,25962,1,8,0:0:0:0:
320,192,25962,128,0,26139:0:0:0:0:
192,192,26139,128,0,26406:0:0:0:0:
64,192,26317,1,8,0:0:0:0:
320,192,26406,128,0,26672:0:0:0:0:
64,192,26672,1,8,0:0:0:0:
448,192,26672,128,0,27027:0:0:0:0:
64,192,27027,1,8,0:0:0:0:
320,192,27027,128,0,27204:0:0:0:0:
192,192,27204,128,0,27382:0:0:0:0:
64,192,27382,1,8,0:0:0:0:
320,192,27382,128,0,27471:0:0:0:0:
448,192,27471,128,0,27559:0:0:0:0:
320,192,27559,128,0,27648:0:0:0:0:
192,192,27648,128,0,27737:0:0:0:0:
64,192,27737,1,8,0:0:0:0:
320,192,27737,128,0,27914:0:0:0:0:
448,192,27914,128,0,28003:0:0:0:0:
320,192,28003,128,0,28092:0:0:0:0:
64,192,28092,1,8,0:0:0:0:
192,192,28092,128,0,28181:0:0:0:0:
320,192,28181,128,0,28269:0:0:0:0:
448,192,28269,128,0,28447:0:0:0:0:
64,192,28447,1,8,0:0:0:0:
320,192,28447,128,0,28625:0:0:0:0:
192,192,28625,128,0,28802:0:0:0:0:
64,192,28802,1,8,0:0:0:0:
320,192,28802,128,0,28891:0:0:0:0:
448,192,28891,128,0,28980:0:0:0:0:
320,192,28980,128,0,29068:0:0:0:0:
192,192,29068,128,0,29157:0:0:0:0:
64,192,29157,1,8,0:0:0:0:
320,192,29157,128,0,29246:0:0:0:0:
64,192,29512,1,8,0:0:0:0:
448,192,29512,128,0,29867:0:0:0:0:
64,192,29867,1,8,0:0:0:0:
320,192,29867,128,0,30133:0:0:0:0:
192,192,30133,128,0,30222:0:0:0:0:
64,192,30222,1,8,0:0:0:0:
320,192,30222,128,0,30400:0:0:0:0:
448,192,30400,128,0,30577:0:0:0:0:
64,192,30577,1,8,0:0:0:0:
320,192,30577,128,0,30932:0:0:0:0:
64,192,30932,1,8,0:0:0:0:
192,192,30932,128,0,31110:0:0:0:0:
320,192,31110,128,0,31287:0:0:0:0:
64,192,31287,1,8,0:0:0:0:
448,192,31287,128,0,31465:0:0:0:0:
320,192,31465,128,0,31642:0:0:0:0:
64,192,31642,1,8,0:0:0:0:
192,192,31642,128,0,31909:0:0:0:0:
320,192,31909,128,0,32264:0:0:0:0:
64,192,31997,1,8,0:0:0:0:
448,192,32264,128,0,32707:0:0:0:0:
64,192,32352,1,8,0:0:0:0:
64,192,32707,1,8,0:0:0:0:
320,192,32707,128,0,32885:0:0:0:0:
192,192,32885,128,0,33062:0:0:0:0:
64,192,33062,1,8,0:0:0:0:
320,192,33062,128,0,33240:0:0:0:0:
448,192,33240,128,0,33417:0:0:0:0:
64,192,33417,1,8,0:0:0:0:
320,192,33417,128,0,34483:0:0:0:0:
64,192,33772,1,8,0:0:0:0:
64,192,34127,1,8,0:0:0:0:
64,192,34483,1,8,0:0:0:0:
64,192,34660,1,8,0:0:0:0:
64,192,34838,1,8,0:0:0:0:
192,192,34926,1,8,0:0:0:0:
448,192,34926,128,0,35015:0:0:0:0:
320,192,35015,1,8,0:0:0:0:
448,192,35104,1,8,0:0:0:0:
320,192,35193,1,8,0:0:0:0:
192,192,35281,1,8,0:0:0:0:
448,192,35281,128,0,35370:0:0:0:0:
64,192,35370,1,8,0:0:0:0:
192,192,35459,1,8,0:0:0:0:
320,192,35548,1,8,0:0:0:0:
192,192,35636,1,8,0:0:0:0:
448,192,35636,128,0,35725:0:0:0:0:
64,192,35725,1,8,0:0:0:0:
448,192,35814,1,8,0:0:0:0:
320,192,35903,1,8,0:0:0:0:
192,192,35991,1,8,0:0:0:0:
448,192,35991,128,0,36080:0:0:0:0:
64,192,36080,1,8,0:0:0:0:
192,192,36169,1,8,0:0:0:0:
320,192,36169,1,8,0:0:0:0:
448,192,36169,128,0,36258:0:0:0:0:
64,192,36346,1,8,0:0:0:0:
448,192,36346,128,0,36435:0:0:0:0:
320,192,36435,1,8,0:0:0:0:
192,192,36524,1,8,0:0:0:0:
64,192,36613,1,8,0:0:0:0:
192,192,36701,1,8,0:0:0:0:
448,192,36701,128,0,36790:0:0:0:0:
320,192,36790,1,8,0:0:0:0:
448,192,36879,1,8,0:0:0:0:
320,192,36968,1,8,0:0:0:0:
64,192,37056,1,8,0:0:0:0:
448,192,37056,128,0,37145:0:0:0:0:
320,192,37323,1,8,0:0:0:0:
192,192,37323,1,8,0:0:0:0:
448,192,37412,128,0,37500:0:0:0:0:
64,192,37589,1,8,0:0:0:0:
448,192,37589,1,8,0:0:0:0:
192,192,37678,1,8,0:0:0:0:
64,192,37767,1,8,0:0:0:0:
448,192,37767,128,0,37855:0:0:0:0:
192,192,37855,1,8,0:0:0:0:
320,192,37944,1,8,0:0:0:0:
448,192,38033,1,8,0:0:0:0:
64,192,38122,1,8,0:0:0:0:
448,192,38122,128,0,38210:0:0:0:0:
192,192,38210,1,8,0:0:0:0:
320,192,38299,1,8,0:0:0:0:
448,192,38388,1,8,0:0:0:0:
320,192,38477,1,8,0:0:0:0:
448,192,38477,128,0,38565:0:0:0:0:
192,192,38565,1,8,0:0:0:0:
64,192,38654,1,8,0:0:0:0:
448,192,38743,1,8,0:0:0:0:
448,192,38832,128,0,38920:0:0:0:0:
64,192,38920,1,8,0:0:0:0:
192,192,39009,1,8,0:0:0:0:
320,192,39098,1,8,0:0:0:0:
192,192,39187,1,8,0:0:0:0:
448,192,39187,128,0,39275:0:0:0:0:
320,192,39275,1,8,0:0:0:0:
448,192,39364,1,8,0:0:0:0:
64,192,39453,1,8,0:0:0:0:
192,192,39542,1,8,0:0:0:0:
448,192,39542,128,0,39630:0:0:0:0:
320,192,39630,1,8,0:0:0:0:
192,192,39719,1,8,0:0:0:0:
320,192,39808,1,8,0:0:0:0:
64,192,39897,1,8,0:0:0:0:
448,192,39897,128,0,39985:0:0:0:0:
320,192,39985,1,8,0:0:0:0:
192,192,40074,1,8,0:0:0:0:
64,192,40163,1,8,0:0:0:0:
448,192,40252,128,0,40341:0:0:0:0:
64,192,40341,1,8,0:0:0:0:
192,192,40429,1,8,0:0:0:0:
320,192,40518,1,8,0:0:0:0:
192,192,40607,1,8,0:0:0:0:
448,192,40607,128,0,40696:0:0:0:0:
64,192,40696,1,8,0:0:0:0:
192,192,40784,1,8,0:0:0:0:
320,192,40873,1,8,0:0:0:0:
64,192,40962,1,8,0:0:0:0:
448,192,40962,128,0,41051:0:0:0:0:
320,192,41051,1,8,0:0:0:0:
192,192,41139,1,8,0:0:0:0:
320,192,41228,1,8,0:0:0:0:
64,192,41317,1,8,0:0:0:0:
448,192,41317,128,0,41406:0:0:0:0:
320,192,41406,1,8,0:0:0:0:
192,192,41494,1,8,0:0:0:0:
64,192,41583,1,8,0:0:0:0:
192,192,41672,1,8,0:0:0:0:
448,192,41672,128,0,41761:0:0:0:0:
320,192,41761,1,8,0:0:0:0:
192,192,41849,1,8,0:0:0:0:
448,192,41849,128,0,41938:0:0:0:0:
64,192,41938,1,8,0:0:0:0:
448,192,42027,128,0,42116:0:0:0:0:
64,192,42160,1,8,0:0:0:0:
192,192,42204,1,8,0:0:0:0:
320,192,42249,1,8,0:0:0:0:
448,192,42293,1,8,0:0:0:0:
64,192,42382,128,0,42471:0:0:0:0:
448,192,42471,1,8,0:0:0:0:
320,192,42559,1,8,0:0:0:0:
192,192,42648,1,8,0:0:0:0:
64,192,42737,1,8,0:0:0:0:
448,192,42737,128,0,42826:0:0:0:0:
192,192,42826,1,8,0:0:0:0:
320,192,42914,1,8,0:0:0:0:
448,192,43003,1,8,0:0:0:0:
64,192,43003,1,8,0:0:0:0:
64,192,43092,128,0,43181:0:0:0:0:
64,192,43269,1,8,0:0:0:0:
448,192,43269,1,8,0:0:0:0:
320,192,43358,1,8,0:0:0:0:
192,192,43447,1,8,0:0:0:0:
448,192,43447,128,0,43536:0:0:0:0:
64,192,43536,1,8,0:0:0:0:
320,192,43536,128,0,43625:0:0:0:0:
192,192,43625,1,8,0:0:0:0:
320,192,43713,1,8,0:0:0:0:
64,192,43713,128,0,43802:0:0:0:0:
448,192,43802,1,8,0:0:0:0:
320,192,43891,1,8,0:0:0:0:
448,192,43891,128,0,43980:0:0:0:0:
192,192,43980,1,8,0:0:0:0:
320,192,44068,1,8,0:0:0:0:
64,192,44068,128,0,44157:0:0:0:0:
192,192,44157,1,8,0:0:0:0:
448,192,44246,1,8,0:0:0:0:
64,192,44246,1,8,0:0:0:0:
192,192,44246,128,0,44335:0:0:0:0:
320,192,44423,128,0,44512:0:0:0:0:
448,192,44512,1,8,0:0:0:0:
64,192,44512,1,8,0:0:0:0:
192,192,44601,1,8,0:0:0:0:
320,192,44690,1,8,0:0:0:0:
448,192,44778,1,8,0:0:0:0:
64,192,44867,1,8,0:0:0:0:
448,192,44867,128,0,44956:0:0:0:0:
192,192,44956,1,8,0:0:0:0:
320,192,45045,1,8,0:0:0:0:
448,192,45133,1,8,0:0:0:0:
320,192,45222,1,8,0:0:0:0:
64,192,45222,128,0,45311:0:0:0:0:
192,192,45311,1,8,0:0:0:0:
64,192,45400,1,8,0:0:0:0:
192,192,45400,128,0,45488:0:0:0:0:
448,192,45488,1,8,0:0:0:0:
320,192,45577,1,8,0:0:0:0:
64,192,45577,128,0,45666:0:0:0:0:
192,192,45666,1,8,0:0:0:0:
64,192,45755,1,8,0:0:0:0:
448,192,45755,1,8,0:0:0:0:
448,192,45932,128,0,46021:0:0:0:0:
64,192,46021,1,8,0:0:0:0:
192,192,46110,1,8,0:0:0:0:
320,192,46198,1,8,0:0:0:0:
192,192,46287,1,8,0:0:0:0:
448,192,46287,128,0,46376:0:0:0:0:
320,192,46376,1,8,0:0:0:0:
448,192,46465,1,8,0:0:0:0:
64,192,46465,1,8,0:0:0:0:
192,192,46554,1,8,0:0:0:0:
320,192,46642,1,8,0:0:0:0:
64,192,46642,128,0,46731:0:0:0:0:
448,192,46731,1,8,0:0:0:0:
320,192,46820,1,8,0:0:0:0:
64,192,46909,1,8,0:0:0:0:
192,192,46953,1,8,0:0:0:0:
320,192,46997,1,8,0:0:0:0:
64,192,46997,128,0,47086:0:0:0:0:
448,192,47042,1,8,0:0:0:0:
64,192,47264,1,8,0:0:0:0:
448,192,47264,1,8,0:0:0:0:
320,192,47352,1,8,0:0:0:0:
448,192,47352,128,0,47441:0:0:0:0:
192,192,47441,1,8,0:0:0:0:
64,192,47530,1,8,0:0:0:0:
448,192,47619,1,8,0:0:0:0:
320,192,47707,1,8,0:0:0:0:
64,192,47707,128,0,47796:0:0:0:0:
192,192,47796,1,8,0:0:0:0:
64,192,47885,1,8,0:0:0:0:
448,192,47974,1,8,0:0:0:0:
320,192,48062,1,8,0:0:0:0:
448,192,48062,128,0,48151:0:0:0:0:
192,192,48151,1,8,0:0:0:0:
64,192,48240,1,8,0:0:0:0:
448,192,48240,1,8,0:0:0:0:
64,192,48417,128,0,48506:0:0:0:0:
448,192,48506,1,8,0:0:0:0:
192,192,48595,1,8,0:0:0:0:
448,192,48684,1,8,0:0:0:0:
320,192,48772,1,8,0:0:0:0:
448,192,48772,128,0,48861:0:0:0:0:
64,192,48861,1,8,0:0:0:0:
192,192,48950,1,8,0:0:0:0:
320,192,48950,128,0,49039:0:0:0:0:
448,192,49039,1,8,0:0:0:0:
320,192,49127,1,8,0:0:0:0:
448,192,49127,128,0,49216:0:0:0:0:
64,192,49216,1,8,0:0:0:0:
192,192,49305,1,8,0:0:0:0:
448,192,49394,1,8,0:0:0:0:
320,192,49483,1,8,0:0:0:0:
448,192,49483,128,0,49571:0:0:0:0:
64,192,49571,1,8,0:0:0:0:
192,192,49660,1,8,0:0:0:0:
64,192,49749,1,8,0:0:0:0:
448,192,49749,1,8,0:0:0:0:
64,192,49838,128,0,49926:0:0:0:0:
192,192,49926,1,8,0:0:0:0:
320,192,49926,1,8,0:0:0:0:
64,192,50015,1,8,0:0:0:0:
192,192,50104,1,8,0:0:0:0:
320,192,50193,1,8,0:0:0:0:
64,192,50193,128,0,50281:0:0:0:0:
448,192,50281,1,8,0:0:0:0:
64,192,50370,1,8,0:0:0:0:
192,192,50459,1,8,0:0:0:0:
448,192,50548,1,8,0:0:0:0:
64,192,50548,128,0,50636:0:0:0:0:
320,192,50636,1,8,0:0:0:0:
192,192,50725,1,8,0:0:0:0:
64,192,50814,1,8,0:0:0:0:
448,192,50903,1,8,0:0:0:0:
64,192,50903,128,0,50991:0:0:0:0:
320,192,50991,1,8,0:0:0:0:
64,192,51080,1,8,0:0:0:0:
192,192,51169,1,8,0:0:0:0:
320,192,51258,1,8,0:0:0:0:
64,192,51258,128,0,51346:0:0:0:0:
448,192,51346,1,8,0:0:0:0:
320,192,51435,1,8,0:0:0:0:
192,192,51524,1,8,0:0:0:0:
64,192,51613,1,8,0:0:0:0:
448,192,51613,128,0,51701:0:0:0:0:
64,192,51790,1,8,0:0:0:0:
192,192,51879,1,8,0:0:0:0:
320,192,51968,1,8,0:0:0:0:
64,192,51968,128,0,52056:0:0:0:0:
448,192,52056,1,8,0:0:0:0:
64,192,52145,1,8,0:0:0:0:
192,192,52234,1,8,0:0:0:0:
320,192,52323,1,8,0:0:0:0:
448,192,52412,1,8,0:0:0:0:
64,192,52500,1,8,0:0:0:0:
192,192,52589,1,8,0:0:0:0:
320,192,52678,1,8,0:0:0:0:
64,192,52678,128,0,52767:0:0:0:0:
448,192,52767,1,8,0:0:0:0:
64,192,52855,1,8,0:0:0:0:
192,192,52900,1,8,0:0:0:0:
320,192,52944,1,8,0:0:0:0:
448,192,52988,1,8,0:0:0:0:
64,192,53033,128,0,53122:0:0:0:0:
64,192,53210,1,8,0:0:0:0:
448,192,53210,1,8,0:0:0:0:
192,192,53210,128,0,53299:0:0:0:0:
320,192,53299,1,8,0:0:0:0:
448,192,53299,128,0,53388:0:0:0:0:
192,192,53388,1,8,0:0:0:0:
320,192,53388,128,0,53477:0:0:0:0:
64,192,53477,1,8,0:0:0:0:
192,192,53565,1,8,0:0:0:0:
64,192,53565,128,0,53654:0:0:0:0:
320,192,53654,1,8,0:0:0:0:
448,192,53743,1,8,0:0:0:0:
192,192,53743,128,0,53832:0:0:0:0:
320,192,53832,1,8,0:0:0:0:
192,192,53920,1,8,0:0:0:0:
320,192,53920,128,0,54009:0:0:0:0:
64,192,54009,1,8,0:0:0:0:
192,192,54098,1,8,0:0:0:0:
448,192,54098,128,0,54187:0:0:0:0:
64,192,54187,128,0,54275:0:0:0:0:
192,192,54187,128,0,54275:0:0:0:0:
320,192,54187,128,0,54275:0:0:0:0:
448,192,54364,1,8,0:0:0:0:
320,192,54453,1,8,0:0:0:0:
192,192,54542,1,8,0:0:0:0:
448,192,54542,128,0,54630:0:0:0:0:
64,192,54630,1,8,0:0:0:0:
192,192,54719,1,8,0:0:0:0:
320,192,54808,1,8,0:0:0:0:
448,192,54897,1,8,0:0:0:0:
320,192,54985,1,8,0:0:0:0:
192,192,55074,1,8,0:0:0:0:
448,192,55074,128,0,55163:0:0:0:0:
64,192,55163,1,8,0:0:0:0:
192,192,55252,1,8,0:0:0:0:
320,192,55341,1,8,0:0:0:0:
64,192,55429,1,8,0:0:0:0:
448,192,55429,1,8,0:0:0:0:
320,192,55429,128,0,55518:0:0:0:0:
64,192,55607,1,8,0:0:0:0:
448,192,55607,1,8,0:0:0:0:
320,192,55696,1,8,0:0:0:0:
192,192,55784,1,8,0:0:0:0:
64,192,55784,128,0,55873:0:0:0:0:
448,192,55873,1,8,0:0:0:0:
64,192,55962,1,8,0:0:0:0:
192,192,56051,1,8,0:0:0:0:
320,192,56139,1,8,0:0:0:0:
64,192,56139,128,0,56228:0:0:0:0:
448,192,56228,1,8,0:0:0:0:
192,192,56317,1,8,0:0:0:0:
448,192,56406,1,8,0:0:0:0:
64,192,56406,1,8,0:0:0:0:
192,192,56494,128,0,56583:0:0:0:0:
448,192,56583,1,8,0:0:0:0:
320,192,56627,1,8,0:0:0:0:
192,192,56672,1,8,0:0:0:0:
64,192,56716,1,8,0:0:0:0:
320,192,56849,128,0,56938:0:0:0:0:
64,192,56938,1,8,0:0:0:0:
448,192,56938,1,8,0:0:0:0:
192,192,57027,1,8,0:0:0:0:
320,192,57116,1,8,0:0:0:0:
448,192,57204,1,8,0:0:0:0:
192,192,57204,128,0,57293:0:0:0:0:
64,192,57293,1,8,0:0:0:0:
192,192,57382,1,8,0:0:0:0:
320,192,57471,1,8,0:0:0:0:
448,192,57559,1,8,0:0:0:0:
192,192,57559,128,0,57648:0:0:0:0:
64,192,57648,1,8,0:0:0:0:
192,192,57737,1,8,0:0:0:0:
320,192,57826,1,8,0:0:0:0:
64,192,57914,1,8,0:0:0:0:
448,192,57914,1,8,0:0:0:0:
320,192,57914,128,0,58003:0:0:0:0:
64,192,58092,1,8,0:0:0:0:
192,192,58136,1,8,0:0:0:0:
320,192,58181,1,8,0:0:0:0:
448,192,58225,1,8,0:0:0:0:
64,192,58269,128,0,58358:0:0:0:0:
448,192,58447,1,8,0:0:0:0:
64,192,58447,1,8,0:0:0:0:
320,192,58536,1,8,0:0:0:0:
64,192,58625,1,8,0:0:0:0:
448,192,58625,128,0,58713:0:0:0:0:
192,192,58713,1,8,0:0:0:0:
448,192,58802,1,8,0:0:0:0:
320,192,58891,1,8,0:0:0:0:
64,192,58980,1,8,0:0:0:0:
192,192,59068,1,8,0:0:0:0:
320,192,59068,128,0,59157:0:0:0:0:
448,192,59157,1,8,0:0:0:0:
320,192,59246,1,8,0:0:0:0:
448,192,59335,1,8,0:0:0:0:
192,192,59423,128,0,59512:0:0:0:0:
64,192,59512,1,8,0:0:0:0:
448,192,59512,1,8,0:0:0:0:
192,192,59601,1,8,0:0:0:0:
320,192,59690,1,8,0:0:0:0:
448,192,59778,1,8,0:0:0:0:
64,192,59778,128,0,59867:0:0:0:0:
320,192,59867,1,8,0:0:0:0:
192,192,59956,1,8,0:0:0:0:
64,192,60045,1,8,0:0:0:0:
192,192,60133,1,8,0:0:0:0:
64,192,60133,128,0,60222:0:0:0:0:
320,192,60222,1,8,0:0:0:0:
448,192,60311,1,8,0:0:0:0:
320,192,60400,1,8,0:0:0:0:
192,192,60488,1,8,0:0:0:0:
448,192,60488,128,0,60577:0:0:0:0:
64,192,60577,1,8,0:0:0:0:
192,192,60666,1,8,0:0:0:0:
320,192,60755,1,8,0:0:0:0:
448,192,60843,1,8,0:0:0:0:
64,192,60843,128,0,60932:0:0:0:0:
320,192,60932,1,8,0:0:0:0:
192,192,61021,1,8,0:0:0:0:
448,192,61021,128,0,61110:0:0:0:0:
64,192,61110,1,8,0:0:0:0:
192,192,61198,1,8,0:0:0:0:
320,192,61198,128,0,61287:0:0:0:0:
64,192,61287,1,8,0:0:0:0:
448,192,61287,1,8,0:0:0:0:
64,192,61465,1,8,0:0:0:0:
192,192,61509,1,8,0:0:0:0:
320,192,61554,1,8,0:0:0:0:
448,192,61598,1,8,0:0:0:0:
192,192,61731,128,0,61820:0:0:0:0:
448,192,61820,1,8,0:0:0:0:
64,192,61820,1,8,0:0:0:0:
192,192,61909,1,8,0:0:0:0:
320,192,61997,1,8,0:0:0:0:
64,192,62086,1,8,0:0:0:0:
320,192,62086,128,0,62175:0:0:0:0:
448,192,62175,1,8,0:0:0:0:
320,192,62264,1,8,0:0:0:0:
192,192,62352,1,8,0:0:0:0:
64,192,62441,1,8,0:0:0:0:
448,192,62441,1,8,0:0:0:0:
192,192,62441,128,0,62530:0:0:0:0:
320,192,62441,128,0,62530:0:0:0:0:
64,192,62619,1,8,0:0:0:0:
448,192,62619,1,8,0:0:0:0:
64,192,62796,1,8,0:0:0:0:
448,192,62796,1,8,0:0:0:0:
192,192,62885,1,8,0:0:0:0:
320,192,62974,1,8,0:0:0:0:
192,192,62974,128,0,63062:0:0:0:0:
448,192,63062,1,8,0:0:0:0:
64,192,63062,128,0,63151:0:0:0:0:
320,192,63151,1,8,0:0:0:0:
192,192,63151,128,0,63240:0:0:0:0:
64,192,63240,1,8,0:0:0:0:
192,192,63329,1,8,0:0:0:0:
448,192,63329,128,0,63417:0:0:0:0:
320,192,63417,1,8,0:0:0:0:
64,192,63506,1,8,0:0:0:0:
448,192,63506,1,8,0:0:0:0:
320,192,63506,128,0,63595:0:0:0:0:
64,192,63684,128,8,63772:0:0:0:0:
192,192,63728,1,8,0:0:0:0:
320,192,63772,1,8,0:0:0:0:
448,192,63817,1,8,0:0:0:0:
64,192,63950,128,0,64039:0:0:0:0:
192,192,63950,128,8,64039:0:0:0:0:
448,192,63950,128,0,64039:0:0:0:0:
320,192,63950,128,8,64039:0:0:0:0:
448,192,64127,1,8,0:0:0:0:
320,192,64216,1,8,0:0:0:0:
192,192,64305,1,8,0:0:0:0:
448,192,64305,128,0,64394:0:0:0:0:
64,192,64394,1,8,0:0:0:0:
192,192,64483,1,8,0:0:0:0:
320,192,64571,1,8,0:0:0:0:
448,192,64660,1,8,0:0:0:0:
64,192,64660,128,0,64749:0:0:0:0:
320,192,64749,1,8,0:0:0:0:
192,192,64838,1,8,0:0:0:0:
64,192,64838,128,0,64926:0:0:0:0:
320,192,64926,1,8,0:0:0:0:
448,192,65015,1,8,0:0:0:0:
64,192,65015,1,8,0:0:0:0:
320,192,65015,128,0,65104:0:0:0:0:
448,192,65193,1,8,0:0:0:0:
64,192,65193,1,8,0:0:0:0:
192,192,65281,1,8,0:0:0:0:
320,192,65370,1,8,0:0:0:0:
64,192,65459,1,8,0:0:0:0:
448,192,65459,128,0,65548:0:0:0:0:
192,192,65548,1,8,0:0:0:0:
320,192,65636,1,8,0:0:0:0:
448,192,65725,1,8,0:0:0:0:
192,192,65814,1,8,0:0:0:0:
64,192,65814,128,0,65903:0:0:0:0:
448,192,65814,128,0,65903:0:0:0:0:
320,192,65903,1,8,0:0:0:0:
448,192,65991,1,8,0:0:0:0:
320,192,66080,1,8,0:0:0:0:
448,192,66169,1,8,0:0:0:0:
64,192,66169,1,8,0:0:0:0:
192,192,66169,128,0,66258:0:0:0:0:
448,192,66346,1,8,0:0:0:0:
64,192,66346,1,8,0:0:0:0:
192,192,66346,128,0,66435:0:0:0:0:
320,192,66435,128,0,66524:0:0:0:0:
448,192,66524,1,8,0:0:0:0:
64,192,66524,1,8,0:0:0:0:
192,192,66524,128,0,66613:0:0:0:0:
320,192,66613,1,8,0:0:0:0:
192,192,66701,1,8,0:0:0:0:
448,192,66790,1,8,0:0:0:0:
320,192,66879,1,8,0:0:0:0:
448,192,66879,128,0,66968:0:0:0:0:
64,192,66968,1,8,0:0:0:0:
192,192,67056,1,8,0:0:0:0:
448,192,67145,1,8,0:0:0:0:
320,192,67234,1,8,0:0:0:0:
192,192,67234,128,0,67323:0:0:0:0:
64,192,67323,1,8,0:0:0:0:
192,192,67412,1,8,0:0:0:0:
448,192,67500,1,8,0:0:0:0:
320,192,67589,1,8,0:0:0:0:
64,192,67589,128,0,67678:0:0:0:0:
192,192,67678,1,8,0:0:0:0:
64,192,67767,1,8,0:0:0:0:
448,192,67767,1,8,0:0:0:0:
192,192,67767,128,0,67855:0:0:0:0:
64,192,67944,1,8,0:0:0:0:
448,192,67944,1,8,0:0:0:0:
320,192,67944,128,0,68033:0:0:0:0:
192,192,68033,1,8,0:0:0:0:
448,192,68122,1,8,0:0:0:0:
320,192,68210,1,8,0:0:0:0:
64,192,68299,1,8,0:0:0:0:
448,192,68388,1,8,0:0:0:0:
64,192,68477,1,8,0:0:0:0:
320,192,68477,128,0,68565:0:0:0:0:
192,192,68565,1,8,0:0:0:0:
448,192,68654,1,8,0:0:0:0:
320,192,68654,128,0,68743:0:0:0:0:
64,192,68743,1,8,0:0:0:0:
448,192,68832,1,8,0:0:0:0:
192,192,68832,128,0,68920:0:0:0:0:
320,192,68920,1,8,0:0:0:0:
64,192,69009,1,8,0:0:0:0:
448,192,69009,128,0,69098:0:0:0:0:
192,192,69098,1,8,0:0:0:0:
320,192,69187,1,8,0:0:0:0:
192,192,69187,128,0,69275:0:0:0:0:
64,192,69275,1,8,0:0:0:0:
448,192,69275,1,8,0:0:0:0:
64,192,69453,1,8,0:0:0:0:
448,192,69453,1,8,0:0:0:0:
192,192,69542,1,8,0:0:0:0:
448,192,69542,128,0,69630:0:0:0:0:
320,192,69630,1,8,0:0:0:0:
192,192,69719,1,8,0:0:0:0:
64,192,69808,1,8,0:0:0:0:
192,192,69897,1,8,0:0:0:0:
448,192,69897,128,0,69985:0:0:0:0:
64,192,69985,1,8,0:0:0:0:
192,192,70074,1,8,0:0:0:0:
448,192,70074,128,0,70163:0:0:0:0:
320,192,70163,1,8,0:0:0:0:
448,192,70252,1,8,0:0:0:0:
64,192,70252,128,0,70341:0:0:0:0:
320,192,70341,1,8,0:0:0:0:
192,192,70429,1,8,0:0:0:0:
64,192,70429,128,0,70518:0:0:0:0:
320,192,70518,1,8,0:0:0:0:
448,192,70607,1,8,0:0:0:0:
192,192,70607,128,0,70696:0:0:0:0:
320,192,70696,1,8,0:0:0:0:
448,192,70784,1,8,0:0:0:0:
64,192,70784,128,0,70873:0:0:0:0:
320,192,70873,1,8,0:0:0:0:
192,192,70962,1,8,0:0:0:0:
448,192,70962,128,0,71051:0:0:0:0:
320,192,71051,1,8,0:0:0:0:
64,192,71139,1,8,0:0:0:0:
448,192,71139,1,8,0:0:0:0:
320,192,71139,128,0,71228:0:0:0:0:
192,192,71139,128,0,71228:0:0:0:0:
64,192,71317,1,8,0:0:0:0:
192,192,71361,1,8,0:0:0:0:
320,192,71406,1,8,0:0:0:0:
448,192,71450,1,8,0:0:0:0:
192,192,71494,128,0,71583:0:0:0:0:
64,192,71583,1,8,0:0:0:0:
448,192,71583,1,8,0:0:0:0:
192,192,71672,1,8,0:0:0:0:
320,192,71761,1,8,0:0:0:0:
448,192,71849,1,8,0:0:0:0:
64,192,71849,128,0,71938:0:0:0:0:
320,192,71938,1,8,0:0:0:0:
192,192,72027,1,8,0:0:0:0:
320,192,72116,1,8,0:0:0:0:
64,192,72204,1,8,0:0:0:0:
448,192,72204,1,8,0:0:0:0:
192,192,72204,128,0,72293:0:0:0:0:
320,192,72204,128,0,72293:0:0:0:0:
64,192,72382,1,8,0:0:0:0:
448,192,72382,1,8,0:0:0:0:
64,192,72559,1,8,0:0:0:0:
448,192,72559,1,8,0:0:0:0:
320,192,72559,128,0,72648:0:0:0:0:
192,192,72648,1,8,0:0:0:0:
320,192,72737,1,8,0:0:0:0:
448,192,72826,1,8,0:0:0:0:
320,192,72914,1,8,0:0:0:0:
64,192,72914,128,0,73003:0:0:0:0:
448,192,72914,128,0,73003:0:0:0:0:
192,192,73003,1,8,0:0:0:0:
64,192,73092,1,8,0:0:0:0:
192,192,73181,1,8,0:0:0:0:
320,192,73269,1,8,0:0:0:0:
448,192,73358,1,8,0:0:0:0:
64,192,73358,128,0,73447:0:0:0:0:
320,192,73447,1,8,0:0:0:0:
192,192,73536,1,8,0:0:0:0:
448,192,73536,128,0,73625:0:0:0:0:
64,192,73625,1,8,0:0:0:0:
320,192,73625,128,0,73713:0:0:0:0:
192,192,73713,1,8,0:0:0:0:
64,192,73802,1,8,0:0:0:0:
448,192,73802,1,8,0:0:0:0:
320,192,73802,128,0,74157:0:0:0:0:
192,192,73802,128,0,74157:0:0:0:0:
448,192,74157,128,0,74601:0:0:0:0:
64,192,74157,128,0,74601:0:0:0:0:
320,192,74601,128,0,75045:0:0:0:0:
192,192,75045,128,0,75400:0:0:0:0:
448,192,75400,128,0,76287:0:0:0:0:
320,192,76287,128,0,76642:0:0:0:0:
192,192,76642,128,0,76997:0:0:0:0:
64,192,76997,128,0,77441:0:0:0:0:
192,192,77441,128,0,77619:0:0:0:0:
320,192,77619,128,0,77974:0:0:0:0:
448,192,77974,128,0,78151:0:0:0:0:
320,192,78151,128,0,79039:0:0:0:0:
192,192,79039,128,0,79127:0:0:0:0:
64,192,79127,128,0,79216:0:0:0:0:
192,192,79216,128,0,79305:0:0:0:0:
320,192,79305,128,0,79394:0:0:0:0:
448,192,79394,128,0,79483:0:0:0:0:
320,192,79483,128,0,80015:0:0:0:0:
192,192,80015,128,0,80104:0:0:0:0:
64,192,80104,128,0,80193:0:0:0:0:
192,192,80193,128,0,80281:0:0:0:0:
320,192,80281,128,0,80548:0:0:0:0:
448,192,80548,128,0,80903:0:0:0:0:
320,192,80903,128,0,81258:0:0:0:0:
192,192,81258,128,0,81701:0:0:0:0:
64,192,81701,128,0,81790:0:0:0:0:
192,192,81790,128,0,81879:0:0:0:0:
320,192,81879,128,0,81968:0:0:0:0:
448,192,81968,128,0,82056:0:0:0:0:
320,192,82056,128,0,82855:0:0:0:0:
192,192,82855,128,0,83388:0:0:0:0:
64,192,83388,128,0,83743:0:0:0:0:
192,192,83743,128,0,84009:0:0:0:0:
320,192,84009,128,0,84275:0:0:0:0:
448,192,84275,128,0,84630:0:0:0:0:
320,192,84630,128,0,85074:0:0:0:0:
192,192,85074,128,0,85341:0:0:0:0:
64,192,85341,128,0,85607:0:0:0:0:
192,192,85607,128,0,85784:0:0:0:0:
320,192,85784,128,0,86051:0:0:0:0:
448,192,86051,128,0,86494:0:0:0:0:
320,192,86494,128,0,87027:0:0:0:0:
192,192,87027,128,0,87249:0:0:0:0:
64,192,87249,128,0,87604:0:0:0:0:
192,192,87604,128,0,87781:0:0:0:0:
320,192,87781,128,0,87959:0:0:0:0:
448,192,87959,128,0,88181:0:0:0:0:
320,192,88181,128,0,89512:0:0:0:0:
64,192,88713,128,0,88802:0:0:0:0:
448,192,88713,1,8,0:0:0:0:
64,192,89068,128,0,89157:0:0:0:0:
448,192,89068,1,8,0:0:0:0:
64,192,89423,128,0,89512:0:0:0:0:
448,192,89423,1,8,0:0:0:0:
448,192,89690,1,8,0:0:0:0:
64,192,89690,128,0,89778:0:0:0:0:
448,192,89867,1,8,0:0:0:0:
320,192,89956,1,8,0:0:0:0:
448,192,89956,128,0,90045:0:0:0:0:
192,192,90045,1,8,0:0:0:0:
64,192,90133,1,8,0:0:0:0:
192,192,90222,1,8,0:0:0:0:
320,192,90311,1,8,0:0:0:0:
64,192,90311,128,0,90400:0:0:0:0:
448,192,90400,1,8,0:0:0:0:
320,192,90488,1,8,0:0:0:0:
192,192,90577,1,8,0:0:0:0:
64,192,90666,1,8,0:0:0:0:
448,192,90666,128,0,90755:0:0:0:0:
192,192,90755,1,8,0:0:0:0:
320,192,90843,1,8,0:0:0:0:
64,192,90932,1,8,0:0:0:0:
448,192,90932,1,8,0:0:0:0:
192,192,91021,128,0,91110:0:0:0:0:
64,192,91110,1,8,0:0:0:0:
448,192,91110,1,8,0:0:0:0:
320,192,91198,1,8,0:0:0:0:
192,192,91287,1,8,0:0:0:0:
64,192,91376,1,8,0:0:0:0:
320,192,91376,128,0,91465:0:0:0:0:
448,192,91465,1,8,0:0:0:0:
320,192,91554,1,8,0:0:0:0:
192,192,91642,1,8,0:0:0:0:
64,192,91731,1,8,0:0:0:0:
192,192,91731,128,0,91820:0:0:0:0:
448,192,91820,1,8,0:0:0:0:
320,192,91909,1,8,0:0:0:0:
192,192,91997,1,8,0:0:0:0:
320,192,92086,1,8,0:0:0:0:
192,192,92086,128,0,92175:0:0:0:0:
64,192,92175,1,8,0:0:0:0:
448,192,92175,1,8,0:0:0:0:
64,192,92352,1,8,0:0:0:0:
192,192,92397,1,8,0:0:0:0:
320,192,92441,1,8,0:0:0:0:
64,192,92441,128,0,92530:0:0:0:0:
448,192,92485,1,8,0:0:0:0:
448,192,92707,1,8,0:0:0:0:
64,192,92707,1,8,0:0:0:0:
192,192,92796,1,8,0:0:0:0:
448,192,92796,128,0,92885:0:0:0:0:
320,192,92885,1,8,0:0:0:0:
64,192,92974,1,8,0:0:0:0:
192,192,93062,1,8,0:0:0:0:
448,192,93151,1,8,0:0:0:0:
64,192,93151,128,0,93240:0:0:0:0:
320,192,93240,1,8,0:0:0:0:
64,192,93329,1,8,0:0:0:0:
192,192,93417,1,8,0:0:0:0:
448,192,93506,1,8,0:0:0:0:
192,192,93506,128,0,93595:0:0:0:0:
320,192,93595,1,8,0:0:0:0:
64,192,93684,1,8,0:0:0:0:
448,192,93684,1,8,0:0:0:0:
192,192,93684,128,0,93772:0:0:0:0:
64,192,93861,1,8,0:0:0:0:
448,192,93861,1,8,0:0:0:0:
320,192,93861,128,0,93950:0:0:0:0:
192,192,93950,1,8,0:0:0:0:
64,192,94039,1,8,0:0:0:0:
448,192,94039,128,0,94127:0:0:0:0:
320,192,94127,1,8,0:0:0:0:
448,192,94216,1,8,0:0:0:0:
192,192,94305,1,8,0:0:0:0:
64,192,94394,1,8,0:0:0:0:
448,192,94394,128,0,94483:0:0:0:0:
320,192,94483,1,8,0:0:0:0:
448,192,94571,1,8,0:0:0:0:
192,192,94660,1,8,0:0:0:0:
64,192,94749,1,8,0:0:0:0:
448,192,94749,128,0,94838:0:0:0:0:
320,192,94838,1,8,0:0:0:0:
448,192,94926,1,8,0:0:0:0:
192,192,95015,1,8,0:0:0:0:
64,192,95104,1,8,0:0:0:0:
448,192,95104,1,8,0:0:0:0:
192,192,95104,128,0,95193:0:0:0:0:
64,192,95281,1,8,0:0:0:0:
448,192,95281,1,8,0:0:0:0:
64,192,95459,1,8,0:0:0:0:
448,192,95459,1,8,0:0:0:0:
320,192,95459,128,0,95548:0:0:0:0:
192,192,95548,1,8,0:0:0:0:
320,192,95636,1,8,0:0:0:0:
448,192,95725,1,8,0:0:0:0:
320,192,95814,1,8,0:0:0:0:
64,192,95814,128,0,95903:0:0:0:0:
192,192,95903,1,8,0:0:0:0:
320,192,95991,1,8,0:0:0:0:
448,192,96080,1,8,0:0:0:0:
320,192,96169,1,8,0:0:0:0:
448,192,96169,128,0,96258:0:0:0:0:
192,192,96258,1,8,0:0:0:0:
64,192,96346,1,8,0:0:0:0:
192,192,96435,1,8,0:0:0:0:
320,192,96524,1,8,0:0:0:0:
64,192,96524,128,0,96613:0:0:0:0:
192,192,96613,1,8,0:0:0:0:
64,192,96701,1,8,0:0:0:0:
192,192,96790,1,8,0:0:0:0:
320,192,96879,1,8,0:0:0:0:
192,192,96879,128,0,96968:0:0:0:0:
448,192,96968,1,8,0:0:0:0:
64,192,96968,1,8,0:0:0:0:
448,192,97190,1,8,0:0:0:0:
320,192,97234,1,8,0:0:0:0:
192,192,97278,1,8,0:0:0:0:
64,192,97323,1,8,0:0:0:0:
320,192,97323,128,0,97412:0:0:0:0:
64,192,97500,1,8,0:0:0:0:
448,192,97500,1,8,0:0:0:0:
64,192,97678,1,8,0:0:0:0:
448,192,97678,1,8,0:0:0:0:
320,192,97678,128,0,97767:0:0:0:0:
192,192,97767,1,8,0:0:0:0:
320,192,97855,1,8,0:0:0:0:
448,192,97944,1,8,0:0:0:0:
320,192,98033,1,8,0:0:0:0:
64,192,98033,128,0,98122:0:0:0:0:
448,192,98033,128,0,98122:0:0:0:0:
192,192,98122,1,8,0:0:0:0:
64,192,98210,1,8,0:0:0:0:
320,192,98210,128,0,98299:0:0:0:0:
448,192,98299,1,8,0:0:0:0:
192,192,98299,128,0,98388:0:0:0:0:
320,192,98388,1,8,0:0:0:0:
64,192,98388,128,0,98477:0:0:0:0:
192,192,98477,1,8,0:0:0:0:
448,192,98477,128,0,98565:0:0:0:0:
64,192,98565,1,8,0:0:0:0:
320,192,98565,128,0,98654:0:0:0:0:
448,192,98654,1,8,0:0:0:0:
192,192,98654,128,0,98743:0:0:0:0:
320,192,98743,1,8,0:0:0:0:
64,192,98743,128,0,98832:0:0:0:0:
192,192,98832,1,8,0:0:0:0:
448,192,98832,128,0,98920:0:0:0:0:
64,192,98920,1,8,0:0:0:0:
320,192,98920,128,0,99009:0:0:0:0:
448,192,99009,1,8,0:0:0:0:
192,192,99009,128,0,99098:0:0:0:0:
320,192,99098,1,8,0:0:0:0:
64,192,99098,128,0,99187:0:0:0:0:
192,192,99187,1,8,0:0:0:0:
64,192,99275,1,8,0:0:0:0:
320,192,99275,128,0,99364:0:0:0:0:
192,192,99364,1,8,0:0:0:0:
64,192,99453,1,8,0:0:0:0:
448,192,99453,1,8,0:0:0:0:
192,192,99453,128,0,99542:0:0:0:0:
64,192,99630,1,8,0:0:0:0:
448,192,99630,1,8,0:0:0:0:
320,192,99630,128,0,99719:0:0:0:0:
192,192,99719,1,8,0:0:0:0:
320,192,99808,1,8,0:0:0:0:
448,192,99808,128,0,99897:0:0:0:0:
192,192,99897,1,8,0:0:0:0:
64,192,99985,1,8,0:0:0:0:
320,192,99985,128,0,100074:0:0:0:0:
192,192,100074,1,8,0:0:0:0:
320,192,100163,1,8,0:0:0:0:
192,192,100163,128,0,100252:0:0:0:0:
448,192,100252,1,8,0:0:0:0:
64,192,100341,1,8,0:0:0:0:
320,192,100341,128,0,100429:0:0:0:0:
192,192,100429,1,8,0:0:0:0:
320,192,100518,1,8,0:0:0:0:
192,192,100518,128,0,100607:0:0:0:0:
448,192,100607,1,8,0:0:0:0:
320,192,100696,1,8,0:0:0:0:
192,192,100696,128,0,100784:0:0:0:0:
64,192,100784,1,8,0:0:0:0:
448,192,100784,1,8,0:0:0:0:
320,192,100873,128,0,100962:0:0:0:0:
64,192,100962,1,8,0:0:0:0:
192,192,101006,1,8,0:0:0:0:
320,192,101051,1,8,0:0:0:0:
64,192,101051,128,0,101139:0:0:0:0:
448,192,101095,1,8,0:0:0:0:
448,192,101317,1,8,0:0:0:0:
64,192,101317,1,8,0:0:0:0:
192,192,101406,1,8,0:0:0:0:
64,192,101406,128,0,101494:0:0:0:0:
448,192,101406,128,0,101494:0:0:0:0:
320,192,101494,1,8,0:0:0:0:
448,192,101583,1,8,0:0:0:0:
192,192,101672,1,8,0:0:0:0:
320,192,101761,1,8,0:0:0:0:
192,192,101761,128,0,101849:0:0:0:0:
64,192,101849,1,8,0:0:0:0:
448,192,101849,1,8,0:0:0:0:
64,192,102027,1,8,0:0:0:0:
448,192,102027,1,8,0:0:0:0:
320,192,102116,128,0,102204:0:0:0:0:
64,192,102204,1,8,0:0:0:0:
448,192,102204,1,8,0:0:0:0:
192,192,102293,1,8,0:0:0:0:
448,192,102293,128,0,102382:0:0:0:0:
320,192,102382,1,8,0:0:0:0:
192,192,102471,1,8,0:0:0:0:
64,192,102471,128,0,102559:0:0:0:0:
320,192,102559,1,8,0:0:0:0:
448,192,102648,1,8,0:0:0:0:
64,192,102737,1,8,0:0:0:0:
192,192,102826,1,8,0:0:0:0:
448,192,102826,128,0,102914:0:0:0:0:
320,192,102914,1,8,0:0:0:0:
192,192,103003,1,8,0:0:0:0:
64,192,103003,128,0,103092:0:0:0:0:
320,192,103092,1,8,0:0:0:0:
192,192,103181,1,8,0:0:0:0:
320,192,103181,128,0,103269:0:0:0:0:
64,192,103269,1,8,0:0:0:0:
448,192,103269,1,8,0:0:0:0:
448,192,103403,1,8,0:0:0:0:
320,192,103447,1,8,0:0:0:0:
192,192,103491,1,8,0:0:0:0:
64,192,103536,1,8,0:0:0:0:
320,192,103625,128,0,103713:0:0:0:0:
192,192,103625,128,0,103713:0:0:0:0:
448,192,103713,1,8,0:0:0:0:
64,192,103713,1,8,0:0:0:0:
192,192,103802,1,8,0:0:0:0:
320,192,103891,1,8,0:0:0:0:
448,192,103980,1,8,0:0:0:0:
192,192,103980,128,0,104068:0:0:0:0:
64,192,104068,1,8,0:0:0:0:
448,192,104157,1,8,0:0:0:0:
320,192,104157,128,0,104246:0:0:0:0:
64,192,104246,1,8,0:0:0:0:
448,192,104335,1,8,0:0:0:0:
192,192,104335,128,0,104423:0:0:0:0:
64,192,104423,1,8,0:0:0:0:
448,192,104512,1,8,0:0:0:0:
320,192,104512,128,0,104601:0:0:0:0:
64,192,104601,1,8,0:0:0:0:
192,192,104690,1,8,0:0:0:0:
448,192,104690,128,0,104778:0:0:0:0:
320,192,104778,1,8,0:0:0:0:
64,192,104867,1,8,0:0:0:0:
448,192,104867,1,8,0:0:0:0:
192,192,104867,128,0,104956:0:0:0:0:
64,192,105045,1,8,0:0:0:0:
448,192,105045,1,8,0:0:0:0:
64,192,105222,1,8,0:0:0:0:
448,192,105222,1,8,0:0:0:0:
320,192,105222,128,0,105311:0:0:0:0:
192,192,105311,1,8,0:0:0:0:
320,192,105400,1,8,0:0:0:0:
192,192,105488,1,8,0:0:0:0:
320,192,105577,1,8,0:0:0:0:
448,192,105577,128,0,105666:0:0:0:0:
192,192,105666,1,8,0:0:0:0:
64,192,105755,1,8,0:0:0:0:
320,192,105755,128,0,105843:0:0:0:0:
448,192,105843,1,8,0:0:0:0:
192,192,105843,128,0,105932:0:0:0:0:
320,192,105932,1,8,0:0:0:0:
64,192,105932,128,0,106021:0:0:0:0:
192,192,106021,1,8,0:0:0:0:
64,192,106110,1,8,0:0:0:0:
320,192,106110,128,0,106198:0:0:0:0:
192,192,106198,1,8,0:0:0:0:
448,192,106198,128,0,106287:0:0:0:0:
320,192,106287,1,8,0:0:0:0:
64,192,106287,128,0,106376:0:0:0:0:
192,192,106376,1,8,0:0:0:0:
320,192,106465,1,8,0:0:0:0:
64,192,106554,1,8,0:0:0:0:
448,192,106554,1,8,0:0:0:0:
320,192,106642,128,0,106731:0:0:0:0:
64,192,106731,1,8,0:0:0:0:
448,192,106731,1,8,0:0:0:0:
192,192,106820,1,8,0:0:0:0:
320,192,106909,1,8,0:0:0:0:
192,192,106997,1,8,0:0:0:0:
64,192,106997,128,0,107086:0:0:0:0:
320,192,107086,1,8,0:0:0:0:
192,192,107175,1,8,0:0:0:0:
320,192,107264,1,8,0:0:0:0:
192,192,107352,1,8,0:0:0:0:
448,192,107352,128,0,107441:0:0:0:0:
64,192,107441,1,8,0:0:0:0:
192,192,107530,1,8,0:0:0:0:
320,192,107619,1,8,0:0:0:0:
192,192,107707,1,8,0:0:0:0:
320,192,107707,128,0,107796:0:0:0:0:
64,192,107796,1,8,0:0:0:0:
448,192,107796,1,8,0:0:0:0:
64,192,107974,1,8,0:0:0:0:
192,192,108018,1,8,0:0:0:0:
320,192,108062,1,8,0:0:0:0:
64,192,108062,128,0,108151:0:0:0:0:
448,192,108107,1,8,0:0:0:0:
192,192,108240,128,0,108329:0:0:0:0:
448,192,108329,1,8,0:0:0:0:
64,192,108329,1,8,0:0:0:0:
320,192,108329,128,0,108417:0:0:0:0:
192,192,108417,1,8,0:0:0:0:
448,192,108417,128,0,108506:0:0:0:0:
320,192,108506,1,8,0:0:0:0:
448,192,108595,1,8,0:0:0:0:
64,192,108595,128,0,108684:0:0:0:0:
320,192,108684,1,8,0:0:0:0:
192,192,108772,1,8,0:0:0:0:
448,192,108772,128,0,108861:0:0:0:0:
64,192,108861,1,8,0:0:0:0:
192,192,108950,1,8,0:0:0:0:
320,192,108950,128,0,109039:0:0:0:0:
64,192,109039,1,8,0:0:0:0:
448,192,109039,1,8,0:0:0:0:
192,192,109127,128,0,109216:0:0:0:0:
64,192,109216,1,8,0:0:0:0:
448,192,109216,1,8,0:0:0:0:
192,192,109305,1,8,0:0:0:0:
64,192,109305,128,0,109394:0:0:0:0:
320,192,109394,1,8,0:0:0:0:
448,192,109483,1,8,0:0:0:0:
64,192,109571,1,8,0:0:0:0:
192,192,109660,1,8,0:0:0:0:
64,192,109660,128,0,109749:0:0:0:0:
320,192,109749,1,8,0:0:0:0:
448,192,109838,1,8,0:0:0:0:
320,192,109926,1,8,0:0:0:0:
192,192,110015,1,8,0:0:0:0:
320,192,110015,128,0,110104:0:0:0:0:
64,192,110104,1,8,0:0:0:0:
448,192,110104,1,8,0:0:0:0:
320,192,110193,1,8,0:0:0:0:
192,192,110281,1,8,0:0:0:0:
320,192,110370,1,8,0:0:0:0:
192,192,110370,128,0,110459:0:0:0:0:
64,192,110459,1,8,0:0:0:0:
448,192,110459,1,8,0:0:0:0:
448,192,110681,1,8,0:0:0:0:
320,192,110725,1,8,0:0:0:0:
192,192,110769,1,8,0:0:0:0:
64,192,110814,1,8,0:0:0:0:
448,192,110991,1,8,0:0:0:0:
64,192,110991,1,8,0:0:0:0:
320,192,111080,1,8,0:0:0:0:
192,192,111080,128,0,111169:0:0:0:0:
448,192,111169,1,8,0:0:0:0:
64,192,111258,1,8,0:0:0:0:
192,192,111346,1,8,0:0:0:0:
64,192,111435,1,8,0:0:0:0:
320,192,111435,128,0,111524:0:0:0:0:
448,192,111524,1,8,0:0:0:0:
320,192,111613,1,8,0:0:0:0:
64,192,111613,128,0,111701:0:0:0:0:
192,192,111701,1,8,0:0:0:0:
64,192,111790,1,8,0:0:0:0:
448,192,111790,1,8,0:0:0:0:
320,192,111790,128,0,111879:0:0:0:0:
64,192,111968,1,8,0:0:0:0:
448,192,111968,1,8,0:0:0:0:
192,192,111968,128,0,112056:0:0:0:0:
320,192,112056,1,8,0:0:0:0:
448,192,112145,1,8,0:0:0:0:
320,192,112145,128,0,112234:0:0:0:0:
64,192,112234,1,8,0:0:0:0:
192,192,112323,1,8,0:0:0:0:
448,192,112323,128,0,112412:0:0:0:0:
64,192,112412,1,8,0:0:0:0:
448,192,112500,1,8,0:0:0:0:
192,192,112500,128,0,112589:0:0:0:0:
320,192,112589,1,8,0:0:0:0:
448,192,112678,1,8,0:0:0:0:
320,192,112678,128,0,112767:0:0:0:0:
64,192,112767,1,8,0:0:0:0:
192,192,112855,1,8,0:0:0:0:
448,192,112855,128,0,112944:0:0:0:0:
320,192,112944,1,8,0:0:0:0:
64,192,113033,1,8,0:0:0:0:
448,192,113033,1,8,0:0:0:0:
320,192,113033,128,0,113122:0:0:0:0:
192,192,113033,128,0,113122:0:0:0:0:
64,192,113210,1,8,0:0:0:0:
192,192,113255,1,8,0:0:0:0:
320,192,113299,1,8,0:0:0:0:
448,192,113343,1,8,0:0:0:0:
192,192,113388,128,0,113477:0:0:0:0:
320,192,113388,128,0,113477:0:0:0:0:
448,192,113565,1,8,0:0:0:0:
64,192,113565,1,8,0:0:0:0:
192,192,113654,1,8,0:0:0:0:
320,192,113743,1,8,0:0:0:0:
64,192,113743,128,0,113832:0:0:0:0:
448,192,113832,1,8,0:0:0:0:
192,192,113920,1,8,0:0:0:0:
448,192,113920,128,0,114009:0:0:0:0:
64,192,114009,1,8,0:0:0:0:
192,192,114098,1,8,0:0:0:0:
320,192,114098,128,0,114187:0:0:0:0:
448,192,114187,1,8,0:0:0:0:
192,192,114275,1,8,0:0:0:0:
64,192,114364,1,8,0:0:0:0:
192,192,114453,1,8,0:0:0:0:
448,192,114453,128,0,114542:0:0:0:0:
320,192,114542,1,8,0:0:0:0:
64,192,114630,1,8,0:0:0:0:
448,192,114630,1,8,0:0:0:0:
64,192,114808,1,8,0:0:0:0:
448,192,114808,1,8,0:0:0:0:
192,192,114808,128,0,114897:0:0:0:0:
320,192,114897,1,8,0:0:0:0:
448,192,114985,1,8,0:0:0:0:
320,192,115074,1,8,0:0:0:0:
192,192,115163,1,8,0:0:0:0:
448,192,115163,128,0,115252:0:0:0:0:
64,192,115252,1,8,0:0:0:0:
192,192,115341,1,8,0:0:0:0:
64,192,115429,1,8,0:0:0:0:
192,192,115518,1,8,0:0:0:0:
448,192,115518,128,0,115607:0:0:0:0:
320,192,115607,1,8,0:0:0:0:
448,192,115696,1,8,0:0:0:0:
320,192,115784,1,8,0:0:0:0:
448,192,115873,1,8,0:0:0:0:
64,192,115873,128,0,115962:0:0:0:0:
320,192,115962,1,8,0:0:0:0:
192,192,116051,1,8,0:0:0:0:
64,192,116139,1,8,0:0:0:0:
192,192,116228,1,8,0:0:0:0:
320,192,116317,1,8,0:0:0:0:
64,192,116406,1,8,0:0:0:0:
448,192,116406,1,8,0:0:0:0:
192,192,116406,128,0,116494:0:0:0:0:
320,192,116406,128,0,116494:0:0:0:0:
64,192,116583,1,8,0:0:0:0:
448,192,116583,1,8,0:0:0:0:
64,192,116761,1,8,0:0:0:0:
448,192,116761,1,8,0:0:0:0:
320,192,116761,128,0,116849:0:0:0:0:
192,192,116849,1,8,0:0:0:0:
320,192,116938,1,8,0:0:0:0:
448,192,117027,1,8,0:0:0:0:
320,192,117116,1,8,0:0:0:0:
64,192,117116,128,0,117204:0:0:0:0:
192,192,117204,1,8,0:0:0:0:
64,192,117293,1,8,0:0:0:0:
192,192,117382,1,8,0:0:0:0:
320,192,117471,1,8,0:0:0:0:
448,192,117471,128,0,117559:0:0:0:0:
64,192,117471,128,0,117559:0:0:0:0:
192,192,117559,1,8,0:0:0:0:
64,192,117648,1,8,0:0:0:0:
448,192,117648,1,8,0:0:0:0:
64,192,117826,1,8,0:0:0:0:
448,192,117826,1,8,0:0:0:0:
320,192,117826,128,0,117914:0:0:0:0:
192,192,117914,1,8,0:0:0:0:
320,192,118003,1,8,0:0:0:0:
448,192,118003,128,0,118092:0:0:0:0:
192,192,118092,1,8,0:0:0:0:
64,192,118181,1,8,0:0:0:0:
448,192,118181,128,0,118269:0:0:0:0:
192,192,118269,1,8,0:0:0:0:
320,192,118358,1,8,0:0:0:0:
64,192,118358,128,0,118447:0:0:0:0:
448,192,118447,1,8,0:0:0:0:
320,192,118536,1,8,0:0:0:0:
448,192,118536,128,0,118625:0:0:0:0:
192,192,118625,1,8,0:0:0:0:
320,192,118713,1,8,0:0:0:0:
64,192,118713,128,0,118802:0:0:0:0:
448,192,118802,1,8,0:0:0:0:
320,192,118891,1,8,0:0:0:0:
448,192,118891,128,0,118980:0:0:0:0:
192,192,118980,1,8,0:0:0:0:
64,192,119068,1,8,0:0:0:0:
448,192,119068,128,0,119157:0:0:0:0:
192,192,119157,1,8,0:0:0:0:
64,192,119157,128,0,119246:0:0:0:0:
320,192,119246,1,8,0:0:0:0:
448,192,119246,128,0,119335:0:0:0:0:
192,192,119335,1,8,0:0:0:0:
192,192,119423,1,8,0:0:0:0:
320,192,119423,1,8,0:0:0:0:
64,192,119423,128,0,122974:0:0:0:0:
448,192,119423,128,0,122974:0:0:0:0:
