osu file format v14

[General]
AudioFilename: audio.mp3
AudioLeadIn: 0
PreviewTime: 139471
Countdown: 0
SampleSet: Normal
StackLeniency: 0.7
Mode: 1
LetterboxInBreaks: 0
WidescreenStoryboard: 0

[Editor]
Bookmarks: 7471,9871,19471,29071,38671,48271,60271,79471,89071,98671,103471,108271,120271,139471,149071,168271,209071
DistanceSpacing: 1
BeatDivisor: 4
GridSize: 32
TimelineZoom: 3.599998

[Metadata]
Title:115
TitleUnicode:115
Artist:Treyarch Sound
ArtistUnicode:Treyarch Sound
Creator:duski
Version:Pack-a-Punch Oni
Source:Call of Duty: Black Ops
Tags:kino der toten world at war elena siegman kevin sherwood zombies
BeatmapID:1385412
BeatmapSetID:653538

[Difficulty]
HPDrainRate:6
CircleSize:2
OverallDifficulty:6
ApproachRate:10
SliderMultiplier:1.3999999666214
SliderTickRate:1

[Events]
//Background and Video events
0,0,"kino der toten.png",0,0
//Break Periods
//Storyboard Layer 0 (Background)
//Storyboard Layer 1 (Fail)
//Storyboard Layer 2 (Pass)
//Storyboard Layer 3 (Foreground)
//Storyboard Sound Samples

[TimingPoints]
271,300,4,1,0,100,1,0
60271,-100,4,1,0,100,0,1
79471,-100,4,1,0,100,0,0
120271,-100,4,1,0,100,0,1
139471,-100,4,1,0,100,0,0

[HitObjects]
256,192,7471,5,12,0:0:0:0:
256,192,7621,1,0,0:0:0:0:
256,192,7696,1,0,0:0:0:0:
256,192,7771,1,0,0:0:0:0:
256,192,7921,1,12,0:0:0:0:
256,192,8071,1,0,0:0:0:0:
256,192,8146,1,0,0:0:0:0:
256,192,8221,1,0,0:0:0:0:
256,192,8371,1,8,0:0:0:0:
256,192,8446,1,8,0:0:0:0:
256,192,8521,1,8,0:0:0:0:
256,192,8596,1,8,0:0:0:0:
256,192,8671,1,0,0:0:0:0:
256,192,8746,1,0,0:0:0:0:
256,192,8821,1,0,0:0:0:0:
256,192,8896,1,0,0:0:0:0:
256,192,8971,1,0,0:0:0:0:
256,192,9121,1,4,0:0:0:0:
256,192,9421,1,4,0:0:0:0:
256,192,9721,1,4,0:0:0:0:
256,192,10021,1,0,0:0:0:0:
256,192,10096,1,0,0:0:0:0:
256,192,10171,1,8,0:0:0:0:
256,192,10321,1,0,0:0:0:0:
256,192,10471,1,8,0:0:0:0:
256,192,10546,1,0,0:0:0:0:
256,192,10621,1,8,0:0:0:0:
256,192,10771,1,8,0:0:0:0:
256,192,10846,1,0,0:0:0:0:
256,192,10921,1,0,0:0:0:0:
256,192,10996,1,0,0:0:0:0:
256,192,11071,1,8,0:0:0:0:
256,192,11221,1,0,0:0:0:0:
256,192,11371,1,8,0:0:0:0:
256,192,11446,1,8,0:0:0:0:
256,192,11521,1,0,0:0:0:0:
256,192,11671,1,8,0:0:0:0:
256,192,11746,1,0,0:0:0:0:
256,192,11821,1,0,0:0:0:0:
256,192,11896,1,0,0:0:0:0:
256,192,11971,1,8,0:0:0:0:
256,192,12046,1,0,0:0:0:0:
256,192,12121,1,0,0:0:0:0:
256,192,12196,1,8,0:0:0:0:
256,192,12271,1,8,0:0:0:0:
256,192,12421,1,8,0:0:0:0:
256,192,12571,1,8,0:0:0:0:
256,192,12646,1,0,0:0:0:0:
256,192,12721,1,0,0:0:0:0:
256,192,12796,1,0,0:0:0:0:
256,192,12871,1,8,0:0:0:0:
256,192,13021,1,0,0:0:0:0:
256,192,13171,1,8,0:0:0:0:
256,192,13246,1,0,0:0:0:0:
256,192,13321,1,0,0:0:0:0:
256,192,13396,1,8,0:0:0:0:
256,192,13471,1,0,0:0:0:0:
256,192,13621,1,0,0:0:0:0:
256,192,13771,1,0,0:0:0:0:
256,192,13921,1,0,0:0:0:0:
256,192,14221,1,0,0:0:0:0:
256,192,14521,1,0,0:0:0:0:
256,192,14821,1,0,0:0:0:0:
256,192,14896,1,0,0:0:0:0:
256,192,14971,1,8,0:0:0:0:
256,192,15121,1,0,0:0:0:0:
256,192,15271,1,8,0:0:0:0:
256,192,15346,1,0,0:0:0:0:
256,192,15421,1,0,0:0:0:0:
256,192,15496,1,0,0:0:0:0:
256,192,15571,1,8,0:0:0:0:
256,192,15721,1,8,0:0:0:0:
256,192,15796,1,8,0:0:0:0:
256,192,15871,1,0,0:0:0:0:
256,192,16021,1,0,0:0:0:0:
256,192,16096,1,8,0:0:0:0:
256,192,16171,1,8,0:0:0:0:
256,192,16321,1,0,0:0:0:0:
256,192,16396,1,8,0:0:0:0:
256,192,16471,1,0,0:0:0:0:
256,192,16621,1,8,0:0:0:0:
256,192,16696,1,8,0:0:0:0:
256,192,16771,1,0,0:0:0:0:
256,192,16921,1,0,0:0:0:0:
256,192,16996,1,0,0:0:0:0:
256,192,17071,1,8,0:0:0:0:
256,192,17221,1,8,0:0:0:0:
256,192,17296,1,0,0:0:0:0:
256,192,17371,1,8,0:0:0:0:
256,192,17521,1,0,0:0:0:0:
256,192,17596,1,0,0:0:0:0:
256,192,17671,1,8,0:0:0:0:
256,192,17746,1,8,0:0:0:0:
256,192,17821,1,0,0:0:0:0:
256,192,17896,1,0,0:0:0:0:
256,192,17971,1,8,0:0:0:0:
256,192,18046,1,0,0:0:0:0:
256,192,18121,1,0,0:0:0:0:
256,192,18196,1,0,0:0:0:0:
256,192,18271,1,8,0:0:0:0:
256,192,18346,1,8,0:0:0:0:
256,192,18421,1,8,0:0:0:0:
256,192,18496,1,8,0:0:0:0:
256,192,18571,1,8,0:0:0:0:
256,192,18721,1,4,0:0:0:0:
256,192,19021,1,4,0:0:0:0:
256,192,19321,1,4,0:0:0:0:
256,192,19771,1,0,0:0:0:0:
256,192,19921,1,0,0:0:0:0:
256,192,20071,1,8,0:0:0:0:
256,192,20371,1,0,0:0:0:0:
256,192,20521,1,0,0:0:0:0:
256,192,20821,1,0,0:0:0:0:
256,192,21121,1,0,0:0:0:0:
256,192,21196,1,0,0:0:0:0:
256,192,21271,1,8,0:0:0:0:
256,192,21571,1,8,0:0:0:0:
256,192,21721,1,8,0:0:0:0:
256,192,21871,1,0,0:0:0:0:
256,192,22021,1,0,0:0:0:0:
256,192,22171,1,0,0:0:0:0:
256,192,22321,1,0,0:0:0:0:
256,192,22471,1,8,0:0:0:0:
256,192,22771,1,0,0:0:0:0:
256,192,22846,1,0,0:0:0:0:
256,192,22921,1,0,0:0:0:0:
256,192,23071,1,0,0:0:0:0:
256,192,23146,1,0,0:0:0:0:
256,192,23221,1,8,0:0:0:0:
256,192,23371,1,0,0:0:0:0:
256,192,23521,1,0,0:0:0:0:
256,192,23671,1,8,0:0:0:0:
256,192,23821,1,0,0:0:0:0:
256,192,23971,1,0,0:0:0:0:
256,192,24121,1,0,0:0:0:0:
256,192,24271,1,0,0:0:0:0:
256,192,24571,1,0,0:0:0:0:
256,192,24721,1,0,0:0:0:0:
256,192,24796,1,0,0:0:0:0:
256,192,24871,1,8,0:0:0:0:
256,192,25171,1,0,0:0:0:0:
256,192,25321,1,0,0:0:0:0:
256,192,25621,1,0,0:0:0:0:
256,192,25921,1,0,0:0:0:0:
256,192,25996,1,0,0:0:0:0:
256,192,26071,1,8,0:0:0:0:
256,192,26221,1,0,0:0:0:0:
256,192,26371,1,8,0:0:0:0:
256,192,26521,1,8,0:0:0:0:
256,192,26671,1,0,0:0:0:0:
256,192,26821,1,0,0:0:0:0:
256,192,26971,1,0,0:0:0:0:
256,192,27121,1,0,0:0:0:0:
256,192,27271,1,8,0:0:0:0:
256,192,27571,1,0,0:0:0:0:
256,192,27646,1,0,0:0:0:0:
256,192,27721,1,0,0:0:0:0:
256,192,27871,1,0,0:0:0:0:
256,192,27946,1,8,0:0:0:0:
256,192,28021,1,0,0:0:0:0:
256,192,28171,1,0,0:0:0:0:
256,192,28246,1,0,0:0:0:0:
256,192,28321,1,8,0:0:0:0:
256,192,28471,1,0,0:0:0:0:
256,192,28621,1,0,0:0:0:0:
256,192,28771,1,0,0:0:0:0:
256,192,29071,1,8,0:0:0:0:
256,192,29371,1,8,0:0:0:0:
256,192,29671,1,8,0:0:0:0:
256,192,29971,1,8,0:0:0:0:
256,192,30271,1,8,0:0:0:0:
256,192,30571,1,8,0:0:0:0:
256,192,30871,1,8,0:0:0:0:
256,192,31171,1,8,0:0:0:0:
256,192,31471,1,8,0:0:0:0:
256,192,31771,1,8,0:0:0:0:
256,192,32071,1,8,0:0:0:0:
256,192,32371,1,8,0:0:0:0:
256,192,32671,1,8,0:0:0:0:
256,192,32971,1,8,0:0:0:0:
256,192,33271,1,8,0:0:0:0:
256,192,33571,1,8,0:0:0:0:
256,192,33871,1,8,0:0:0:0:
256,192,34171,1,8,0:0:0:0:
256,192,34471,1,8,0:0:0:0:
256,192,34771,1,8,0:0:0:0:
256,192,35071,1,8,0:0:0:0:
256,192,35371,1,8,0:0:0:0:
256,192,35671,1,8,0:0:0:0:
256,192,35971,1,8,0:0:0:0:
256,192,36271,1,8,0:0:0:0:
256,192,36421,1,0,0:0:0:0:
256,192,36496,1,0,0:0:0:0:
256,192,36571,1,8,0:0:0:0:
256,192,36721,1,0,0:0:0:0:
256,192,36796,1,0,0:0:0:0:
256,192,36871,1,8,0:0:0:0:
256,192,36946,1,8,0:0:0:0:
256,192,37021,1,0,0:0:0:0:
256,192,37096,1,8,0:0:0:0:
256,192,37171,1,0,0:0:0:0:
256,192,37246,1,0,0:0:0:0:
256,192,37321,1,8,0:0:0:0:
256,192,37396,1,8,0:0:0:0:
256,192,37471,1,0,0:0:0:0:
256,192,37546,1,8,0:0:0:0:
256,192,37621,1,8,0:0:0:0:
256,192,37696,1,0,0:0:0:0:
256,192,37771,1,8,0:0:0:0:
256,192,37846,1,8,0:0:0:0:
256,192,37921,1,0,0:0:0:0:
256,192,38221,1,0,0:0:0:0:
256,192,38521,1,0,0:0:0:0:
256,192,38821,1,0,0:0:0:0:
256,192,38896,1,0,0:0:0:0:
256,192,38971,1,8,0:0:0:0:
256,192,39121,1,0,0:0:0:0:
256,192,39196,1,8,0:0:0:0:
256,192,39271,1,8,0:0:0:0:
256,192,39346,1,8,0:0:0:0:
256,192,39421,1,0,0:0:0:0:
256,192,39571,1,8,0:0:0:0:
256,192,39721,1,0,0:0:0:0:
256,192,39796,1,8,0:0:0:0:
256,192,39871,1,0,0:0:0:0:
256,192,39946,1,0,0:0:0:0:
256,192,40021,1,0,0:0:0:0:
256,192,40171,1,0,0:0:0:0:
256,192,40246,1,0,0:0:0:0:
256,192,40321,1,8,0:0:0:0:
256,192,40396,1,8,0:0:0:0:
256,192,40471,1,0,0:0:0:0:
256,192,40621,1,0,0:0:0:0:
256,192,40771,1,8,0:0:0:0:
256,192,40846,1,8,0:0:0:0:
256,192,40921,1,0,0:0:0:0:
256,192,41071,1,8,0:0:0:0:
256,192,41146,1,8,0:0:0:0:
256,192,41221,1,0,0:0:0:0:
256,192,41296,1,0,0:0:0:0:
256,192,41371,1,8,0:0:0:0:
256,192,41446,1,0,0:0:0:0:
256,192,41521,1,0,0:0:0:0:
256,192,41596,1,8,0:0:0:0:
256,192,41671,1,8,0:0:0:0:
256,192,41746,1,8,0:0:0:0:
256,192,41821,1,8,0:0:0:0:
256,192,41896,1,0,0:0:0:0:
256,192,41971,1,8,0:0:0:0:
256,192,42046,1,8,0:0:0:0:
256,192,42121,1,0,0:0:0:0:
256,192,42196,1,0,0:0:0:0:
256,192,42271,1,0,0:0:0:0:
256,192,42421,1,8,0:0:0:0:
256,192,42571,1,0,0:0:0:0:
256,192,42721,1,0,0:0:0:0:
256,192,43021,1,0,0:0:0:0:
256,192,43321,1,0,0:0:0:0:
256,192,43621,1,0,0:0:0:0:
256,192,43696,1,0,0:0:0:0:
256,192,43771,1,8,0:0:0:0:
256,192,43921,1,0,0:0:0:0:
256,192,44071,1,8,0:0:0:0:
256,192,44146,1,0,0:0:0:0:
256,192,44221,1,0,0:0:0:0:
256,192,44371,1,8,0:0:0:0:
256,192,44521,1,0,0:0:0:0:
256,192,44671,1,8,0:0:0:0:
256,192,44746,1,0,0:0:0:0:
256,192,44821,1,0,0:0:0:0:
256,192,44896,1,0,0:0:0:0:
256,192,44971,1,8,0:0:0:0:
256,192,45121,1,0,0:0:0:0:
256,192,45271,1,8,0:0:0:0:
256,192,45346,1,8,0:0:0:0:
256,192,45421,1,0,0:0:0:0:
256,192,45496,1,8,0:0:0:0:
256,192,45571,1,0,0:0:0:0:
256,192,45721,1,0,0:0:0:0:
256,192,45871,1,8,0:0:0:0:
256,192,45946,1,8,0:0:0:0:
256,192,46021,1,0,0:0:0:0:
256,192,46171,1,8,0:0:0:0:
256,192,46246,1,0,0:0:0:0:
256,192,46321,1,0,0:0:0:0:
256,192,46471,1,0,0:0:0:0:
256,192,46546,1,0,0:0:0:0:
256,192,46621,1,0,0:0:0:0:
256,192,46696,1,0,0:0:0:0:
256,192,46771,1,8,0:0:0:0:
256,192,46921,1,0,0:0:0:0:
256,192,47071,1,8,0:0:0:0:
256,192,47146,1,8,0:0:0:0:
256,192,47221,1,8,0:0:0:0:
256,192,47296,1,8,0:0:0:0:
256,192,47371,1,8,0:0:0:0:
256,192,47521,1,0,0:0:0:0:
256,192,47821,1,0,0:0:0:0:
256,192,48121,1,0,0:0:0:0:
256,192,48571,1,0,0:0:0:0:
256,192,48721,1,0,0:0:0:0:
256,192,48871,1,8,0:0:0:0:
256,192,49171,1,0,0:0:0:0:
256,192,49321,1,0,0:0:0:0:
256,192,49621,1,0,0:0:0:0:
256,192,49921,1,0,0:0:0:0:
256,192,49996,1,0,0:0:0:0:
256,192,50071,1,8,0:0:0:0:
256,192,50371,1,8,0:0:0:0:
256,192,50521,1,8,0:0:0:0:
256,192,50671,1,0,0:0:0:0:
256,192,50821,1,0,0:0:0:0:
256,192,50971,1,0,0:0:0:0:
256,192,51121,1,0,0:0:0:0:
256,192,51271,1,8,0:0:0:0:
256,192,51571,1,0,0:0:0:0:
256,192,51646,1,8,0:0:0:0:
256,192,51721,1,0,0:0:0:0:
256,192,51871,1,0,0:0:0:0:
256,192,51946,1,0,0:0:0:0:
256,192,52021,1,8,0:0:0:0:
256,192,52171,1,0,0:0:0:0:
256,192,52321,1,0,0:0:0:0:
256,192,52471,1,8,0:0:0:0:
256,192,52621,1,8,0:0:0:0:
256,192,52771,1,0,0:0:0:0:
256,192,52921,1,0,0:0:0:0:
256,192,53071,1,0,0:0:0:0:
256,192,53371,1,0,0:0:0:0:
256,192,53521,1,0,0:0:0:0:
256,192,53596,1,0,0:0:0:0:
256,192,53671,1,8,0:0:0:0:
256,192,53971,1,0,0:0:0:0:
256,192,54121,1,0,0:0:0:0:
256,192,54421,1,0,0:0:0:0:
256,192,54721,1,0,0:0:0:0:
256,192,54796,1,0,0:0:0:0:
256,192,54871,1,8,0:0:0:0:
256,192,55021,1,0,0:0:0:0:
256,192,55171,1,8,0:0:0:0:
256,192,55321,1,8,0:0:0:0:
256,192,55471,1,0,0:0:0:0:
256,192,55621,1,0,0:0:0:0:
256,192,55771,1,0,0:0:0:0:
256,192,55921,1,0,0:0:0:0:
256,192,56071,1,8,0:0:0:0:
256,192,56371,1,0,0:0:0:0:
256,192,56446,1,0,0:0:0:0:
256,192,56521,1,0,0:0:0:0:
256,192,56671,1,0,0:0:0:0:
256,192,56746,1,0,0:0:0:0:
256,192,56821,1,8,0:0:0:0:
256,192,56971,1,0,0:0:0:0:
256,192,57046,1,8,0:0:0:0:
256,192,57121,1,0,0:0:0:0:
256,192,57271,1,0,0:0:0:0:
256,192,57421,1,0,0:0:0:0:
256,192,57571,1,0,0:0:0:0:
256,192,57871,1,0,0:0:0:0:
256,192,57946,1,0,0:0:0:0:
256,192,58021,1,0,0:0:0:0:
256,192,58096,1,0,0:0:0:0:
256,192,58171,1,0,0:0:0:0:
256,192,58246,1,0,0:0:0:0:
256,192,58321,1,0,0:0:0:0:
256,192,58396,1,0,0:0:0:0:
256,192,58471,1,8,0:0:0:0:
256,192,59071,1,8,0:0:0:0:
256,192,59221,1,8,0:0:0:0:
256,192,59371,1,8,0:0:0:0:
256,192,59521,1,8,0:0:0:0:
256,192,59821,1,8,0:0:0:0:
256,192,59971,1,8,0:0:0:0:
256,192,60121,1,8,0:0:0:0:
256,192,60271,1,0,0:0:0:0:
256,192,60421,1,0,0:0:0:0:
256,192,60571,1,0,0:0:0:0:
256,192,60721,1,8,0:0:0:0:
256,192,61021,1,0,0:0:0:0:
256,192,61171,1,0,0:0:0:0:
256,192,61321,1,0,0:0:0:0:
256,192,61621,1,0,0:0:0:0:
256,192,61921,1,0,0:0:0:0:
256,192,62071,1,8,0:0:0:0:
256,192,62221,1,0,0:0:0:0:
256,192,62521,1,0,0:0:0:0:
256,192,62671,1,8,0:0:0:0:
256,192,62821,1,8,0:0:0:0:
256,192,62971,1,8,0:0:0:0:
256,192,63121,1,8,0:0:0:0:
256,192,63421,1,0,0:0:0:0:
256,192,63571,1,0,0:0:0:0:
256,192,63721,1,0,0:0:0:0:
256,192,64021,1,0,0:0:0:0:
256,192,64321,1,0,0:0:0:0:
256,192,64396,1,0,0:0:0:0:
256,192,64471,1,8,0:0:0:0:
256,192,64621,1,0,0:0:0:0:
256,192,64771,1,0,0:0:0:0:
256,192,64921,1,0,0:0:0:0:
256,192,65071,1,8,0:0:0:0:
256,192,65221,1,0,0:0:0:0:
256,192,65371,1,0,0:0:0:0:
256,192,65521,1,8,0:0:0:0:
256,192,65821,1,0,0:0:0:0:
256,192,65971,1,0,0:0:0:0:
256,192,66121,1,0,0:0:0:0:
256,192,66421,1,0,0:0:0:0:
256,192,66721,1,0,0:0:0:0:
256,192,66871,1,8,0:0:0:0:
256,192,67021,1,0,0:0:0:0:
256,192,67321,1,0,0:0:0:0:
256,192,67471,1,8,0:0:0:0:
256,192,67621,1,8,0:0:0:0:
256,192,67771,1,8,0:0:0:0:
256,192,67921,1,8,0:0:0:0:
256,192,68221,1,0,0:0:0:0:
256,192,68371,1,0,0:0:0:0:
256,192,68521,1,0,0:0:0:0:
256,192,68671,1,0,0:0:0:0:
256,192,68971,1,0,0:0:0:0:
256,192,69121,1,0,0:0:0:0:
256,192,69271,1,8,0:0:0:0:
256,192,69421,1,0,0:0:0:0:
256,192,69871,1,0,0:0:0:0:
256,192,70021,1,0,0:0:0:0:
256,192,70171,1,0,0:0:0:0:
256,192,70321,1,8,0:0:0:0:
256,192,70621,1,0,0:0:0:0:
256,192,70771,1,0,0:0:0:0:
256,192,70921,1,0,0:0:0:0:
256,192,71221,1,0,0:0:0:0:
256,192,71521,1,0,0:0:0:0:
256,192,71671,1,8,0:0:0:0:
256,192,71821,1,0,0:0:0:0:
256,192,72121,1,0,0:0:0:0:
256,192,72271,1,8,0:0:0:0:
256,192,72421,1,8,0:0:0:0:
256,192,72571,1,8,0:0:0:0:
256,192,72721,1,8,0:0:0:0:
256,192,73021,1,0,0:0:0:0:
256,192,73171,1,0,0:0:0:0:
256,192,73321,1,0,0:0:0:0:
256,192,73621,1,0,0:0:0:0:
256,192,73921,1,0,0:0:0:0:
256,192,73996,1,0,0:0:0:0:
256,192,74071,1,8,0:0:0:0:
256,192,74221,1,0,0:0:0:0:
256,192,74371,1,0,0:0:0:0:
256,192,74521,1,0,0:0:0:0:
256,192,74671,1,8,0:0:0:0:
256,192,74821,1,0,0:0:0:0:
256,192,74971,1,0,0:0:0:0:
256,192,75121,1,8,0:0:0:0:
256,192,75421,1,0,0:0:0:0:
256,192,75571,1,0,0:0:0:0:
256,192,75721,1,0,0:0:0:0:
256,192,76021,1,0,0:0:0:0:
256,192,76321,1,0,0:0:0:0:
256,192,76471,1,8,0:0:0:0:
256,192,76621,1,0,0:0:0:0:
256,192,76921,1,0,0:0:0:0:
256,192,77071,1,8,0:0:0:0:
256,192,77221,1,8,0:0:0:0:
256,192,77371,1,8,0:0:0:0:
256,192,77521,1,8,0:0:0:0:
256,192,77821,1,0,0:0:0:0:
256,192,77971,1,0,0:0:0:0:
256,192,78121,1,0,0:0:0:0:
256,192,78271,1,0,0:0:0:0:
256,192,78571,1,0,0:0:0:0:
256,192,78721,1,0,0:0:0:0:
256,192,78871,1,8,0:0:0:0:
256,192,79021,1,0,0:0:0:0:
256,192,79471,1,0,0:0:0:0:
256,192,79621,1,0,0:0:0:0:
256,192,79696,1,0,0:0:0:0:
256,192,79771,1,8,0:0:0:0:
256,192,79921,1,0,0:0:0:0:
256,192,80071,1,8,0:0:0:0:
256,192,80146,1,0,0:0:0:0:
256,192,80221,1,8,0:0:0:0:
256,192,80371,1,8,0:0:0:0:
256,192,80446,1,0,0:0:0:0:
256,192,80521,1,0,0:0:0:0:
256,192,80596,1,0,0:0:0:0:
256,192,80671,1,8,0:0:0:0:
256,192,80821,1,0,0:0:0:0:
256,192,80971,1,8,0:0:0:0:
256,192,81046,1,8,0:0:0:0:
256,192,81121,1,0,0:0:0:0:
256,192,81271,1,8,0:0:0:0:
256,192,81346,1,0,0:0:0:0:
256,192,81421,1,0,0:0:0:0:
256,192,81496,1,0,0:0:0:0:
256,192,81571,1,8,0:0:0:0:
256,192,81646,1,0,0:0:0:0:
256,192,81721,1,0,0:0:0:0:
256,192,81796,1,8,0:0:0:0:
256,192,81871,1,8,0:0:0:0:
256,192,82021,1,8,0:0:0:0:
256,192,82171,1,8,0:0:0:0:
256,192,82246,1,0,0:0:0:0:
256,192,82321,1,0,0:0:0:0:
256,192,82396,1,0,0:0:0:0:
256,192,82471,1,8,0:0:0:0:
256,192,82621,1,0,0:0:0:0:
256,192,82771,1,8,0:0:0:0:
256,192,82846,1,0,0:0:0:0:
256,192,82921,1,0,0:0:0:0:
256,192,82996,1,8,0:0:0:0:
256,192,83071,1,0,0:0:0:0:
256,192,83221,1,0,0:0:0:0:
256,192,83371,1,0,0:0:0:0:
256,192,83521,1,0,0:0:0:0:
256,192,83821,1,0,0:0:0:0:
256,192,84121,1,0,0:0:0:0:
256,192,84421,1,0,0:0:0:0:
256,192,84496,1,0,0:0:0:0:
256,192,84571,1,8,0:0:0:0:
256,192,84721,1,0,0:0:0:0:
256,192,84871,1,8,0:0:0:0:
256,192,84946,1,0,0:0:0:0:
256,192,85021,1,0,0:0:0:0:
256,192,85096,1,0,0:0:0:0:
256,192,85171,1,8,0:0:0:0:
256,192,85321,1,8,0:0:0:0:
256,192,85396,1,8,0:0:0:0:
256,192,85471,1,0,0:0:0:0:
256,192,85621,1,0,0:0:0:0:
256,192,85696,1,8,0:0:0:0:
256,192,85771,1,0,0:0:0:0:
256,192,85921,1,0,0:0:0:0:
256,192,85996,1,8,0:0:0:0:
256,192,86071,1,8,0:0:0:0:
256,192,86221,1,8,0:0:0:0:
256,192,86296,1,8,0:0:0:0:
256,192,86371,1,0,0:0:0:0:
256,192,86521,1,8,0:0:0:0:
256,192,86596,1,8,0:0:0:0:
256,192,86671,1,0,0:0:0:0:
256,192,86821,1,0,0:0:0:0:
256,192,86896,1,0,0:0:0:0:
256,192,86971,1,8,0:0:0:0:
256,192,87121,1,0,0:0:0:0:
256,192,87196,1,0,0:0:0:0:
256,192,87271,1,8,0:0:0:0:
256,192,87346,1,8,0:0:0:0:
256,192,87421,1,0,0:0:0:0:
256,192,87496,1,0,0:0:0:0:
256,192,87571,1,8,0:0:0:0:
256,192,87646,1,0,0:0:0:0:
256,192,87721,1,0,0:0:0:0:
256,192,87796,1,0,0:0:0:0:
256,192,87871,1,8,0:0:0:0:
256,192,87946,1,8,0:0:0:0:
256,192,88021,1,8,0:0:0:0:
256,192,88096,1,8,0:0:0:0:
256,192,88171,1,8,0:0:0:0:
256,192,88321,1,0,0:0:0:0:
256,192,88621,1,0,0:0:0:0:
256,192,88921,1,0,0:0:0:0:
256,192,89371,1,8,0:0:0:0:
256,192,89671,1,8,0:0:0:0:
256,192,89971,1,8,0:0:0:0:
256,192,90271,1,8,0:0:0:0:
256,192,90571,1,8,0:0:0:0:
256,192,90871,1,8,0:0:0:0:
256,192,91171,1,8,0:0:0:0:
256,192,91471,1,8,0:0:0:0:
256,192,91771,1,8,0:0:0:0:
256,192,92071,1,8,0:0:0:0:
256,192,92371,1,8,0:0:0:0:
256,192,92671,1,8,0:0:0:0:
256,192,92971,1,8,0:0:0:0:
256,192,93271,1,8,0:0:0:0:
256,192,93571,1,8,0:0:0:0:
256,192,93871,1,8,0:0:0:0:
256,192,94021,1,0,0:0:0:0:
256,192,94171,1,8,0:0:0:0:
256,192,94321,1,0,0:0:0:0:
256,192,94471,1,8,0:0:0:0:
256,192,94621,1,8,0:0:0:0:
256,192,94771,1,8,0:0:0:0:
256,192,94921,1,0,0:0:0:0:
256,192,95071,1,8,0:0:0:0:
256,192,95221,1,0,0:0:0:0:
256,192,95371,1,8,0:0:0:0:
256,192,95521,1,0,0:0:0:0:
256,192,95671,1,8,0:0:0:0:
256,192,95821,1,8,0:0:0:0:
256,192,95971,1,8,0:0:0:0:
256,192,96121,1,0,0:0:0:0:
256,192,96271,1,8,0:0:0:0:
256,192,96421,1,0,0:0:0:0:
256,192,96571,1,8,0:0:0:0:
256,192,96721,1,0,0:0:0:0:
256,192,96871,1,8,0:0:0:0:
256,192,97021,1,0,0:0:0:0:
256,192,97171,1,0,0:0:0:0:
256,192,97321,1,0,0:0:0:0:
256,192,97471,1,8,0:0:0:0:
256,192,97621,1,0,0:0:0:0:
256,192,97771,1,0,0:0:0:0:
256,192,97921,1,0,0:0:0:0:
256,192,98221,1,0,0:0:0:0:
256,192,98521,1,0,0:0:0:0:
256,192,98671,1,8,0:0:0:0:
256,192,98821,1,0,0:0:0:0:
256,192,98896,1,0,0:0:0:0:
256,192,98971,1,8,0:0:0:0:
256,192,99121,1,0,0:0:0:0:
256,192,99271,1,0,0:0:0:0:
256,192,99346,1,0,0:0:0:0:
256,192,99421,1,8,0:0:0:0:
256,192,99496,1,8,0:0:0:0:
256,192,99571,1,0,0:0:0:0:
256,192,99721,1,0,0:0:0:0:
256,192,99871,1,8,0:0:0:0:
256,192,99946,1,8,0:0:0:0:
256,192,100021,1,0,0:0:0:0:
256,192,100171,1,8,0:0:0:0:
256,192,100321,1,0,0:0:0:0:
256,192,100471,1,0,0:0:0:0:
256,192,100621,1,0,0:0:0:0:
256,192,100696,1,8,0:0:0:0:
256,192,100771,1,0,0:0:0:0:
256,192,100921,1,0,0:0:0:0:
256,192,100996,1,0,0:0:0:0:
256,192,101071,1,8,0:0:0:0:
256,192,101146,1,8,0:0:0:0:
256,192,101221,1,0,0:0:0:0:
256,192,101296,1,0,0:0:0:0:
256,192,101371,1,8,0:0:0:0:
256,192,101446,1,8,0:0:0:0:
256,192,101521,1,0,0:0:0:0:
256,192,101596,1,0,0:0:0:0:
256,192,101671,1,8,0:0:0:0:
256,192,101746,1,8,0:0:0:0:
256,192,101821,1,0,0:0:0:0:
224,192,101896,1,0,0:0:0:0:
256,192,101971,1,0,0:0:0:0:
256,192,102046,1,8,0:0:0:0:
256,192,102121,1,8,0:0:0:0:
256,192,102196,1,0,0:0:0:0:
256,192,102271,1,8,0:0:0:0:
256,192,102421,1,0,0:0:0:0:
256,192,102496,1,0,0:0:0:0:
256,192,102571,1,0,0:0:0:0:
256,192,102721,1,4,0:0:0:0:
256,192,103021,1,4,0:0:0:0:
256,192,103321,1,4,0:0:0:0:
256,192,103771,1,0,0:0:0:0:
256,192,103921,1,0,0:0:0:0:
256,192,104071,1,8,0:0:0:0:
256,192,104371,1,0,0:0:0:0:
256,192,104521,1,0,0:0:0:0:
256,192,104821,1,0,0:0:0:0:
256,192,105121,1,0,0:0:0:0:
256,192,105196,1,0,0:0:0:0:
256,192,105271,1,8,0:0:0:0:
256,192,105571,1,8,0:0:0:0:
256,192,105721,1,8,0:0:0:0:
256,192,105871,1,0,0:0:0:0:
256,192,106021,1,0,0:0:0:0:
256,192,106171,1,0,0:0:0:0:
256,192,106321,1,0,0:0:0:0:
256,192,106471,1,8,0:0:0:0:
256,192,106771,1,0,0:0:0:0:
256,192,106846,1,0,0:0:0:0:
256,192,106921,1,0,0:0:0:0:
256,192,107071,1,0,0:0:0:0:
256,192,107146,1,0,0:0:0:0:
256,192,107221,1,0,0:0:0:0:
256,192,107371,1,0,0:0:0:0:
256,192,107521,1,0,0:0:0:0:
256,192,107671,1,8,0:0:0:0:
256,192,107821,1,0,0:0:0:0:
256,192,107971,1,0,0:0:0:0:
256,192,108121,1,0,0:0:0:0:
256,192,108571,1,0,0:0:0:0:
256,192,108721,1,0,0:0:0:0:
256,192,108871,1,8,0:0:0:0:
256,192,109171,1,0,0:0:0:0:
256,192,109321,1,0,0:0:0:0:
256,192,109621,1,0,0:0:0:0:
256,192,109921,1,0,0:0:0:0:
256,192,109996,1,0,0:0:0:0:
256,192,110071,1,8,0:0:0:0:
256,192,110221,1,0,0:0:0:0:
256,192,110371,1,8,0:0:0:0:
256,192,110521,1,8,0:0:0:0:
256,192,110671,1,0,0:0:0:0:
256,192,110821,1,0,0:0:0:0:
256,192,110971,1,0,0:0:0:0:
256,192,111121,1,0,0:0:0:0:
256,192,111271,1,8,0:0:0:0:
256,192,111571,1,0,0:0:0:0:
256,192,111646,1,0,0:0:0:0:
256,192,111721,1,0,0:0:0:0:
256,192,111871,1,0,0:0:0:0:
256,192,111946,1,0,0:0:0:0:
256,192,112021,1,0,0:0:0:0:
256,192,112171,1,0,0:0:0:0:
256,192,112246,1,0,0:0:0:0:
256,192,112321,1,8,0:0:0:0:
256,192,112471,1,0,0:0:0:0:
256,192,112621,1,0,0:0:0:0:
256,192,112771,1,0,0:0:0:0:
256,192,112921,1,0,0:0:0:0:
256,192,113071,1,0,0:0:0:0:
256,192,113371,1,0,0:0:0:0:
256,192,113521,1,0,0:0:0:0:
256,192,113596,1,0,0:0:0:0:
256,192,113671,1,8,0:0:0:0:
256,192,113971,1,0,0:0:0:0:
256,192,114121,1,0,0:0:0:0:
256,192,114421,1,0,0:0:0:0:
256,192,114721,1,0,0:0:0:0:
256,192,114796,1,0,0:0:0:0:
256,192,114871,1,8,0:0:0:0:
256,192,115171,1,8,0:0:0:0:
256,192,115321,1,8,0:0:0:0:
256,192,115471,1,0,0:0:0:0:
256,192,115621,1,0,0:0:0:0:
256,192,115771,1,0,0:0:0:0:
256,192,115921,1,0,0:0:0:0:
256,192,116071,1,8,0:0:0:0:
256,192,116371,1,0,0:0:0:0:
256,192,116446,1,0,0:0:0:0:
256,192,116521,1,0,0:0:0:0:
256,192,116671,1,0,0:0:0:0:
256,192,116746,1,0,0:0:0:0:
256,192,116821,1,0,0:0:0:0:
256,192,116971,1,0,0:0:0:0:
256,192,117046,1,0,0:0:0:0:
256,192,117121,1,8,0:0:0:0:
256,192,117271,1,0,0:0:0:0:
256,192,117421,1,0,0:0:0:0:
256,192,117571,1,8,0:0:0:0:
256,192,117871,1,8,0:0:0:0:
256,192,117946,1,0,0:0:0:0:
256,192,118021,1,0,0:0:0:0:
256,192,118096,1,0,0:0:0:0:
256,192,118171,1,0,0:0:0:0:
256,192,118246,1,0,0:0:0:0:
256,192,118321,1,0,0:0:0:0:
256,192,118396,1,0,0:0:0:0:
256,192,118471,1,8,0:0:0:0:
256,192,119071,1,8,0:0:0:0:
256,192,119221,1,8,0:0:0:0:
256,192,119371,1,8,0:0:0:0:
256,192,119521,1,8,0:0:0:0:
256,192,119821,1,8,0:0:0:0:
256,192,119971,1,8,0:0:0:0:
256,192,120121,1,8,0:0:0:0:
256,192,120271,1,0,0:0:0:0:
256,192,120421,1,0,0:0:0:0:
256,192,120571,1,0,0:0:0:0:
256,192,120721,1,8,0:0:0:0:
256,192,121021,1,0,0:0:0:0:
256,192,121171,1,0,0:0:0:0:
256,192,121321,1,0,0:0:0:0:
256,192,121621,1,0,0:0:0:0:
256,192,121921,1,0,0:0:0:0:
256,192,122071,1,8,0:0:0:0:
256,192,122221,1,0,0:0:0:0:
256,192,122521,1,0,0:0:0:0:
256,192,122671,1,8,0:0:0:0:
256,192,122821,1,8,0:0:0:0:
256,192,122971,1,8,0:0:0:0:
256,192,123121,1,8,0:0:0:0:
256,192,123421,1,0,0:0:0:0:
256,192,123571,1,0,0:0:0:0:
256,192,123721,1,0,0:0:0:0:
256,192,124021,1,0,0:0:0:0:
256,192,124321,1,0,0:0:0:0:
256,192,124396,1,0,0:0:0:0:
256,192,124471,1,8,0:0:0:0:
256,192,124621,1,0,0:0:0:0:
256,192,124771,1,0,0:0:0:0:
256,192,124921,1,0,0:0:0:0:
256,192,125071,1,8,0:0:0:0:
256,192,125221,1,0,0:0:0:0:
256,192,125371,1,0,0:0:0:0:
256,192,125521,1,8,0:0:0:0:
256,192,125821,1,0,0:0:0:0:
256,192,125971,1,0,0:0:0:0:
256,192,126121,1,0,0:0:0:0:
256,192,126421,1,0,0:0:0:0:
256,192,126721,1,0,0:0:0:0:
256,192,126871,1,8,0:0:0:0:
256,192,127021,1,0,0:0:0:0:
256,192,127321,1,0,0:0:0:0:
256,192,127471,1,8,0:0:0:0:
256,192,127621,1,8,0:0:0:0:
256,192,127771,1,8,0:0:0:0:
256,192,127921,1,8,0:0:0:0:
256,192,128221,1,0,0:0:0:0:
256,192,128371,1,0,0:0:0:0:
256,192,128521,1,0,0:0:0:0:
256,192,128671,1,0,0:0:0:0:
256,192,128971,1,0,0:0:0:0:
256,192,129121,1,0,0:0:0:0:
256,192,129271,1,8,0:0:0:0:
256,192,129421,1,0,0:0:0:0:
256,192,129871,1,0,0:0:0:0:
256,192,130021,1,0,0:0:0:0:
256,192,130171,1,0,0:0:0:0:
256,192,130321,1,8,0:0:0:0:
256,192,130621,1,0,0:0:0:0:
256,192,130771,1,0,0:0:0:0:
256,192,130921,1,0,0:0:0:0:
256,192,131221,1,0,0:0:0:0:
256,192,131521,1,0,0:0:0:0:
256,192,131671,1,8,0:0:0:0:
256,192,131821,1,0,0:0:0:0:
256,192,132121,1,0,0:0:0:0:
256,192,132271,1,8,0:0:0:0:
256,192,132421,1,8,0:0:0:0:
256,192,132571,1,8,0:0:0:0:
256,192,132721,1,8,0:0:0:0:
256,192,133021,1,0,0:0:0:0:
256,192,133171,1,0,0:0:0:0:
256,192,133321,1,0,0:0:0:0:
256,192,133621,1,0,0:0:0:0:
256,192,133921,1,0,0:0:0:0:
256,192,133996,1,0,0:0:0:0:
256,192,134071,1,8,0:0:0:0:
256,192,134221,1,0,0:0:0:0:
256,192,134371,1,0,0:0:0:0:
256,192,134521,1,0,0:0:0:0:
256,192,134671,1,8,0:0:0:0:
256,192,134821,1,0,0:0:0:0:
256,192,134971,1,0,0:0:0:0:
256,192,135121,1,8,0:0:0:0:
256,192,135421,1,0,0:0:0:0:
256,192,135571,1,0,0:0:0:0:
256,192,135721,1,0,0:0:0:0:
256,192,136021,1,0,0:0:0:0:
256,192,136321,1,0,0:0:0:0:
256,192,136471,1,8,0:0:0:0:
256,192,136621,1,0,0:0:0:0:
256,192,136921,1,0,0:0:0:0:
256,192,137071,1,8,0:0:0:0:
256,192,137221,1,8,0:0:0:0:
256,192,137371,1,8,0:0:0:0:
256,192,137521,1,8,0:0:0:0:
256,192,137821,1,0,0:0:0:0:
256,192,137971,1,0,0:0:0:0:
256,192,138121,1,0,0:0:0:0:
256,192,138271,1,0,0:0:0:0:
256,192,138571,1,0,0:0:0:0:
256,192,138721,1,0,0:0:0:0:
256,192,138871,1,8,0:0:0:0:
256,192,139021,1,0,0:0:0:0:
256,192,139471,1,0,0:0:0:0:
256,192,139621,1,0,0:0:0:0:
256,192,139771,1,0,0:0:0:0:
256,192,139921,1,0,0:0:0:0:
256,192,140071,1,8,0:0:0:0:
256,192,140221,1,0,0:0:0:0:
256,192,140371,1,0,0:0:0:0:
256,192,140521,1,0,0:0:0:0:
256,192,140671,1,0,0:0:0:0:
256,192,140821,1,8,0:0:0:0:
256,192,140971,1,0,0:0:0:0:
256,192,141121,1,0,0:0:0:0:
256,192,141271,1,8,0:0:0:0:
256,192,141421,1,0,0:0:0:0:
256,192,141571,1,0,0:0:0:0:
256,192,141721,1,0,0:0:0:0:
256,192,141871,1,0,0:0:0:0:
256,192,142021,1,0,0:0:0:0:
256,192,142171,1,0,0:0:0:0:
256,192,142321,1,0,0:0:0:0:
256,192,142471,1,8,0:0:0:0:
256,192,142621,1,0,0:0:0:0:
256,192,142771,1,0,0:0:0:0:
256,192,142921,1,0,0:0:0:0:
256,192,143071,1,0,0:0:0:0:
256,192,143221,1,8,0:0:0:0:
256,192,143371,1,0,0:0:0:0:
256,192,143521,1,0,0:0:0:0:
256,192,143671,1,8,0:0:0:0:
256,192,143821,1,0,0:0:0:0:
256,192,143971,1,0,0:0:0:0:
256,192,144121,1,0,0:0:0:0:
256,192,144271,1,0,0:0:0:0:
256,192,144421,1,0,0:0:0:0:
256,192,144571,1,0,0:0:0:0:
256,192,144721,1,0,0:0:0:0:
256,192,144871,1,8,0:0:0:0:
256,192,145021,1,0,0:0:0:0:
256,192,145171,1,0,0:0:0:0:
256,192,145321,1,0,0:0:0:0:
256,192,145471,1,0,0:0:0:0:
256,192,145621,1,8,0:0:0:0:
256,192,145771,1,0,0:0:0:0:
256,192,145921,1,0,0:0:0:0:
256,192,146071,1,8,0:0:0:0:
256,192,146221,1,0,0:0:0:0:
256,192,146371,1,0,0:0:0:0:
256,192,146521,1,0,0:0:0:0:
256,192,146671,1,0,0:0:0:0:
256,192,146821,1,0,0:0:0:0:
256,192,146971,1,0,0:0:0:0:
256,192,147121,1,0,0:0:0:0:
256,192,147271,1,8,0:0:0:0:
256,192,147421,1,0,0:0:0:0:
256,192,147571,1,0,0:0:0:0:
256,192,147721,1,0,0:0:0:0:
256,192,147871,1,0,0:0:0:0:
256,192,148021,1,8,0:0:0:0:
256,192,148171,1,0,0:0:0:0:
256,192,148321,1,0,0:0:0:0:
256,192,148471,1,8,0:0:0:0:
256,192,148621,1,8,0:0:0:0:
256,192,148771,1,8,0:0:0:0:
256,192,148921,1,8,0:0:0:0:
256,192,149071,1,0,0:0:0:0:
256,192,149221,1,0,0:0:0:0:
256,192,149371,1,0,0:0:0:0:
256,192,149521,1,0,0:0:0:0:
256,192,149671,1,8,0:0:0:0:
256,192,149821,1,0,0:0:0:0:
256,192,149971,1,0,0:0:0:0:
256,192,150121,1,0,0:0:0:0:
256,192,150271,1,0,0:0:0:0:
256,192,150421,1,8,0:0:0:0:
256,192,150571,1,0,0:0:0:0:
256,192,150721,1,0,0:0:0:0:
256,192,150871,1,8,0:0:0:0:
256,192,151021,1,0,0:0:0:0:
256,192,151171,1,0,0:0:0:0:
256,192,151321,1,0,0:0:0:0:
256,192,151471,1,0,0:0:0:0:
256,192,151621,1,0,0:0:0:0:
256,192,151771,1,0,0:0:0:0:
256,192,151921,1,0,0:0:0:0:
256,192,152071,1,8,0:0:0:0:
256,192,152221,1,0,0:0:0:0:
256,192,152371,1,0,0:0:0:0:
256,192,152521,1,0,0:0:0:0:
256,192,152671,1,0,0:0:0:0:
256,192,152821,1,8,0:0:0:0:
256,192,152971,1,0,0:0:0:0:
256,192,153121,1,0,0:0:0:0:
256,192,153271,1,8,0:0:0:0:
256,192,153421,1,0,0:0:0:0:
256,192,153571,1,0,0:0:0:0:
256,192,153721,1,0,0:0:0:0:
256,192,153871,1,0,0:0:0:0:
256,192,154021,1,0,0:0:0:0:
256,192,154171,1,0,0:0:0:0:
256,192,154321,1,0,0:0:0:0:
256,192,154471,1,8,0:0:0:0:
256,192,154621,1,0,0:0:0:0:
256,192,154771,1,0,0:0:0:0:
256,192,154921,1,0,0:0:0:0:
256,192,155071,1,0,0:0:0:0:
256,192,155221,1,8,0:0:0:0:
256,192,155371,1,0,0:0:0:0:
256,192,155521,1,0,0:0:0:0:
256,192,155671,1,8,0:0:0:0:
256,192,155821,1,0,0:0:0:0:
256,192,155971,1,0,0:0:0:0:
256,192,156121,1,0,0:0:0:0:
256,192,156271,1,0,0:0:0:0:
256,192,156421,1,0,0:0:0:0:
256,192,156571,1,0,0:0:0:0:
256,192,156721,1,0,0:0:0:0:
256,192,156871,1,8,0:0:0:0:
256,192,157021,1,0,0:0:0:0:
256,192,157171,1,0,0:0:0:0:
256,192,157321,1,0,0:0:0:0:
256,192,157471,1,0,0:0:0:0:
256,192,157621,1,8,0:0:0:0:
256,192,157771,1,0,0:0:0:0:
256,192,157921,1,0,0:0:0:0:
256,192,158071,1,8,0:0:0:0:
256,192,158221,1,0,0:0:0:0:
256,192,158371,1,8,0:0:0:0:
256,192,158521,1,8,0:0:0:0:
256,192,158671,1,0,0:0:0:0:
256,192,158821,1,0,0:0:0:0:
256,192,158971,1,0,0:0:0:0:
256,192,159121,1,0,0:0:0:0:
256,192,159271,1,8,0:0:0:0:
256,192,159421,1,0,0:0:0:0:
256,192,159571,1,0,0:0:0:0:
256,192,159721,1,0,0:0:0:0:
256,192,159871,1,0,0:0:0:0:
256,192,160021,1,8,0:0:0:0:
256,192,160171,1,0,0:0:0:0:
256,192,160321,1,0,0:0:0:0:
256,192,160471,1,8,0:0:0:0:
256,192,160621,1,0,0:0:0:0:
256,192,160771,1,0,0:0:0:0:
256,192,160921,1,0,0:0:0:0:
256,192,161071,1,0,0:0:0:0:
256,192,161221,1,0,0:0:0:0:
256,192,161371,1,0,0:0:0:0:
256,192,161521,1,0,0:0:0:0:
256,192,161671,1,8,0:0:0:0:
256,192,161821,1,0,0:0:0:0:
256,192,161971,1,0,0:0:0:0:
256,192,162121,1,0,0:0:0:0:
256,192,162271,1,0,0:0:0:0:
256,192,162421,1,8,0:0:0:0:
256,192,162571,1,0,0:0:0:0:
256,192,162721,1,0,0:0:0:0:
256,192,162871,1,8,0:0:0:0:
256,192,163021,1,0,0:0:0:0:
256,192,163171,1,0,0:0:0:0:
256,192,163321,1,0,0:0:0:0:
256,192,163471,1,0,0:0:0:0:
256,192,163621,1,0,0:0:0:0:
256,192,163771,1,0,0:0:0:0:
256,192,163921,1,0,0:0:0:0:
256,192,164071,1,8,0:0:0:0:
256,192,164221,1,0,0:0:0:0:
256,192,164371,1,0,0:0:0:0:
256,192,164521,1,0,0:0:0:0:
256,192,164671,1,0,0:0:0:0:
256,192,164821,1,8,0:0:0:0:
256,192,164971,1,0,0:0:0:0:
256,192,165121,1,0,0:0:0:0:
256,192,165271,1,8,0:0:0:0:
256,192,165421,1,0,0:0:0:0:
256,192,165571,1,0,0:0:0:0:
256,192,165721,1,0,0:0:0:0:
256,192,165871,1,0,0:0:0:0:
256,192,166021,1,0,0:0:0:0:
256,192,166171,1,0,0:0:0:0:
256,192,166321,1,0,0:0:0:0:
256,192,166471,1,8,0:0:0:0:
256,192,166621,1,0,0:0:0:0:
256,192,166771,1,0,0:0:0:0:
256,192,166921,1,0,0:0:0:0:
256,192,167071,1,0,0:0:0:0:
256,192,167221,1,8,0:0:0:0:
256,192,167371,1,0,0:0:0:0:
256,192,167521,1,0,0:0:0:0:
256,192,167671,1,8,0:0:0:0:
256,192,167821,1,0,0:0:0:0:
256,192,167971,1,8,0:0:0:0:
256,192,168121,1,8,0:0:0:0:
256,192,168271,1,0,0:0:0:0:
256,192,168421,1,0,0:0:0:0:
256,192,168496,1,0,0:0:0:0:
256,192,168571,1,8,0:0:0:0:
256,192,168721,1,0,0:0:0:0:
256,192,168871,1,8,0:0:0:0:
256,192,168946,1,0,0:0:0:0:
256,192,169021,1,8,0:0:0:0:
256,192,169171,1,8,0:0:0:0:
256,192,169246,1,0,0:0:0:0:
256,192,169321,1,0,0:0:0:0:
256,192,169396,1,0,0:0:0:0:
256,192,169471,1,8,0:0:0:0:
256,192,169621,1,0,0:0:0:0:
256,192,169771,1,8,0:0:0:0:
256,192,169846,1,8,0:0:0:0:
256,192,169921,1,0,0:0:0:0:
256,192,170071,1,8,0:0:0:0:
256,192,170146,1,0,0:0:0:0:
256,192,170221,1,0,0:0:0:0:
256,192,170296,1,0,0:0:0:0:
256,192,170371,1,8,0:0:0:0:
256,192,170446,1,0,0:0:0:0:
256,192,170521,1,0,0:0:0:0:
256,192,170596,1,8,0:0:0:0:
256,192,170671,1,8,0:0:0:0:
256,192,170821,1,8,0:0:0:0:
256,192,170971,1,8,0:0:0:0:
256,192,171046,1,0,0:0:0:0:
256,192,171121,1,0,0:0:0:0:
256,192,171196,1,0,0:0:0:0:
256,192,171271,1,8,0:0:0:0:
256,192,171421,1,0,0:0:0:0:
256,192,171571,1,8,0:0:0:0:
256,192,171646,1,0,0:0:0:0:
256,192,171721,1,0,0:0:0:0:
256,192,171796,1,8,0:0:0:0:
256,192,171871,1,8,0:0:0:0:
256,192,172021,1,0,0:0:0:0:
256,192,172171,1,0,0:0:0:0:
256,192,172321,1,0,0:0:0:0:
256,192,172621,1,0,0:0:0:0:
256,192,172921,1,0,0:0:0:0:
256,192,173371,1,0,0:0:0:0:
256,192,173521,1,0,0:0:0:0:
256,192,173671,1,8,0:0:0:0:
256,192,173971,1,0,0:0:0:0:
256,192,174121,1,0,0:0:0:0:
256,192,174421,1,0,0:0:0:0:
256,192,174721,1,0,0:0:0:0:
256,192,174796,1,0,0:0:0:0:
256,192,174871,1,8,0:0:0:0:
256,192,175171,1,8,0:0:0:0:
256,192,175321,1,8,0:0:0:0:
256,192,175471,1,0,0:0:0:0:
256,192,175621,1,0,0:0:0:0:
256,192,175771,1,0,0:0:0:0:
256,192,175921,1,0,0:0:0:0:
256,192,176071,1,8,0:0:0:0:
256,192,176371,1,0,0:0:0:0:
256,192,176446,1,0,0:0:0:0:
256,192,176521,1,0,0:0:0:0:
256,192,176671,1,0,0:0:0:0:
256,192,176746,1,0,0:0:0:0:
256,192,176821,1,0,0:0:0:0:
256,192,176971,1,0,0:0:0:0:
256,192,177121,1,0,0:0:0:0:
256,192,177421,1,8,0:0:0:0:
256,192,177721,1,0,0:0:0:0:
256,192,178321,1,0,0:0:0:0:
256,192,178396,1,0,0:0:0:0:
256,192,178471,1,0,0:0:0:0:
