osu file format v14

[General]
AudioFilename: America - Fuck Yeah!.mp3
AudioLeadIn: 0
PreviewTime: 8293
Countdown: 0
SampleSet: None
StackLeniency: 0.7
Mode: 1
LetterboxInBreaks: 0
WidescreenStoryboard: 1

[Editor]
DistanceSpacing: 1
BeatDivisor: 4
GridSize: 8
TimelineZoom: 2.899999

[Metadata]
Title:America, Fuck Yeah
TitleUnicode:America, Fuck Yeah
Artist:Trey Parker
ArtistUnicode:Trey Parker
Creator:Catgirl
Version:Patriotic Oni
Source:Team America World Police
Tags:can't stump the trump
BeatmapID:1869072
BeatmapSetID:894426

[Difficulty]
HPDrainRate:5
CircleSize:5
OverallDifficulty:5
ApproachRate:5
SliderMultiplier:1.4
SliderTickRate:1

[Events]
//Background and Video events
0,0,"trumpbg.png",0,0
//Break Periods
//Storyboard Layer 0 (Background)
//Storyboard Layer 1 (Fail)
//Storyboard Layer 2 (Pass)
//Storyboard Layer 3 (Foreground)
//Storyboard Sound Samples

[TimingPoints]
7145,353.25287017957,4,2,0,100,1,0
48828,-40,4,2,0,100,0,0
49358,-100,4,2,0,100,0,0
50241,-40,4,2,0,100,0,0
50771,-100,4,2,0,100,0,0
51654,-40,4,2,0,100,0,0
52184,-100,4,2,0,100,0,0
53067,-40,4,2,0,100,0,0
53597,-100,4,2,0,100,0,0
54480,-40,4,2,0,100,0,0
55010,-100,4,2,0,100,0,0
55893,-40,4,2,0,100,0,0
56423,-100,4,2,0,100,0,0
57306,-40,4,2,0,100,0,0
57836,-100,4,2,0,100,0,0
58719,-40,4,2,0,100,0,0
59249,-100,4,2,0,100,0,0
72850,-40,4,2,0,100,0,0
73379,-100,4,2,0,100,0,0
74263,-40,4,2,0,100,0,0
74792,-100,4,2,0,100,0,0
75676,-40,4,2,0,100,0,0
76205,-100,4,2,0,100,0,0
77089,-40,4,2,0,100,0,0
77618,-100,4,2,0,100,0,0
78502,-40,4,2,0,100,0,0
79031,-100,4,2,0,100,0,0
79915,-40,4,2,0,100,0,0
80444,-100,4,2,0,100,0,0
81328,-40,4,2,0,100,0,0
81857,-100,4,2,0,100,0,0
82741,-40,4,2,0,100,0,0
83270,-100,4,2,0,100,0,0
84154,-40,4,2,0,100,0,0
84684,-100,4,2,0,100,0,0
89806,-40,4,2,0,100,0,0
90336,-100,4,2,0,100,0,0
91219,-40,4,2,0,100,0,0
91749,-100,4,2,0,100,0,0
92632,-40,4,2,0,100,0,0
93162,-100,4,2,0,100,0,0
94045,-40,4,2,0,100,0,0
94575,-100,4,2,0,100,0,0
95458,-40,4,2,0,100,0,0
95988,-100,4,2,0,100,0,0
96871,-40,4,2,0,100,0,0
97401,-100,4,2,0,100,0,0
98284,-40,4,2,0,100,0,0
98814,-100,4,2,0,100,0,0
99697,-40,4,2,0,100,0,0
100227,-100,4,2,0,100,0,0
101110,-40,4,2,0,100,0,0
101640,-100,4,2,0,100,0,0

[HitObjects]
256,192,7498,5,2,0:0:0:0:
256,192,7586,1,0,0:0:0:0:
256,192,7674,1,0,0:0:0:0:
256,192,7851,1,0,0:0:0:0:
256,192,8028,1,2,0:0:0:0:
256,192,8116,1,0,0:0:0:0:
256,192,8204,1,0,0:0:0:0:
256,192,8381,1,0,0:0:0:0:
256,192,8558,1,6,0:0:0:0:
256,192,8734,1,0,0:0:0:0:
256,192,8911,1,0,0:0:0:0:
256,192,9087,1,2,0:0:0:0:
256,192,9176,1,2,0:0:0:0:
256,192,9264,1,0,0:0:0:0:
256,192,9352,1,0,0:0:0:0:
256,192,9441,1,0,0:0:0:0:
256,192,9617,1,0,0:0:0:0:
256,192,9794,1,0,0:0:0:0:
256,192,9882,1,0,0:0:0:0:
256,192,9971,1,2,0:0:0:0:
256,192,10147,1,0,0:0:0:0:
256,192,10324,1,2,0:0:0:0:
256,192,10500,1,2,0:0:0:0:
256,192,10589,1,2,0:0:0:0:
256,192,10677,1,0,0:0:0:0:
256,192,10765,1,0,0:0:0:0:
256,192,10854,1,0,0:0:0:0:
256,192,11030,1,0,0:0:0:0:
256,192,11207,1,0,0:0:0:0:
256,192,11384,1,2,0:0:0:0:
256,192,11560,1,0,0:0:0:0:
256,192,11737,1,2,0:0:0:0:
256,192,11825,1,2,0:0:0:0:
256,192,11913,1,0,0:0:0:0:
256,192,12090,1,0,0:0:0:0:
256,192,12178,1,0,0:0:0:0:
256,192,12267,1,2,0:0:0:0:
256,192,12355,1,2,0:0:0:0:
256,192,12443,1,0,0:0:0:0:
256,192,12620,1,0,0:0:0:0:
256,192,12797,1,0,0:0:0:0:
256,192,12885,1,0,0:0:0:0:
256,192,12973,1,0,0:0:0:0:
256,192,13150,1,2,0:0:0:0:
256,192,13238,1,0,0:0:0:0:
256,192,13326,1,0,0:0:0:0:
256,192,13503,1,0,0:0:0:0:
256,192,13591,1,2,0:0:0:0:
256,192,13680,1,0,0:0:0:0:
256,192,13768,1,0,0:0:0:0:
256,192,13856,1,2,0:0:0:0:
256,192,13945,1,0,0:0:0:0:
256,192,14033,1,0,0:0:0:0:
256,192,14210,1,4,0:0:0:0:
256,192,14563,1,2,0:0:0:0:
256,192,14739,1,0,0:0:0:0:
256,192,14916,1,0,0:0:0:0:
256,192,15004,1,0,0:0:0:0:
256,192,15093,1,0,0:0:0:0:
256,192,15269,1,2,0:0:0:0:
256,192,15446,1,0,0:0:0:0:
256,192,15534,1,0,0:0:0:0:
256,192,15623,1,2,0:0:0:0:
256,192,15799,1,0,0:0:0:0:
256,192,15976,1,2,0:0:0:0:
256,192,16152,1,0,0:0:0:0:
256,192,16329,1,2,0:0:0:0:
256,192,16417,1,0,0:0:0:0:
256,192,16506,1,0,0:0:0:0:
256,192,16682,1,2,0:0:0:0:
256,192,16771,1,0,0:0:0:0:
256,192,16859,1,0,0:0:0:0:
256,192,16947,1,0,0:0:0:0:
256,192,17036,1,2,0:0:0:0:
256,192,17212,1,0,0:0:0:0:
256,192,17389,1,2,0:0:0:0:
256,192,17477,1,0,0:0:0:0:
256,192,17565,1,0,0:0:0:0:
256,192,17742,1,0,0:0:0:0:
256,192,17919,1,0,0:0:0:0:
256,192,18095,1,2,0:0:0:0:
256,192,18184,1,2,0:0:0:0:
256,192,18272,1,0,0:0:0:0:
256,192,18449,1,4,0:0:0:0:
256,192,18802,1,4,0:0:0:0:
256,192,19155,1,0,0:0:0:0:
256,192,19332,1,0,0:0:0:0:
256,192,19508,1,2,0:0:0:0:
256,192,19685,1,0,0:0:0:0:
256,192,19862,1,0,0:0:0:0:
256,192,19950,1,0,0:0:0:0:
256,192,20038,1,2,0:0:0:0:
256,192,20215,1,0,0:0:0:0:
256,192,20303,1,0,0:0:0:0:
256,192,20391,1,2,0:0:0:0:
256,192,20568,1,2,0:0:0:0:
256,192,20745,1,0,0:0:0:0:
256,192,20921,1,2,0:0:0:0:
256,192,21010,1,0,0:0:0:0:
256,192,21098,1,0,0:0:0:0:
256,192,21275,1,2,0:0:0:0:
256,192,21363,1,0,0:0:0:0:
256,192,21451,1,0,0:0:0:0:
256,192,21628,1,0,0:0:0:0:
256,192,21716,1,0,0:0:0:0:
256,192,21804,1,0,0:0:0:0:
256,192,21981,1,2,0:0:0:0:
256,192,22069,1,0,0:0:0:0:
256,192,22158,1,0,0:0:0:0:
256,192,22334,1,2,0:0:0:0:
256,192,22511,1,2,0:0:0:0:
256,192,22599,1,2,0:0:0:0:
256,192,22688,1,0,0:0:0:0:
256,192,22864,1,0,0:0:0:0:
256,192,22953,1,0,0:0:0:0:
256,192,23041,1,2,0:0:0:0:
256,192,23218,1,0,0:0:0:0:
256,192,23306,1,0,0:0:0:0:
256,192,23394,1,2,0:0:0:0:
256,192,23482,1,0,0:0:0:0:
256,192,23571,1,0,0:0:0:0:
256,192,23659,1,0,0:0:0:0:
256,192,23747,1,2,0:0:0:0:
256,192,23836,1,0,0:0:0:0:
256,192,23924,1,0,0:0:0:0:
256,192,24012,1,0,0:0:0:0:
256,192,24101,1,2,0:0:0:0:
256,192,24160,1,0,0:0:0:0:
256,192,24218,1,0,0:0:0:0:
256,192,24277,1,2,0:0:0:0:
256,192,24366,1,0,0:0:0:0:
256,192,24454,1,2,0:0:0:0:
256,192,24513,1,0,0:0:0:0:
256,192,24572,1,0,0:0:0:0:
256,192,24631,1,2,0:0:0:0:
256,192,24719,1,0,0:0:0:0:
256,192,24807,1,2,0:0:0:0:
256,192,24866,1,0,0:0:0:0:
256,192,24925,1,0,0:0:0:0:
256,192,24984,1,2,0:0:0:0:
256,192,25072,1,0,0:0:0:0:
256,192,25160,1,2,0:0:0:0:
256,192,25219,1,0,0:0:0:0:
256,192,25278,1,0,0:0:0:0:
256,192,25337,1,2,0:0:0:0:
256,192,25396,1,0,0:0:0:0:
256,192,25455,1,0,0:0:0:0:
256,192,25514,1,2,0:0:0:0:
256,192,25867,1,2,0:0:0:0:
256,192,26044,1,0,0:0:0:0:
256,192,26220,1,0,0:0:0:0:
256,192,26397,1,0,0:0:0:0:
256,192,26485,1,0,0:0:0:0:
256,192,26573,1,0,0:0:0:0:
256,192,26750,1,2,0:0:0:0:
256,192,26927,1,2,0:0:0:0:
256,192,27103,1,0,0:0:0:0:
256,192,27192,1,0,0:0:0:0:
256,192,27280,1,2,0:0:0:0:
256,192,27457,1,0,0:0:0:0:
256,192,27633,1,2,0:0:0:0:
256,192,27810,1,2,0:0:0:0:
256,192,27898,1,2,0:0:0:0:
256,192,27986,1,0,0:0:0:0:
256,192,28163,1,2,0:0:0:0:
256,192,28251,1,0,0:0:0:0:
256,192,28340,1,0,0:0:0:0:
256,192,28428,1,0,0:0:0:0:
256,192,28516,1,2,0:0:0:0:
256,192,28693,1,0,0:0:0:0:
256,192,28781,1,0,0:0:0:0:
256,192,28870,1,2,0:0:0:0:
256,192,29046,1,0,0:0:0:0:
256,192,29223,1,0,0:0:0:0:
256,192,29399,1,2,0:0:0:0:
256,192,29488,1,0,0:0:0:0:
256,192,29576,1,0,0:0:0:0:
256,192,29753,1,4,0:0:0:0:
256,192,30106,1,4,0:0:0:0:
256,192,30459,1,0,0:0:0:0:
256,192,30636,1,0,0:0:0:0:
256,192,30812,1,2,0:0:0:0:
256,192,30989,1,0,0:0:0:0:
256,192,31166,1,4,0:0:0:0:
256,192,31519,1,0,0:0:0:0:
256,192,31696,1,2,0:0:0:0:
256,192,31784,1,2,0:0:0:0:
256,192,31872,1,0,0:0:0:0:
256,192,31961,1,0,0:0:0:0:
256,192,32049,1,0,0:0:0:0:
256,192,32225,1,2,0:0:0:0:
256,192,32314,1,2,0:0:0:0:
256,192,32402,1,0,0:0:0:0:
256,192,32579,1,2,0:0:0:0:
256,192,32755,1,0,0:0:0:0:
256,192,32844,1,0,0:0:0:0:
256,192,32932,1,0,0:0:0:0:
256,192,33109,1,0,0:0:0:0:
256,192,33197,1,0,0:0:0:0:
256,192,33285,1,2,0:0:0:0:
256,192,33462,1,0,0:0:0:0:
256,192,33550,1,0,0:0:0:0:
256,192,33638,1,0,0:0:0:0:
256,192,33815,1,2,0:0:0:0:
256,192,33992,1,0,0:0:0:0:
256,192,34080,1,0,0:0:0:0:
256,192,34168,1,0,0:0:0:0:
256,192,34257,1,0,0:0:0:0:
256,192,34345,1,2,0:0:0:0:
256,192,34522,1,0,0:0:0:0:
256,192,34610,1,0,0:0:0:0:
256,192,34698,1,0,0:0:0:0:
256,192,34787,1,0,0:0:0:0:
256,192,34875,1,2,0:0:0:0:
256,192,35051,1,0,0:0:0:0:
256,192,35228,1,0,0:0:0:0:
256,192,35405,1,4,0:0:0:0:
256,192,35758,1,4,0:0:0:0:
256,192,36111,1,0,0:0:0:0:
256,192,36288,1,0,0:0:0:0:
256,192,36464,1,2,0:0:0:0:
256,192,36641,1,0,0:0:0:0:
256,192,36818,1,4,0:0:0:0:
256,192,36994,1,0,0:0:0:0:
256,192,37083,1,0,0:0:0:0:
256,192,37171,1,2,0:0:0:0:
256,192,37348,1,0,0:0:0:0:
256,192,37524,1,0,0:0:0:0:
256,192,37701,1,0,0:0:0:0:
256,192,37877,1,2,0:0:0:0:
256,192,37966,1,0,0:0:0:0:
256,192,38054,1,0,0:0:0:0:
256,192,38231,1,0,0:0:0:0:
256,192,38407,1,0,0:0:0:0:
256,192,38496,1,0,0:0:0:0:
256,192,38584,1,2,0:0:0:0:
256,192,38761,1,2,0:0:0:0:
256,192,38849,1,0,0:0:0:0:
256,192,38937,1,0,0:0:0:0:
256,192,39114,1,0,0:0:0:0:
256,192,39291,1,2,0:0:0:0:
256,192,39467,1,0,0:0:0:0:
256,192,39555,1,0,0:0:0:0:
256,192,39644,1,2,0:0:0:0:
256,192,39820,1,2,0:0:0:0:
256,192,39909,1,2,0:0:0:0:
256,192,39997,1,0,0:0:0:0:
256,192,40174,1,0,0:0:0:0:
256,192,40262,1,2,0:0:0:0:
256,192,40350,1,2,0:0:0:0:
256,192,40438,1,0,0:0:0:0:
256,192,40527,1,0,0:0:0:0:
256,192,40615,1,2,0:0:0:0:
256,192,40703,1,2,0:0:0:0:
256,192,40792,1,0,0:0:0:0:
256,192,40880,1,0,0:0:0:0:
256,192,40968,1,2,0:0:0:0:
256,192,41057,1,2,0:0:0:0:
256,192,41116,1,0,0:0:0:0:
256,192,41174,1,0,0:0:0:0:
256,192,41233,1,0,0:0:0:0:
256,192,41322,1,2,0:0:0:0:
256,192,41410,1,2,0:0:0:0:
256,192,41469,1,0,0:0:0:0:
256,192,41528,1,0,0:0:0:0:
256,192,41587,1,0,0:0:0:0:
256,192,41675,1,2,0:0:0:0:
256,192,41763,1,2,0:0:0:0:
256,192,41822,1,0,0:0:0:0:
256,192,41881,1,0,0:0:0:0:
256,192,41940,1,0,0:0:0:0:
256,192,42028,1,2,0:0:0:0:
256,192,42116,1,2,0:0:0:0:
256,192,42175,1,0,0:0:0:0:
256,192,42234,1,0,0:0:0:0:
256,192,42293,1,2,0:0:0:0:
256,192,42352,1,0,0:0:0:0:
256,192,42411,1,0,0:0:0:0:
256,192,42470,1,2,0:0:0:0:
256,192,42646,1,0,0:0:0:0:
256,192,42823,1,0,0:0:0:0:
256,192,43000,1,0,0:0:0:0:
256,192,43176,1,2,0:0:0:0:
256,192,43265,1,0,0:0:0:0:
256,192,43353,1,0,0:0:0:0:
256,192,43530,1,2,0:0:0:0:
256,192,43618,1,2,0:0:0:0:
256,192,43706,1,0,0:0:0:0:
256,192,43794,1,0,0:0:0:0:
256,192,43883,1,2,0:0:0:0:
256,192,44059,1,0,0:0:0:0:
256,192,44236,1,0,0:0:0:0:
256,192,44324,1,0,0:0:0:0:
256,192,44413,1,2,0:0:0:0:
256,192,44589,1,2,0:0:0:0:
256,192,44678,1,2,0:0:0:0:
256,192,44766,1,0,0:0:0:0:
256,192,44943,1,2,0:0:0:0:
256,192,45031,1,2,0:0:0:0:
256,192,45119,1,0,0:0:0:0:
256,192,45296,1,0,0:0:0:0:
256,192,45472,1,0,0:0:0:0:
256,192,45649,1,2,0:0:0:0:
256,192,45737,1,0,0:0:0:0:
256,192,45826,1,0,0:0:0:0:
256,192,46002,1,0,0:0:0:0:
256,192,46091,1,0,0:0:0:0:
256,192,46179,1,2,0:0:0:0:
256,192,46267,1,0,0:0:0:0:
256,192,46356,1,0,0:0:0:0:
256,192,46444,1,0,0:0:0:0:
256,192,46532,1,2,0:0:0:0:
256,192,46709,1,4,0:0:0:0:
256,192,47062,1,4,0:0:0:0:
256,192,47415,1,0,0:0:0:0:
256,192,47592,1,0,0:0:0:0:
256,192,47769,1,2,0:0:0:0:
256,192,47945,5,0,0:0:0:0:
256,192,48122,1,4,0:0:0:0:
256,192,48298,1,0,0:0:0:0:
256,192,48828,1,6,0:0:0:0:
256,192,49182,1,6,0:0:0:0:
256,192,49535,1,4,0:0:0:0:
256,192,49711,1,0,0:0:0:0:
256,192,50241,1,6,0:0:0:0:
256,192,50595,1,6,0:0:0:0:
256,192,50771,1,0,0:0:0:0:
256,192,50948,1,4,0:0:0:0:
256,192,51654,1,6,0:0:0:0:
256,192,52008,1,6,0:0:0:0:
256,192,52361,1,4,0:0:0:0:
256,192,52714,1,4,0:0:0:0:
256,192,53067,1,6,0:0:0:0:
256,192,53421,1,6,0:0:0:0:
256,192,53774,1,4,0:0:0:0:
256,192,53951,1,0,0:0:0:0:
256,192,54127,1,0,0:0:0:0:
256,192,54480,1,6,0:0:0:0:
256,192,54834,1,6,0:0:0:0:
256,192,55187,1,4,0:0:0:0:
256,192,55364,1,0,0:0:0:0:
256,192,55540,1,4,0:0:0:0:
256,192,55893,1,6,0:0:0:0:
256,192,56247,1,6,0:0:0:0:
256,192,56423,1,0,0:0:0:0:
256,192,56600,1,4,0:0:0:0:
256,192,56777,1,0,0:0:0:0:
256,192,56953,1,4,0:0:0:0:
256,192,57306,1,6,0:0:0:0:
256,192,57660,1,6,0:0:0:0:
256,192,58013,1,4,0:0:0:0:
256,192,58190,1,0,0:0:0:0:
256,192,58366,1,4,0:0:0:0:
256,192,58719,1,6,0:0:0:0:
256,192,59073,1,6,0:0:0:0:
256,192,59426,5,4,0:0:0:0:
256,192,59603,1,0,0:0:0:0:
256,192,59779,1,2,0:0:0:0:
256,192,59867,1,0,0:0:0:0:
256,192,59956,1,0,0:0:0:0:
256,192,60044,1,0,0:0:0:0:
256,192,60132,1,2,0:0:0:0:
256,192,60309,1,0,0:0:0:0:
256,192,60486,1,2,0:0:0:0:
256,192,60574,1,2,0:0:0:0:
256,192,60662,1,0,0:0:0:0:
256,192,60751,1,0,0:0:0:0:
256,192,60839,1,0,0:0:0:0:
256,192,61016,1,0,0:0:0:0:
256,192,61192,1,2,0:0:0:0:
256,192,61281,1,0,0:0:0:0:
256,192,61369,1,0,0:0:0:0:
256,192,61457,1,0,0:0:0:0:
256,192,61545,1,2,0:0:0:0:
256,192,61722,1,0,0:0:0:0:
256,192,61899,1,2,0:0:0:0:
256,192,61987,1,2,0:0:0:0:
256,192,62075,1,0,0:0:0:0:
256,192,62252,1,6,0:0:0:0:
256,192,62429,1,0,0:0:0:0:
256,192,62605,1,6,0:0:0:0:
256,192,62782,1,2,0:0:0:0:
256,192,62958,1,4,0:0:0:0:
256,192,63135,1,0,0:0:0:0:
256,192,63312,1,6,0:0:0:0:
256,192,63488,1,0,0:0:0:0:
256,192,63665,1,4,0:0:0:0:
256,192,63842,1,2,0:0:0:0:
256,192,64018,1,4,0:0:0:0:
256,192,64195,12,0,68964,0:0:0:0:
256,192,70024,5,2,0:0:0:0:
256,192,70112,1,0,0:0:0:0:
256,192,70200,1,2,0:0:0:0:
256,192,70288,1,0,0:0:0:0:
256,192,70377,1,0,0:0:0:0:
256,192,70465,1,0,0:0:0:0:
256,192,70553,1,2,0:0:0:0:
256,192,70642,1,0,0:0:0:0:
256,192,70730,1,2,0:0:0:0:
256,192,70818,1,0,0:0:0:0:
256,192,70907,1,0,0:0:0:0:
256,192,70995,1,0,0:0:0:0:
256,192,71083,1,2,0:0:0:0:
256,192,71172,1,0,0:0:0:0:
256,192,71260,1,2,0:0:0:0:
256,192,71348,1,0,0:0:0:0:
256,192,71437,1,0,0:0:0:0:
256,192,71525,1,0,0:0:0:0:
256,192,71613,1,2,0:0:0:0:
256,192,71701,1,0,0:0:0:0:
256,192,71790,1,2,0:0:0:0:
256,192,71878,1,0,0:0:0:0:
256,192,71966,1,2,0:0:0:0:
256,192,72055,1,0,0:0:0:0:
256,192,72143,5,0,0:0:0:0:
256,192,72496,1,0,0:0:0:0:
256,192,72850,1,6,0:0:0:0:
256,192,73203,1,6,0:0:0:0:
256,192,73556,1,4,0:0:0:0:
256,192,73733,1,0,0:0:0:0:
256,192,73909,1,4,0:0:0:0:
256,192,74263,1,6,0:0:0:0:
256,192,74616,1,6,0:0:0:0:
256,192,74969,1,4,0:0:0:0:
256,192,75322,1,4,0:0:0:0:
256,192,75676,1,6,0:0:0:0:
256,192,76029,1,6,0:0:0:0:
256,192,76382,1,4,0:0:0:0:
256,192,76559,1,0,0:0:0:0:
256,192,76735,1,0,0:0:0:0:
256,192,77089,1,6,0:0:0:0:
256,192,77442,1,6,0:0:0:0:
256,192,77795,1,4,0:0:0:0:
256,192,78148,1,0,0:0:0:0:
256,192,78502,1,6,0:0:0:0:
256,192,78855,1,6,0:0:0:0:
256,192,79208,1,4,0:0:0:0:
256,192,79561,1,4,0:0:0:0:
256,192,79915,1,6,0:0:0:0:
256,192,80268,1,6,0:0:0:0:
256,192,80621,1,4,0:0:0:0:
256,192,80974,1,0,0:0:0:0:
256,192,81328,1,6,0:0:0:0:
256,192,81681,1,6,0:0:0:0:
256,192,82034,1,4,0:0:0:0:
256,192,82211,1,0,0:0:0:0:
256,192,82387,1,4,0:0:0:0:
256,192,82741,1,6,0:0:0:0:
256,192,83094,1,6,0:0:0:0:
256,192,83447,1,4,0:0:0:0:
256,192,83624,1,0,0:0:0:0:
256,192,83800,1,0,0:0:0:0:
256,192,84154,1,6,0:0:0:0:
256,192,84507,1,6,0:0:0:0:
256,192,84684,1,4,0:0:0:0:
256,192,84860,1,4,0:0:0:0:
256,192,85037,1,0,0:0:0:0:
256,192,85213,1,0,0:0:0:0:
256,192,85302,1,0,0:0:0:0:
256,192,87686,1,4,0:0:0:0:
256,192,88039,1,4,0:0:0:0:
256,192,88393,1,0,0:0:0:0:
256,192,88569,1,0,0:0:0:0:
256,192,88746,1,2,0:0:0:0:
256,192,88923,1,0,0:0:0:0:
256,192,89099,1,4,0:0:0:0:
256,192,89276,1,0,0:0:0:0:
256,192,89452,1,4,0:0:0:0:
256,192,89806,1,6,0:0:0:0:
256,192,90159,1,6,0:0:0:0:
256,192,90512,1,4,0:0:0:0:
256,192,90865,1,4,0:0:0:0:
256,192,91219,1,6,0:0:0:0:
256,192,91572,1,6,0:0:0:0:
256,192,91749,1,0,0:0:0:0:
256,192,91925,1,4,0:0:0:0:
256,192,92102,1,0,0:0:0:0:
256,192,92278,1,0,0:0:0:0:
256,192,92632,1,6,0:0:0:0:
256,192,92985,1,6,0:0:0:0:
256,192,93338,1,4,0:0:0:0:
256,192,93691,1,0,0:0:0:0:
256,192,94045,1,6,0:0:0:0:
256,192,94398,1,6,0:0:0:0:
256,192,94751,1,4,0:0:0:0:
256,192,95104,1,4,0:0:0:0:
256,192,95281,1,0,0:0:0:0:
256,192,95458,1,6,0:0:0:0:
256,192,95811,1,6,0:0:0:0:
256,192,96164,1,4,0:0:0:0:
256,192,96517,1,0,0:0:0:0:
256,192,96871,1,6,0:0:0:0:
256,192,97224,1,6,0:0:0:0:
256,192,97577,1,4,0:0:0:0:
256,192,97754,1,0,0:0:0:0:
256,192,97930,1,0,0:0:0:0:
256,192,98284,1,6,0:0:0:0:
256,192,98637,1,6,0:0:0:0:
256,192,98990,1,4,0:0:0:0:
256,192,99343,1,4,0:0:0:0:
256,192,99697,1,6,0:0:0:0:
256,192,100050,1,6,0:0:0:0:
256,192,100403,1,4,0:0:0:0:
256,192,100580,1,0,0:0:0:0:
256,192,100757,1,0,0:0:0:0:
256,192,101110,1,6,0:0:0:0:
256,192,101463,1,6,0:0:0:0:
256,192,101640,1,0,0:0:0:0:
256,192,101816,1,4,0:0:0:0:
256,192,101993,1,0,0:0:0:0:
256,192,102170,1,0,0:0:0:0:
256,192,103229,1,4,0:0:0:0:
256,192,103406,1,0,0:0:0:0:
256,192,103583,1,0,0:0:0:0:
256,192,104642,1,4,0:0:0:0:
256,192,105349,1,0,0:0:0:0:
256,192,105525,1,0,0:0:0:0:
256,192,105702,1,2,0:0:0:0:
256,192,105879,1,0,0:0:0:0:
256,192,106055,1,6,0:0:0:0:
256,192,106409,1,0,0:0:0:0:
256,192,106585,1,2,0:0:0:0:
256,192,106673,1,2,0:0:0:0:
256,192,106762,1,0,0:0:0:0:
256,192,106938,1,0,0:0:0:0:
256,192,107115,1,0,0:0:0:0:
256,192,107292,1,2,0:0:0:0:
256,192,107380,1,2,0:0:0:0:
256,192,107468,1,0,0:0:0:0:
256,192,107645,1,0,0:0:0:0:
256,192,107822,1,2,0:0:0:0:
256,192,107910,1,2,0:0:0:0:
256,192,107998,1,0,0:0:0:0:
256,192,108087,1,0,0:0:0:0:
256,192,108175,1,0,0:0:0:0:
256,192,108351,1,0,0:0:0:0:
256,192,108440,1,0,0:0:0:0:
256,192,108528,1,2,0:0:0:0:
256,192,108616,1,2,0:0:0:0:
256,192,108705,1,0,0:0:0:0:
256,192,108881,1,6,0:0:0:0:
256,192,109058,1,0,0:0:0:0:
256,192,109235,1,6,0:0:0:0:
256,192,109411,1,0,0:0:0:0:
256,192,109588,1,6,0:0:0:0:
256,192,109764,1,2,0:0:0:0:
256,192,109941,1,4,0:0:0:0:
256,192,110118,1,0,0:0:0:0:
256,192,110294,1,6,0:0:0:0:
256,192,110471,1,0,0:0:0:0:
256,192,110648,1,6,0:0:0:0:
256,192,110824,1,4,0:0:0:0:
256,192,111884,1,2,0:0:0:0:
256,192,112649,1,0,0:0:0:0:
256,192,113179,1,2,0:0:0:0:
256,192,113606,1,0,0:0:0:0:
256,192,113959,1,2,0:0:0:0:
256,192,114224,1,0,0:0:0:0:
256,192,114445,1,0,0:0:0:0:
256,192,114666,1,2,0:0:0:0:
256,192,114842,1,0,0:0:0:0:
256,192,115019,1,0,0:0:0:0:
256,192,115196,1,2,0:0:0:0:
256,192,115328,1,0,0:0:0:0:
256,192,115461,1,0,0:0:0:0:
256,192,115593,1,2,0:0:0:0:
256,192,115726,1,0,0:0:0:0:
256,192,115858,1,0,0:0:0:0:
256,192,115991,1,2,0:0:0:0:
256,192,116123,1,0,0:0:0:0:
256,192,116211,1,0,0:0:0:0:
256,192,116300,1,2,0:0:0:0:
256,192,116388,1,0,0:0:0:0:
256,192,116476,1,0,0:0:0:0:
256,192,116565,1,2,0:0:0:0:
256,192,116653,1,0,0:0:0:0:
256,192,116741,1,0,0:0:0:0:
256,192,116830,1,2,0:0:0:0:
256,192,116918,1,0,0:0:0:0:
256,192,117006,1,0,0:0:0:0:
256,192,117065,1,2,0:0:0:0:
256,192,117124,1,0,0:0:0:0:
256,192,117183,1,0,0:0:0:0:
256,192,117242,1,2,0:0:0:0:
256,192,117301,1,0,0:0:0:0:
256,192,117359,1,0,0:0:0:0:
256,192,117418,1,2,0:0:0:0:
256,192,117477,1,0,0:0:0:0:
256,192,117536,1,0,0:0:0:0:
256,192,117595,1,2,0:0:0:0:
256,192,117654,1,0,0:0:0:0:
256,192,117713,1,0,0:0:0:0:
256,192,117757,1,2,0:0:0:0:
256,192,117801,1,2,0:0:0:0:
256,192,117845,1,0,0:0:0:0:
256,192,117889,1,0,0:0:0:0:
256,192,117933,1,2,0:0:0:0:
256,192,117978,1,2,0:0:0:0:
256,192,118022,1,0,0:0:0:0:
256,192,118066,1,0,0:0:0:0:
256,192,118110,1,2,0:0:0:0:
256,192,118154,1,2,0:0:0:0:
256,192,118198,1,0,0:0:0:0:
256,192,118243,1,0,0:0:0:0:
256,192,118287,1,2,0:0:0:0:
256,192,118331,1,2,0:0:0:0:
256,192,118375,1,0,0:0:0:0:
256,192,118419,1,0,0:0:0:0:
256,192,118478,1,2,0:0:0:0:
256,192,118537,1,0,0:0:0:0:
256,192,118596,1,0,0:0:0:0:
256,192,118655,1,2,0:0:0:0:
256,192,118714,1,0,0:0:0:0:
256,192,118772,1,2,0:0:0:0:
256,192,118861,1,0,0:0:0:0:
256,192,118949,1,2,0:0:0:0:
256,192,119037,1,0,0:0:0:0:
256,192,119126,1,2,0:0:0:0:
256,192,119214,1,0,0:0:0:0:
256,192,119302,1,2,0:0:0:0:
256,192,119391,1,0,0:0:0:0:
256,192,119479,1,2,0:0:0:0:
256,192,119597,1,0,0:0:0:0:
256,192,119714,1,0,0:0:0:0:
256,192,119832,1,2,0:0:0:0:
256,192,119950,1,0,0:0:0:0:
256,192,120068,1,0,0:0:0:0:
256,192,120185,1,2,0:0:0:0:
256,192,120303,1,0,0:0:0:0:
256,192,120421,1,0,0:0:0:0:
256,192,120539,1,2,0:0:0:0:
256,192,120715,1,0,0:0:0:0:
256,192,120892,1,2,0:0:0:0:
256,192,121069,1,0,0:0:0:0:
256,192,121245,1,0,0:0:0:0:
256,192,121481,1,2,0:0:0:0:
256,192,122393,1,4,0:0:0:0:
