osu file format v14

[General]
AudioFilename: audio.mp3
AudioLeadIn: 0
PreviewTime: 54603
Countdown: 1
SampleSet: Soft
StackLeniency: 0.7
Mode: 0
LetterboxInBreaks: 0
WidescreenStoryboard: 1

[Editor]
DistanceSpacing: 1
BeatDivisor: 4
GridSize: 16
TimelineZoom: 1

[Metadata]
Title:Show Me
TitleUnicode:Show Me
Artist:Trey Frey
ArtistUnicode:Trey Frey
Creator:Fluxbury
Version:Easy
Source:
Tags:reclusivelemming comments xm module mod tracker trey frey show me electro dance
BeatmapID:1569994
BeatmapSetID:744592

[Difficulty]
HPDrainRate:4
CircleSize:4
OverallDifficulty:3
ApproachRate:5
SliderMultiplier:1.4
SliderTickRate:2

[Events]
//Background and Video events
0,0,"maxresdefault.jpg",0,0
//Break Periods
2,54803,57039
//Storyboard Layer 0 (Background)
//Storyboard Layer 1 (Fail)
//Storyboard Layer 2 (Pass)
//Storyboard Layer 3 (Foreground)
//Storyboard Sound Samples

[TimingPoints]
57.7575331406254,454.546594455385,4,2,0,42,1,0
29148,-142.857142857143,4,2,0,42,0,0
87330,-100,4,2,0,42,0,0

[Colours]
Combo1 : 255,192,0
Combo2 : 255,255,128
Combo3 : 128,0,255
Combo4 : 255,0,128

[HitObjects]
112,64,14603,5,0,0:0:0:0:
80,192,15285,1,0,0:0:0:0:
192,128,15966,1,0,0:0:0:0:
160,256,17103,6,0,L|208:320,1,70
368,208,17785,1,0,0:0:0:0:
400,64,18239,5,0,0:0:0:0:
432,192,18921,1,0,0:0:0:0:
320,128,19602,1,0,0:0:0:0:
352,256,20739,6,0,L|304:320,1,70
144,208,21421,1,0,0:0:0:0:
80,128,21875,6,0,P|152:106|217:132,1,140
210,126,22557,1,0,0:0:0:0:
432,128,23239,2,0,P|360:106|295:132,1,140
192,288,24376,6,0,P|256:256|320:288,1,140
314,281,25057,1,0,0:0:0:0:
234,107,25512,1,0,0:0:0:0:
339,215,26194,1,0,0:0:0:0:
193,252,26876,1,0,0:0:0:0:
256,96,29148,5,0,0:0:0:0:
144,144,29603,2,0,L|192:192,1,48.9999985046387
178,178,30057,1,0,0:0:0:0:
256,224,30512,5,0,0:0:0:0:
368,144,30966,2,0,L|320:192,1,48.9999985046387
333,178,31420,1,0,0:0:0:0:
256,224,31876,6,0,L|256:128,2,73.4999977569581
256,304,32785,5,0,0:0:0:0:
154,212,33239,2,0,L|176:256,1,48.9999985046387
176,256,33694,1,0,0:0:0:0:
256,176,34148,1,0,0:0:0:0:
357,212,34603,2,0,L|336:256,1,48.9999985046387
336,256,35057,1,0,0:0:0:0:
256,208,35512,2,0,B|223:171|223:171|257:132,1,97.9999970092774
192,80,36194,1,0,0:0:0:0:
96,112,36421,6,0,B|96:147|117:157|137:167|141:214,1,97.9999970092774
208,256,37103,1,0,0:0:0:0:
256,192,37330,1,0,0:0:0:0:
416,112,37785,6,0,B|416:147|395:157|375:167|371:214,1,97.9999970092774
304,256,38467,1,0,0:0:0:0:
256,192,38694,1,0,0:0:0:0:
192,128,39148,6,0,B|258:102|258:102|297:119,1,97.9999970092774
320,128,39831,1,0,0:0:0:0:
320,128,40057,5,0,0:0:0:0:
185,247,40739,2,0,B|255:216|255:216|323:251,1,146.999995513916
256,144,41876,5,0,0:0:0:0:
256,144,42557,1,0,0:0:0:0:
304,80,42785,2,0,B|259:61|259:61|230:73,2,73.4999977569581
368,112,43694,6,0,L|368:272,2,146.999995513916
256,160,45512,1,0,0:0:0:0:
256,160,45966,1,0,0:0:0:0:
256,160,46421,2,0,L|256:256,1,73.4999977569581
208,304,47103,1,0,0:0:0:0:
144,272,47330,6,0,L|144:112,2,146.999995513916
256,224,49148,1,0,0:0:0:0:
256,224,49602,1,0,0:0:0:0:
256,224,50057,2,0,L|256:128,1,73.4999977569581
256,144,50739,1,0,0:0:0:0:
256,192,50966,12,0,54603,0:0:0:0:
256,192,58239,5,0,0:0:0:0:
192,80,58694,2,0,L|240:96,1,48.9999985046387
301,109,59148,2,0,B|328:120|328:120|330:159|367:189,1,97.9999970092774
400,240,59830,1,0,0:0:0:0:
352,176,60057,6,0,B|321:215|321:215|333:235|333:235|328:264|290:285|290:285,1,122.499996261597
212,255,60967,2,0,P|185:218|207:182,1,73.4999977569581
256,144,61648,1,0,0:0:0:0:
306,83,61876,6,0,L|242:32,2,73.4999977569581
211,109,62785,2,0,B|184:120|184:120|182:159|145:189,1,97.9999970092774
112,240,63467,1,0,0:0:0:0:
160,304,63694,6,0,B|178:277|178:277|200:278|200:278|223:249,2,73.4999977569581
160,304,64603,1,0,0:0:0:0:
306,234,65057,2,0,B|284:216|284:216|305:201,1,48.9999985046387
396,193,65512,6,0,P|376:161|306:131,1,97.9999970092774
272,73,66421,2,0,B|256:98|256:98|219:79|171:92,1,97.9999970092774
160,144,67103,1,0,0:0:0:0:
208,192,67330,6,0,B|233:209|233:209|223:236|232:263|244:282|256:288|288:288,1,146.999995513916
192,336,68239,2,0,L|141:352,1,48.9999985046387
112,288,68694,2,0,L|70:250,1,48.9999985046387
116,193,69148,6,0,P|136:161|206:131,1,97.9999970092774
240,73,70057,2,0,B|256:98|256:98|293:79|341:92,1,97.9999970092774
368,144,70739,1,0,0:0:0:0:
398,220,70967,6,0,B|399:255|375:274|378:314,2,73.4999977569581
320,240,71876,1,0,0:0:0:0:
320,240,72103,2,0,P|288:224|240:224,1,73.4999977569581
384,64,72785,6,0,B|376:114|376:114|346:102,1,73.4999977569581
256,64,73467,1,0,0:0:0:0:
256,192,73807,1,0,0:0:0:0:
384,192,74148,2,0,L|384:240,1,48.9999985046387
318,317,74603,6,0,B|305:291|305:291|280:306|247:295,1,73.4999977569581
96,248,75285,2,0,B|111:268|111:268|131:211,1,73.4999977569581
48,144,75967,2,0,L|2:116,1,48.9999985046387
128,64,76421,6,0,B|136:114|136:114|166:102,1,73.4999977569581
256,64,77103,1,0,0:0:0:0:
224,160,77330,1,0,0:0:0:0:
224,160,77557,1,0,0:0:0:0:
224,160,77785,2,0,L|224:224,1,48.9999985046387
112,288,78239,6,0,L|192:320,1,73.4999977569581
256,320,78921,2,0,L|256:240,2,73.4999977569581
256,320,79830,1,0,0:0:0:0:
384,304,80057,6,0,P|359:261|375:210,1,97.9999970092774
369,216,80739,1,0,0:0:0:0:
369,216,80967,2,0,P|384:144|368:112,1,97.9999970092774
375,123,81648,1,0,0:0:0:0:
384,128,81876,6,0,P|321:109|282:127,1,97.9999970092774
128,128,82785,2,0,P|191:109|230:127,1,97.9999970092774
256,192,83467,1,0,0:0:0:0:
256,272,83694,2,0,L|256:352,4,73.4999977569581
256,192,85512,2,0,L|256:112,2,73.4999977569581
96,96,87330,6,0,B|137:75|186:109|212:155,1,140
298,64,88239,2,0,L|371:191,1,140
415,330,89148,6,0,B|401:292|401:292|388:328|314:253,1,140
214,320,90057,2,0,L|141:193,1,140
170,70,90967,6,0,B|193:104|193:104|223:68|258:65|293:81,1,140
406,102,91876,2,0,L|390:147,4,35
342,314,92785,6,0,B|319:280|319:280|289:316|254:319|219:303,1,140
161,261,93694,2,0,B|133:241|133:224|228:188|229:164|177:124|170:76,1,210
170,79,94603,6,0,P|227:103|273:112,2,105
115,128,95512,2,0,B|117:172|149:205|226:243,1,140
246,313,96421,6,0,B|272:285|272:286|306:292|306:292|330:325,1,105
384,256,97103,2,0,P|416:224|384:128,1,140
399,138,97785,1,0,0:0:0:0:
300,87,98239,6,0,B|268:121|238:124|199:68,1,105
214,216,98921,2,0,B|240:176|270:179|302:213,1,105
256,288,99603,2,0,L|256:336,2,35
160,272,100058,6,0,L|112:160,1,105
352,272,100739,2,0,B|387:168|387:168|371:134,1,140
320,80,101421,1,0,0:0:0:0:
256,128,101876,6,0,B|194:139|175:191|128:216|63:208,1,210
192,336,103012,2,0,B|214:306|214:306|260:335|299:291|330:271,1,140
416,320,103694,6,0,B|433:290|433:290|412:260|412:260|437:222|437:222|384:220|330:167,1,210
367,45,104830,2,0,B|356:80|356:80|313:65|275:103|293:141,1,140
215,172,105512,6,0,P|171:176|116:127,2,105
336,192,106421,2,0,L|320:272,3,70
278,322,107330,6,0,P|235:319|182:269,2,105
131,210,108694,2,0,P|146:168|191:150,1,70
256,128,109148,6,0,B|318:139|337:191|384:216|449:208,1,210
320,336,110284,2,0,B|298:306|298:306|252:335|213:291|182:271,1,140
96,320,110966,6,0,B|79:290|79:290|100:260|100:260|75:222|75:222|128:220|182:167,1,210
145,45,112102,2,0,B|156:80|156:80|199:65|237:103|219:141,1,140
368,16,112785,5,0,0:0:0:0:
430,111,113126,2,0,P|388:112|365:180,1,105
256,192,113808,5,0,0:0:0:0:
256,336,114148,2,0,L|256:256,1,70
256,192,114603,6,0,L|256:80,2,105
256,192,116421,12,0,118239,0:0:0:0:
