osu file format v14

[General]
AudioFilename: audio.mp3
AudioLeadIn: 0
PreviewTime: 42165
Countdown: 0
SampleSet: Soft
StackLeniency: 0.6
Mode: 0
LetterboxInBreaks: 0
WidescreenStoryboard: 1

[Editor]
DistanceSpacing: 1
BeatDivisor: 4
GridSize: 4
TimelineZoom: 4.699998

[Metadata]
Title:::vexations
TitleUnicode:::vexations
Artist:Trerey-U
ArtistUnicode:Trerey-U
Creator:Seiioh
Version:::insane
Source:
Tags:Formless​:​: nankasuisui uytrere ambient instrumental electronic electronica
BeatmapID:3207049
BeatmapSetID:1570531

[Difficulty]
HPDrainRate:5.4
CircleSize:4
OverallDifficulty:7.5
ApproachRate:9
SliderMultiplier:1.4
SliderTickRate:1

[Events]
//Background and Video events
0,0,"67341258_p0.jpg",0,0
//Break Periods
2,61758,70655
2,81152,86413
//Storyboard Layer 0 (Background)
//Storyboard Layer 1 (Fail)
//Storyboard Layer 2 (Pass)
//Storyboard Layer 3 (Foreground)
//Storyboard Layer 4 (Overlay)
//Storyboard Sound Samples

[TimingPoints]
44,303.030303030303,4,2,10,45,1,0
10953,-100,4,2,10,70,0,0
14437,-166.666666666667,4,2,10,70,0,0
15195,-100,4,2,10,70,0,0
18528,-100,4,2,10,55,0,0
23074,-100,4,2,10,70,0,0
26862,-166.666666666667,4,2,10,70,0,0
27619,-100,4,2,10,70,0,0
31862,-100,4,2,10,55,0,0
34488,-100,4,2,10,5,0,0
34589,-100,4,2,10,55,0,0
39437,-100,4,2,10,60,0,0
40801,-100,4,2,10,65,0,0
41256,-71.4285714285714,4,2,10,65,0,0
41483,-71.4285714285714,4,2,10,5,0,0
41559,-71.4285714285714,4,2,10,65,0,0
42165,303.030303030303,4,2,10,80,1,1
42165,-62.5,4,2,10,80,0,1
42392,-62.5,4,2,10,5,0,1
42468,-62.5,4,2,10,75,0,1
42771,-62.5,4,2,10,75,0,0
42922,-62.5,4,2,10,75,0,1
43377,-62.5,4,2,10,75,0,0
43680,-62.5,4,2,10,75,0,1
44589,-62.5,4,2,10,75,0,0
44892,-62.5,4,2,10,75,0,1
50119,-62.5,4,2,10,75,0,0
50346,-62.5,4,2,10,75,0,1
56861,-62.5,4,2,10,75,0,0
57165,-62.5,4,2,10,75,0,1
61558,-62.5,4,2,10,45,0,0
71255,-250,4,2,10,45,0,0
73680,-200,4,2,10,45,0,0
76104,-166.666666666667,4,2,10,45,0,0
87013,-71.4285714285714,4,2,10,75,0,0
87240,-71.4285714285714,4,2,10,5,0,0
87316,-71.4285714285714,4,2,10,75,0,0
87543,-71.4285714285714,4,2,10,5,0,0
87619,-71.4285714285714,4,2,10,75,0,0
88452,-71.4285714285714,4,2,10,5,0,0
88528,-71.4285714285714,4,2,10,75,0,0
89664,-71.4285714285714,4,2,10,5,0,0
89740,-71.4285714285714,4,2,10,75,0,0
89967,-71.4285714285714,4,2,10,5,0,0
90043,-71.4285714285714,4,2,10,75,0,0
90270,-71.4285714285714,4,2,10,5,0,0
90346,-71.4285714285714,4,2,10,75,0,0
90573,-71.4285714285714,4,2,10,5,0,0
90649,-71.4285714285714,4,2,10,75,0,0
91027,-71.4285714285714,4,2,10,5,0,0
91104,-71.4285714285714,4,2,10,75,0,0
92088,-71.4285714285714,4,2,10,5,0,0
92165,-71.4285714285714,4,2,10,75,0,0
92392,-71.4285714285714,4,2,10,5,0,0
92468,-71.4285714285714,4,2,10,75,0,0
93301,-71.4285714285714,4,2,10,5,0,0
93377,-71.4285714285714,4,2,10,75,0,0
94513,-71.4285714285714,4,2,10,5,0,0
94589,-71.4285714285714,4,2,10,75,0,0
94816,-71.4285714285714,4,2,10,5,0,0
94892,-71.4285714285714,4,2,10,75,0,0
96634,-71.4285714285714,4,2,10,5,0,0
96710,-71.4285714285714,4,2,10,75,0,0
96937,-71.4285714285714,4,2,10,5,0,0
97013,-71.4285714285714,4,2,10,75,0,0
98149,-71.4285714285714,4,2,10,5,0,0
98225,-71.4285714285714,4,2,10,75,0,0
99361,-71.4285714285714,4,2,10,5,0,0
99437,-71.4285714285714,4,2,10,75,0,0
100573,-71.4285714285714,4,2,10,5,0,0
100649,-71.4285714285714,4,2,10,75,0,0
101785,-71.4285714285714,4,2,10,5,0,0
101861,-71.4285714285714,4,2,10,75,0,0
102998,-71.4285714285714,4,2,10,5,0,0
103074,-71.4285714285714,4,2,10,75,0,0
104210,-71.4285714285714,4,2,10,5,0,0
104286,-71.4285714285714,4,2,10,75,0,0
104513,-71.4285714285714,4,2,10,5,0,0
104589,-71.4285714285714,4,2,10,75,0,0
106407,-500,4,2,10,45,0,0

[Colours]
Combo1 : 63,137,182
Combo2 : 212,212,212
Combo3 : 168,168,168
Combo4 : 202,232,255
Combo5 : 120,170,220
Combo6 : 139,187,216

[HitObjects]
64,36,10953,6,0,L|81:174,1,140,12|0,1:2|1:0,0:0:0:0:
68,272,11407,1,2,0:0:0:0:
68,272,11483,1,2,0:0:0:0:
68,272,11559,2,0,B|131:279|136:236|202:244,1,140,0|2,1:0|1:0,0:0:0:0:
288,292,12013,1,2,0:0:0:0:
256,372,12165,2,0,P|226:353|208:323,1,70,8|0,1:0|0:0,0:0:0:0:
202,244,12468,2,0,L|206:209,3,35,0|2|2|2,1:0|1:0|1:2|1:2,0:0:0:0:
228,176,12771,2,0,L|219:106,1,70,2|2,1:2|0:0,0:0:0:0:
208,88,12998,1,2,0:0:0:0:
208,88,13074,5,0,1:0:0:0:
300,32,13225,1,2,0:0:0:0:
312,36,13301,1,2,0:0:0:0:
328,60,13377,6,0,L|362:56,3,35,0|0|0|0,1:0|0:0|0:0|0:0,0:0:0:0:
436,52,13680,2,0,L|470:48,3,35,2|2|2|2,1:0|0:0|0:0|0:0,0:0:0:0:
512,108,13983,5,0,0:0:0:0:
425,145,14134,1,2,0:0:0:0:
416,140,14210,1,2,0:0:0:0:
408,136,14286,1,2,1:0:0:0:
321,173,14437,2,0,L|336:208,1,20.9999993591309
357,260,14589,5,2,1:0:0:0:
444,224,14740,1,0,0:0:0:0:
505,295,14892,1,0,1:0:0:0:
456,374,15044,1,2,0:0:0:0:
448,368,15119,1,2,0:0:0:0:
440,360,15195,2,0,P|406:349|372:349,1,70,2|0,1:0|1:0,0:0:0:0:
336,340,15422,1,0,1:0:0:0:
336,340,15498,2,0,P|308:361|276:374,1,70,0|0,1:0|0:0,0:0:0:0:
188,368,15801,6,0,L|118:358,2,70,0|2|0,1:0|0:0|1:0,0:0:0:0:
232,304,16256,1,2,0:0:0:0:
228,292,16331,1,2,0:0:0:0:
224,280,16407,5,0,1:0:0:0:
228,248,16483,1,0,0:0:0:0:
232,208,16559,1,0,1:0:0:0:
236,168,16634,1,0,1:0:0:0:
240,128,16710,6,0,L|221:60,1,70,0|0,1:0|0:0,0:0:0:0:
192,40,16937,1,0,0:0:0:0:
192,40,17013,2,0,L|182:6,4,35,2|0|0|0|0,1:0|0:0|0:0|0:0|0:0,0:0:0:0:
156,112,17468,1,2,0:0:0:0:
88,96,17619,1,0,1:0:0:0:
88,96,17695,1,0,1:0:0:0:
88,96,17771,1,0,1:0:0:0:
32,144,17922,2,0,L|60:246,1,105,2|2,2:0|2:0,0:0:0:0:
88,256,18225,6,0,L|78:289,4,35,2|2|2|2|0,1:0|0:1|0:1|0:1|1:0,0:0:0:0:
0,384,18831,6,0,P|47:362|99:363,1,105,2|0,1:0|0:0,0:0:0:0:
120,344,19134,2,0,L|154:349,1,35,2|2,1:0|0:0,0:0:0:0:
232,384,19362,5,0,0:0:0:0:
232,384,19437,2,0,L|336:374,1,105,2|2,1:0|0:0,0:0:0:0:
356,352,19740,2,0,L|390:354,3,35,2|2|2|2,1:0|0:0|0:0|0:0,0:0:0:0:
456,320,20043,2,0,L|490:322,3,35,2|2|2|2,1:0|0:0|0:0|0:0,0:0:0:0:
404,264,20347,2,0,L|407:194,1,70,2|2,1:0|0:0,0:0:0:0:
468,108,20650,5,2,1:0:0:0:
420,40,20801,1,2,0:0:0:0:
420,40,20877,1,2,0:0:0:0:
420,39,20953,2,0,P|395:64|385:97,1,70,2|2,1:0|0:0,0:0:0:0:
332,156,21256,5,2,1:0:0:0:
308,116,21331,1,0,0:0:0:0:
272,104,21407,2,0,L|237:100,2,35,2|2|2,0:0|0:0|1:0,0:0:0:0:
212,32,21710,2,0,L|183:51,2,35,2|2|2,0:0|0:0|1:0,0:0:0:0:
119,15,22013,2,0,L|109:48,2,35,2|2|2,0:0|0:0|1:0,0:0:0:0:
36,61,22316,2,0,L|50:92,2,35,2|2|2,0:0|0:0|1:0,0:0:0:0:
1,149,22619,2,0,L|32:163,2,35,2|2|2,0:0|0:0|1:0,0:0:0:0:
30,238,22922,2,0,L|63:229,1,35,2|2,0:0|0:0,0:0:0:0:
78,206,23074,2,0,P|101:232|108:266,1,70,2|0,1:0|0:0,0:0:0:0:
62,346,23377,6,0,L|79:208,1,140,12|0,1:2|1:0,0:0:0:0:
66,110,23831,1,2,0:0:0:0:
66,110,23907,1,2,0:0:0:0:
66,110,23983,2,0,B|129:103|134:146|200:138,1,140,0|2,1:0|1:0,0:0:0:0:
286,90,24437,1,2,0:0:0:0:
254,10,24589,2,0,P|224:29|206:59,1,70,8|0,1:0|0:0,0:0:0:0:
200,138,24892,2,0,L|204:173,3,35,0|2|2|2,1:0|1:0|1:2|1:2,0:0:0:0:
226,206,25195,2,0,L|217:276,1,70,2|2,1:2|0:0,0:0:0:0:
200,304,25422,1,2,0:0:0:0:
200,304,25498,5,0,1:0:0:0:
298,350,25649,1,0,0:0:0:0:
310,346,25725,1,2,0:0:0:0:
326,322,25801,6,0,L|360:326,3,35,0|0|0|0,1:0|0:0|0:0|0:0,0:0:0:0:
434,330,26104,2,0,L|468:334,3,35,2|2|2|2,1:0|0:0|0:0|0:0,0:0:0:0:
510,274,26407,5,0,0:0:0:0:
423,237,26558,1,2,0:0:0:0:
414,242,26634,1,2,0:0:0:0:
406,246,26710,1,2,1:0:0:0:
319,209,26862,2,0,L|326:189,1,20.9999993591309,2|2,0:0|0:0,0:0:0:0:
355,122,27013,5,2,1:0:0:0:
442,158,27164,1,0,0:0:0:0:
503,87,27316,1,2,1:2:0:0:
454,8,27468,1,2,0:0:0:0:
446,14,27543,1,2,0:0:0:0:
438,22,27619,2,0,P|404:33|370:33,1,70,2|2,1:0|0:0,0:0:0:0:
334,42,27846,1,2,0:0:0:0:
334,42,27922,2,0,P|306:21|274:8,1,70,0|0,1:0|0:0,0:0:0:0:
186,14,28225,6,0,L|116:24,2,70,0|2|2,1:0|0:0|1:2,0:0:0:0:
230,78,28680,1,2,0:0:0:0:
226,90,28755,1,2,0:0:0:0:
222,102,28831,5,0,1:0:0:0:
226,134,28907,1,2,0:0:0:0:
230,174,28983,1,0,1:0:0:0:
234,214,29058,1,0,1:0:0:0:
238,254,29134,6,0,L|219:322,1,70,0|0,1:0|0:0,0:0:0:0:
190,342,29361,1,2,0:0:0:0:
190,342,29437,2,0,L|180:376,4,35,0|0|0|0|2,1:0|0:0|0:0|0:0|1:2,0:0:0:0:
154,270,29892,1,2,0:0:0:0:
86,286,30043,1,0,1:0:0:0:
86,286,30119,1,0,1:0:0:0:
86,286,30195,1,0,1:0:0:0:
24,232,30346,2,0,L|52:130,1,105,2|2,1:0|0:0,0:0:0:0:
80,120,30650,2,0,L|98:52,1,70,2|0,1:2|0:0,0:0:0:0:
172,8,30953,5,2,1:0:0:0:
188,12,31028,1,2,0:1:0:0:
205,17,31104,1,2,0:1:0:0:
222,21,31180,1,2,0:1:0:0:
240,40,31256,5,2,1:0:0:0:
256,44,31331,1,2,0:1:0:0:
273,49,31407,1,2,0:1:0:0:
290,53,31483,1,2,0:1:0:0:
332,48,31559,5,4,1:2:0:0:
512,0,31862,6,0,P|477:59|480:128,1,140,0|0,1:0|1:0,0:0:0:0:
412,168,32316,1,0,0:0:0:0:
412,168,32468,2,0,P|427:179|452:224,1,70,0|0,1:0|0:0,0:0:0:0:
512,296,32771,6,0,L|477:291,1,35,0|0,1:0|0:0,0:0:0:0:
456,316,32922,2,0,L|432:290,1,35,2|0,0:0|0:0,0:0:0:0:
400,295,33074,2,0,L|398:260,1,35,0|0,1:0|0:0,0:0:0:0:
370,242,33225,2,0,L|391:214,1,35,2|0,0:0|0:0,0:0:0:0:
381,182,33377,5,0,1:0:0:0:
238,254,33528,1,0,0:0:0:0:
238,254,33604,1,2,0:0:0:0:
238,254,33680,2,0,L|166:262,1,70,0|0,1:0|0:0,0:0:0:0:
88,336,33983,6,0,L|41:330,2,46.6666666666667,2|2|2,1:2|0:0|0:0,0:0:0:0:
184,384,34286,6,0,B|189:325|145:321|151:249,1,140,2|2,1:2|1:0,0:0:0:0:
151,251,34892,2,0,P|165:219|164:184,1,70,0|0,1:0|0:0,0:0:0:0:
88,204,35195,5,0,1:0:0:0:
168,261,35347,1,2,0:0:0:0:
168,261,35422,1,0,0:0:0:0:
168,261,35498,2,0,L|237:253,1,70,2|0,1:0|0:0,0:0:0:0:
304,292,35801,1,0,1:0:0:0:
364,240,35953,1,2,0:0:0:0:
416,180,36104,2,0,P|436:207|442:241,1,70,8|2,1:2|0:0,0:0:0:0:
484,332,36407,6,0,P|489:297|510:270,1,70,0|2,1:0|0:0,0:0:0:0:
442,241,36710,1,0,1:0:0:0:
488,180,36862,1,0,0:0:0:0:
452,116,37013,2,0,L|444:46,1,70,0|2,1:0|0:0,0:0:0:0:
368,76,37316,5,0,1:0:0:0:
369,93,37391,1,0,0:0:0:0:
371,110,37467,1,0,0:0:0:0:
376,232,37619,6,0,P|363:220|356:204,2,35,2|2|2,1:0|0:0|0:0,0:0:0:0:
368,308,37922,2,0,P|355:319|348:335,2,35,2|2|2,1:0|0:0|0:0,0:0:0:0:
350,238,38225,6,0,P|333:237|317:229,2,35,2|2|2,1:0|0:0|0:0,0:0:0:0:
393,301,38528,2,0,P|390:318|396:335,2,35,2|2|2,1:0|0:0|0:0,0:0:0:0:
335,259,38831,6,0,P|321:270|304:274,2,35,2|2|2,1:0|0:0|0:0,0:0:0:0:
408,280,39134,2,0,P|417:295|432:304,2,35,2|2|2,1:0|0:0|0:0,0:0:0:0:
396,196,39437,5,2,1:2:0:0:
400,176,39513,1,2,0:0:0:0:
404,156,39589,1,2,0:0:0:0:
464,104,39740,5,2,1:0:0:0:
451,71,39815,1,2,0:0:0:0:
423,50,39891,1,2,0:0:0:0:
389,45,39967,1,2,0:0:0:0:
357,59,40043,1,2,1:0:0:0:
312,128,40195,1,2,0:0:0:0:
232,136,40347,5,2,1:0:0:0:
172,84,40498,1,2,0:0:0:0:
160,80,40574,1,2,0:0:0:0:
148,76,40650,1,2,1:0:0:0:
76,104,40801,2,0,L|6:115,2,70,12|0|2,0:3|1:0|0:0,0:0:0:0:
88,24,41256,6,0,B|106:129|177:116|189:185,1,195.999994018555,12|12,1:3|1:3,0:0:0:0:
112,200,41710,1,0,0:0:0:0:
40,155,41862,2,0,P|55:136|75:123,3,48.9999985046387,2|2|2|2,1:2|1:2|1:2|1:2,0:0:0:0:
128,64,42165,6,0,B|212:76|212:76|212:80|212:80|290:90,1,168,12|0,0:3|0:0,0:0:0:0:
368,72,42468,6,0,L|362:127,1,56,2|0,1:0|0:0,0:0:0:0:
436,136,42619,2,0,L|441:80,1,56,10|0,0:0|0:0,0:0:0:0:
356,56,42771,1,0,1:0:0:0:
232,136,42922,5,2,0:0:0:0:
224,162,42997,1,2,0:0:0:0:
225,190,43073,1,2,1:2:0:0:
233,217,43149,1,2,0:0:0:0:
248,240,43225,1,2,0:0:0:0:
270,258,43300,1,2,0:0:0:0:
295,269,43377,2,0,B|352:284|368:226|457:250,1,168,2|0,1:0|0:0,0:0:0:0:
512,312,43680,5,2,1:2:0:0:
512,312,43755,1,0,0:0:0:0:
511,312,43831,2,0,P|485:323|465:342,1,56,2|0,0:0|0:0,0:0:0:0:
404,384,43983,5,2,1:0:0:0:
404,384,44058,1,2,0:0:0:0:
403,383,44134,2,0,P|380:366|353:358,1,56,2|0,0:0|0:0,0:0:0:0:
296,312,44286,5,2,1:0:0:0:
296,312,44361,1,2,0:0:0:0:
295,313,44437,2,0,P|272:329|245:337,1,56,2|0,0:0|0:0,0:0:0:0:
192,384,44589,6,0,B|176:376|176:376|82:362,1,112,4|0,1:0|0:0,0:0:0:0:
12,300,44892,1,0,1:0:0:0:
33,282,44967,1,2,0:0:0:0:
59,271,45043,1,2,0:0:0:0:
86,269,45119,1,2,0:0:0:0:
114,275,45195,2,0,P|137:289|165:292,3,56,2|2|2|2,1:2|0:0|0:0|0:0,0:0:0:0:
156,216,45498,2,0,P|180:202|196:180,3,56,2|2|2|2,1:2|0:0|0:0|0:0,0:0:0:0:
128,144,45801,6,0,L|116:32,1,112,4|0,1:3|0:0,0:0:0:0:
0,104,46104,1,2,1:2:0:0:
80,204,46255,2,0,P|103:218|131:221,3,56,2|2|2|2,0:0|0:0|1:0|0:0,0:0:0:0:
156,235,46558,5,2,0:0:0:0:
182,209,46633,1,2,0:0:0:0:
213,189,46709,1,2,1:2:0:0:
248,175,46785,1,2,0:0:0:0:
284,169,46861,1,2,0:0:0:0:
322,170,46936,1,2,0:0:0:0:
358,178,47013,6,0,L|367:290,1,112,2|0,1:0|0:0,0:0:0:0:
312,336,47240,2,0,P|358:363|411:348,1,112,0|2,0:0|0:0,0:0:0:0:
444,284,47468,2,0,L|430:116,1,168,6|0,0:3|0:0,0:0:0:0:
504,88,47771,2,0,L|508:143,2,56,2|2|2,1:2|1:2|1:2,0:0:0:0:
384,24,48074,5,2,0:1:0:0:
372,20,48149,1,2,0:0:0:0:
360,16,48225,1,4,0:3:0:0:
328,12,48301,1,2,0:0:0:0:
284,40,48377,1,2,0:0:0:0:
268,92,48453,1,2,0:0:0:0:
231,113,48529,1,2,1:2:0:0:
211,117,48605,1,2,0:0:0:0:
195,110,48680,6,0,B|156:80|156:80|94:90,1,112,2|2,0:0|1:2,0:0:0:0:
64,184,48983,1,2,0:0:0:0:
144,244,49134,1,2,1:2:0:0:
156,240,49210,1,2,1:2:0:0:
168,236,49286,1,2,1:2:0:0:
180,232,49361,1,2,1:2:0:0:
192,228,49437,6,0,P|216:240|233:262,3,56,10|0|2|2,0:0|0:0|0:0|0:0,0:0:0:0:
304,284,49740,2,0,P|305:311|294:337,3,56,2|0|2|0,1:2|0:0|0:0|0:0,0:0:0:0:
356,384,50043,2,0,B|400:352|400:352|404:352|404:352|448:322,1,112,2|0,1:0|0:0,0:0:0:0:
512,276,50346,5,2,1:0:0:0:
488,251,50422,1,2,0:0:0:0:
478,218,50498,1,2,0:0:0:0:
478,184,50574,1,2,0:0:0:0:
487,151,50649,6,0,P|500:127|503:99,3,56,4|0|2|0,1:3|0:0|0:0|0:0,0:0:0:0:
432,76,50952,2,0,P|418:100|415:128,3,56,2|2|2|2,1:2|0:0|0:0|0:0,0:0:0:0:
360,180,51255,2,0,B|374:203|374:203|397:220,3,56,2|2|2|2,1:0|0:0|0:0|0:0,0:0:0:0:
427,291,51558,2,0,B|375:301|375:301|372:299|372:299|372:304|372:304|332:335,1,112,4|0,1:3|0:0,0:0:0:0:
276,384,51786,5,2,0:0:0:0:
276,384,51861,2,0,B|204:373|204:373|196:376|196:376|110:364,1,168,2|2,1:2|0:0,0:0:0:0:
36,384,52165,2,0,B|32:344|52:316|52:316|48:276,1,112,10|2,1:2|0:0,0:0:0:0:
156,235,52468,1,2,1:0:0:0:
141,124,52619,1,2,1:2:0:0:
36,86,52771,5,2,1:2:0:0:
37,72,52846,1,2,1:2:0:0:
38,58,52922,1,2,1:2:0:0:
39,44,52998,1,2,1:2:0:0:
16,12,53074,6,0,L|71:19,3,56,2|2|2|2,1:0|0:0|0:0|0:0,0:0:0:0:
140,0,53377,2,0,B|192:8|192:8|196:4|196:4|248:14,1,112,4|2,1:3|0:0,0:0:0:0:
304,116,53680,1,2,1:0:0:0:
414,101,53831,1,2,0:0:0:0:
467,1,53983,5,2,1:2:0:0:
429,16,54058,1,2,1:2:0:0:
401,47,54134,1,2,1:2:0:0:
391,88,54210,1,2,1:2:0:0:
400,128,54286,2,0,P|415:151|420:179,2,56,4|0|2,1:3|0:0|0:0,0:0:0:0:
496,212,54513,1,0,0:0:0:0:
496,212,54589,2,0,P|480:234|475:262,1,56,2|2,1:2|1:2,0:0:0:0:
396,288,54740,5,2,1:2:0:0:
396,288,54816,1,2,1:2:0:0:
376,276,54892,1,2,1:0:0:0:
328,264,54968,1,2,0:0:0:0:
272,276,55043,1,2,0:0:0:0:
216,320,55119,2,0,P|183:275|133:249,1,112,2|0,0:0|0:0,0:0:0:0:
57,228,55346,1,4,0:3:0:0:
75,153,55498,6,0,P|80:126|75:99,2,56,4|2|2,1:3|0:0|0:0,0:0:0:0:
60,232,55725,1,2,0:0:0:0:
60,232,55801,2,0,P|114:224|166:244,1,112,2|2,1:0|0:0,0:0:0:0:
254,253,56028,5,0,0:0:0:0:
254,253,56104,1,2,0:0:0:0:
254,253,56180,2,0,L|241:307,1,56,0|2,0:0|0:0,0:0:0:0:
340,384,56331,2,0,L|327:329,1,56,0|2,0:0|1:2,0:0:0:0:
400,264,56483,5,2,1:2:0:0:
388,260,56558,1,2,1:2:0:0:
376,256,56634,1,2,1:2:0:0:
364,252,56710,2,0,B|380:240|380:240|470:257,2,112,10|2|0,1:2|0:0|0:0,0:0:0:0:
304,144,57165,6,0,B|308:136|308:136|310:89,1,56,10|0,0:0|0:0,0:0:0:0:
384,64,57316,2,0,L|380:119,3,56,2|2|2|2,1:0|1:2|1:2|1:2,0:0:0:0:
432,172,57619,2,0,L|428:227,3,56,2|2|2|2,1:0|0:0|0:0|0:0,0:0:0:0:
408,256,57922,5,2,1:0:0:0:
407,269,57997,1,2,0:0:0:0:
406,283,58073,1,2,0:0:0:0:
405,297,58149,1,2,0:0:0:0:
404,311,58225,1,2,1:2:0:0:
316,384,58377,5,2,1:2:0:0:
315,371,58452,1,2,1:2:0:0:
311,355,58528,2,0,B|292:336|292:336|266:325,3,56,2|0|2|0,1:0|0:0|0:0|0:0,0:0:0:0:
192,312,58831,2,0,B|165:319|165:319|142:335,3,56,2|0|2|0,1:2|0:0|0:0|0:0,0:0:0:0:
84,382,59134,6,0,P|100:329|89:275,1,112,2|2,1:0|0:0,0:0:0:0:
0,328,59437,1,4,1:3:0:0:
96,384,59589,1,4,0:3:0:0:
152,288,59740,5,8,1:2:0:0:
149,269,59815,1,2,0:0:0:0:
147,250,59891,1,2,0:0:0:0:
145,232,59967,1,2,0:0:0:0:
124,208,60043,5,2,1:0:0:0:
121,189,60118,1,2,1:2:0:0:
119,170,60194,1,2,1:2:0:0:
117,152,60270,1,2,1:2:0:0:
136,108,60346,6,0,B|152:85|152:85|176:71,3,56,4|2|2|2,1:0|1:2|1:2|1:2,0:0:0:0:
224,16,60649,2,0,P|265:52|318:70,1,112,2|2,1:2|1:0,0:0:0:0:
376,120,60877,1,0,1:0:0:0:
376,120,60952,2,0,L|431:112,3,56,2|2|2|2,1:0|0:0|0:0|0:0,0:0:0:0:
452,87,61255,2,0,L|507:95,3,56,2|2|2|2,1:2|1:2|1:2|1:2,0:0:0:0:
512,108,61558,5,2,1:2:0:0:
507,95,71255,6,0,B|452:108|452:108|448:104|448:104|376:120|376:120|368:112|368:112|376:120|376:120|404:228|303:263|303:263|268:224|220:224,1,434,2|0,1:2|0:0,0:0:0:0:
196,228,73680,6,0,B|116:239|116:239|99:229|99:229|16:241|16:241|-17:173|-17:173|113:154|113:154|130:164|130:164|217:152|217:152|225:110,1,542.5,2|0,1:2|0:0,0:0:0:0:
232,72,76104,6,0,B|236:37|236:37|250:27|250:27|321:37|321:37|331:50|331:50|318:145|318:145|314:149|314:149|301:240|301:240|245:232|245:232|232:242|232:242|218:341|218:341|228:355|228:355|272:361|272:361|274:342,1,587.999982055665,2|0,1:2|0:0,0:0:0:0:
274,342,78528,6,0,B|376:327|376:327|380:349,1,125.999996154785,2|0,1:2|0:0,0:0:0:0:
512,224,79134,6,0,B|505:271|505:271|324:242,1,230.99999295044,2|0,1:2|0:0,0:0:0:0:
312,224,80043,2,0,B|319:168|319:168|409:181,1,146.999995513916,0|2,0:0|0:0,0:0:0:0:
424,180,80649,6,0,L|421:200,3,20.9999993591309,2|2|2|2,0:0|0:0|0:0|0:0,0:0:0:0:
424,216,80952,5,4,1:0:0:0:
468,248,87013,6,0,L|455:101,1,146.999995513916,4|0,1:2|0:0,0:0:0:0:
384,48,87316,2,0,L|371:194,1,146.999995513916,0|0,1:0|0:0,0:0:0:0:
315,248,87619,2,0,P|269:262|222:251,1,97.9999970092774,2|0,1:0|0:0,0:0:0:0:
136,176,87922,5,2,1:0:0:0:
113,167,87998,1,2,0:0:0:0:
89,165,88074,1,2,0:0:0:0:
65,169,88150,1,2,0:0:0:0:
44,180,88225,6,0,P|79:241|150:248,1,146.999995513916,2|0,1:2|0:0,0:0:0:0:
221,249,88528,2,0,P|240:205|280:177,1,97.9999970092774,2|2,1:2|0:0,0:0:0:0:
320,272,88831,5,2,1:2:0:0:
320,272,88907,1,2,0:0:0:0:
320,272,88983,1,2,0:0:0:0:
268,364,89134,5,2,1:2:0:0:
239,357,89210,1,2,0:0:0:0:
210,351,89286,1,2,0:0:0:0:
181,345,89361,1,2,0:0:0:0:
152,339,89437,6,0,L|183:195,1,146.999995513916,4|0,1:2|0:0,0:0:0:0:
252,160,89740,2,0,L|220:16,1,146.999995513916,2|2,1:2|0:0,0:0:0:0:
139,0,90043,2,0,P|156:68|222:96,1,146.999995513916,2|2,1:2|0:0,0:0:0:0:
295,108,90346,2,0,P|346:56|418:49,1,146.999995513916,2|2,1:0|0:0,0:0:0:0:
492,0,90649,6,0,B|510:106|412:123|431:230,1,244.999992523194,10|0,1:2|0:0,0:0:0:0:
496,279,91104,2,0,P|511:234|500:187,1,97.9999970092774,2|2,0:0|1:2,0:0:0:0:
360,180,91407,1,2,0:0:0:0:
348,201,91482,1,2,0:0:0:0:
344,225,91558,1,2,1:0:0:0:
346,249,91634,1,2,1:2:0:0:
355,272,91710,1,2,1:2:0:0:
384,296,91786,1,2,1:2:0:0:
403,336,91861,6,0,P|343:368|294:320,1,146.999995513916,4|0,1:2|0:0,0:0:0:0:
296,248,92165,2,0,P|246:199|186:232,1,146.999995513916,2|0,1:2|0:0,0:0:0:0:
152,300,92468,2,0,P|119:336|72:347,1,97.9999970092774,2|2,1:2|0:1,0:0:0:0:
24,256,92771,5,2,1:2:0:0:
37,235,92846,1,2,0:0:0:0:
56,219,92922,1,2,0:0:0:0:
78,210,92998,1,2,0:0:0:0:
104,208,93074,2,0,L|250:222,1,146.999995513916,2|2,1:0|0:0,0:0:0:0:
316,264,93377,2,0,L|413:254,1,97.9999970092774,8|4,1:2|0:3,0:0:0:0:
356,160,93680,5,2,1:2:0:0:
356,160,93755,1,2,0:0:0:0:
356,160,93831,1,2,0:0:0:0:
316,264,93983,5,2,1:0:0:0:
340,261,94058,1,0,0:0:0:0:
364,258,94134,1,2,1:2:0:0:
389,256,94210,1,2,1:2:0:0:
412,251,94286,2,0,P|467:206|469:135,1,146.999995513916,4|0,1:2|0:0,0:0:0:0:
488,64,94589,2,0,B|396:52|396:52|391:55|391:55|343:48,1,146.999995513916,8|0,1:2|0:0,0:0:0:0:
284,0,94892,5,2,1:2:0:0:
284,0,94968,1,0,1:0:0:0:
284,0,95043,2,0,L|235:7,1,48.9999985046387,2|0,1:0|0:0,0:0:0:0:
180,56,95195,2,0,L|131:63,3,48.9999985046387,2|2|2|2,1:2|1:2|1:2|1:2,0:0:0:0:
64,15,95498,6,0,P|47:61|61:107,1,97.9999970092774,2|2,1:0|0:0,0:0:0:0:
20,184,95801,2,0,P|61:208|81:252,1,97.9999970092774,8|4,1:2|0:3,0:0:0:0:
36,343,96104,5,2,1:2:0:0:
72,347,96179,1,2,0:0:0:0:
109,350,96255,1,2,0:0:0:0:
145,354,96331,1,2,0:0:0:0:
182,357,96407,2,0,L|327:333,1,146.999995513916,2|2,1:2|1:2,0:0:0:0:
404,308,96710,6,0,B|388:256|340:268|317:192,1,146.999995513916,4|0,1:2|0:0,0:0:0:0:
255,144,97013,2,0,P|273:99|313:71,1,97.9999970092774,10|4,1:2|0:3,0:0:0:0:
352,164,97316,1,2,1:0:0:0:
352,164,97392,1,0,0:0:0:0:
352,164,97468,1,0,0:0:0:0:
240,224,97619,1,2,1:0:0:0:
203,219,97694,1,2,0:0:0:0:
167,214,97770,1,2,0:0:0:0:
130,209,97846,1,2,0:0:0:0:
94,204,97922,6,0,B|16:216|16:216|5:148,1,146.999995513916,2|0,1:0|0:0,0:0:0:0:
28,76,98225,2,0,L|125:62,1,97.9999970092774,10|4,1:2|0:3,0:0:0:0:
200,0,98528,1,2,1:0:0:0:
255,144,98680,1,2,0:1:0:0:
279,140,98755,1,2,0:1:0:0:
303,137,98831,1,2,1:2:0:0:
334,118,98906,1,2,0:0:0:0:
354,88,98982,1,2,1:2:0:0:
358,52,99058,1,2,1:0:0:0:
345,17,99134,6,0,P|309:78|327:148,1,146.999995513916,4|0,1:2|0:0,0:0:0:0:
344,240,99437,1,2,1:2:0:0:
344,240,99513,1,2,0:0:0:0:
344,240,99589,1,2,0:0:0:0:
344,240,99665,1,2,0:0:0:0:
343,240,99740,2,0,P|365:251|383:268,3,48.9999985046387,2|2|2|2,1:0|1:2|1:2|1:2,0:0:0:0:
316,320,100043,2,0,P|316:344|311:368,3,48.9999985046387,2|2|2|2,1:0|0:0|0:0|0:0,0:0:0:0:
236,336,100346,6,0,L|89:350,1,146.999995513916,2|0,1:2|0:0,0:0:0:0:
12,368,100649,2,0,L|4:270,1,97.9999970092774,2|0,1:2|0:0,0:0:0:0:
92,184,100952,1,2,1:0:0:0:
92,184,101028,1,0,0:0:0:0:
92,184,101104,2,0,L|84:86,1,97.9999970092774,0|2,0:0|1:2,0:0:0:0:
0,0,101407,1,0,0:0:0:0:
0,0,101483,1,0,0:0:0:0:
0,0,101558,6,0,P|50:50|122:53,1,146.999995513916,2|0,1:2|0:0,0:0:0:0:
188,88,101861,2,0,P|213:46|256:25,1,97.9999970092774,2|0,1:2|0:0,0:0:0:0:
368,0,102165,5,2,1:0:0:0:
375,36,102240,1,2,1:2:0:0:
382,72,102316,1,2,1:2:0:0:
389,108,102392,1,2,1:2:0:0:
396,144,102468,1,2,1:2:0:0:
504,208,102619,1,2,1:2:0:0:
440,316,102771,6,0,B|372:310|372:310|364:305|364:305|295:299,1,146.999995513916,2|0,1:0|0:0,0:0:0:0:
224,248,103074,2,0,L|215:345,1,97.9999970092774,2|2,1:2|0:0,0:0:0:0:
303,306,103377,1,2,1:2:0:0:
303,306,103452,1,0,0:0:0:0:
303,306,103528,1,0,0:0:0:0:
202,194,103680,1,2,1:2:0:0:
165,190,103755,1,2,1:2:0:0:
128,187,103831,1,2,1:2:0:0:
92,184,103907,1,2,1:2:0:0:
54,181,103983,6,0,P|83:246|152:264,1,146.999995513916,2|0,1:0|0:0,0:0:0:0:
224,292,104286,2,0,P|252:226|321:208,1,146.999995513916,10|0,1:2|0:0,0:0:0:0:
388,176,104589,2,0,L|404:272,1,97.9999970092774,2|0,1:2|0:0,0:0:0:0:
288,384,104892,2,0,L|304:288,1,97.9999970092774,2|2,1:0|1:2,0:0:0:0:
420,344,105195,5,10,1:2:0:0:
224,292,105346,1,0,0:0:0:0:
224,292,105422,1,0,0:0:0:0:
224,292,105498,2,0,L|128:276,1,97.9999970092774,4|0,1:3|0:0,0:0:0:0:
76,352,105801,5,2,1:0:0:0:
40,316,105876,1,2,1:2:0:0:
40,272,105952,1,2,1:2:0:0:
52,240,106028,1,0,0:0:0:0:
68,220,106104,5,2,1:2:0:0:
72,200,106180,1,0,0:0:0:0:
68,188,106256,1,2,0:0:0:0:
60,184,106332,1,2,0:0:0:0:
56,188,106407,6,0,L|28:193,3,28,4|2|2|2,0:0|0:0|0:0|0:0,0:0:0:0:
88,116,107619,2,0,L|69:94,3,28,2|2|2|2,0:0|0:0|0:0|0:0,0:0:0:0:
166,107,108831,2,0,L|175:80,3,28,4|2|2|2,0:0|0:0|0:0|0:0,0:0:0:0:
212,170,110043,2,0,L|240:165,3,28,2|2|2|2,0:0|0:0|0:0|0:0,0:0:0:0:
180,242,111255,2,0,L|198:263,3,28,4|2|2|2,0:0|0:0|0:0|0:0,0:0:0:0:
101,250,112468,2,0,L|91:276,3,28,2|2|2|2,0:0|0:0|0:0|0:0,0:0:0:0:
155,347,113680,6,0,L|150:319,1,28,4|2,0:0|0:0,0:0:0:0:
356,347,114286,2,0,L|361:319,1,28,2|2,0:0|0:0,0:0:0:0:
256,138,114892,5,2,0:0:0:0:
202,192,115195,1,2,0:0:0:0:
256,245,115498,1,2,0:0:0:0:
309,192,115801,1,2,0:0:0:0:
