osu file format v14

[General]
AudioFilename: audio.mp3
AudioLeadIn: 0
PreviewTime: 42165
Countdown: 0
SampleSet: Soft
StackLeniency: 0
Mode: 0
LetterboxInBreaks: 0
WidescreenStoryboard: 1

[Editor]
DistanceSpacing: 1
BeatDivisor: 8
GridSize: 4
TimelineZoom: 4.699998

[Metadata]
Title:::vexations
TitleUnicode:::vexations
Artist:Trerey-U
ArtistUnicode:Trerey-U
Creator:Seiioh
Version:::ultra
Source:
Tags:Formless​:​: nankasuisui uytrere ambient instrumental electronic electronica
BeatmapID:3207052
BeatmapSetID:1570531

[Difficulty]
HPDrainRate:6
CircleSize:4.4
OverallDifficulty:9
ApproachRate:9.7
SliderMultiplier:1.7
SliderTickRate:1

[Events]
//Background and Video events
0,0,"67341258_p0.jpg",0,0
//Break Periods
//Storyboard Layer 0 (Background)
//Storyboard Layer 1 (Fail)
//Storyboard Layer 2 (Pass)
//Storyboard Layer 3 (Foreground)
//Storyboard Layer 4 (Overlay)
//Storyboard Sound Samples

[TimingPoints]
44,303.030303030303,4,2,10,45,1,0
7619,-166.666666666667,4,2,10,45,0,0
10953,-39.2156862745098,4,2,10,70,0,0
11256,-55.5555555555556,4,2,10,70,0,0
11559,-39.2156862745098,4,2,10,70,0,0
12922,-113.636363636364,4,2,10,70,0,0
13074,-55.5555555555556,4,2,10,70,0,0
13453,-38.4615384615385,4,2,10,70,0,0
13680,-55.5555555555556,4,2,10,70,0,0
17922,-45.4545454545455,4,2,10,70,0,0
18528,-71.4285714285714,4,2,10,55,0,0
18756,-71.4285714285714,4,2,10,5,0,0
18831,-71.4285714285714,4,2,10,55,0,0
23074,-53.475935828877,4,2,10,70,0,0
23301,-53.475935828877,4,2,10,5,0,0
23377,-39.2156862745098,4,2,10,70,0,0
23831,-68.9655172413793,4,2,10,70,0,0
23983,-39.2156862745098,4,2,10,70,0,0
25347,-113.636363636364,4,2,10,70,0,0
25498,-55.5555555555556,4,2,10,70,0,0
25877,-38.4615384615385,4,2,10,70,0,0
26104,-55.5555555555556,4,2,10,70,0,0
30347,-34.1893894309666,4,2,10,70,0,0
30650,-51.2820512820513,4,2,10,70,0,0
30953,-40,4,2,10,70,0,0
31862,-58.8235294117647,4,2,10,55,0,0
33377,-40,4,2,10,55,0,0
34488,-40,4,2,10,5,0,0
34589,-40,4,2,10,55,0,0
35119,-40,4,2,10,5,0,0
35195,-40,4,2,10,55,0,0
35725,-40,4,2,10,5,0,0
35801,-40,4,2,10,55,0,0
36104,-31.25,4,2,10,55,0,0
36256,-41.6666666666667,4,2,10,55,0,0
36407,-83.3333333333333,4,2,10,55,0,0
36710,-40,4,2,10,55,0,0
36937,-40,4,2,10,5,0,0
37013,-40,4,2,10,55,0,0
37316,-133.333333333333,4,2,10,55,0,0
39437,-50,4,2,10,60,0,0
40801,-35.9712230215827,4,2,10,65,0,0
41483,-35.9712230215827,4,2,10,5,0,0
41559,-30.7692307692308,4,2,10,65,0,0
41786,-30.7692307692308,4,2,10,5,0,0
41862,-30.7692307692308,4,2,10,65,0,0
42165,303.030303030303,4,2,10,80,1,0
42165,-19.7427160348051,4,2,10,80,0,1
42392,-19.7427160348051,4,2,10,5,0,1
42468,-33.3333333333333,4,2,10,75,0,1
42619,-66.6666666666667,4,2,10,75,0,1
42771,-66.6666666666667,4,2,10,75,0,0
42922,-66.6666666666667,4,2,10,75,0,1
43377,-200,4,2,10,75,0,0
43680,-20,4,2,10,75,0,1
44134,-40,4,2,10,75,0,1
44589,-40,4,2,10,75,0,0
44892,-40,4,2,10,75,0,1
50119,-40,4,2,10,75,0,0
50346,-40,4,2,10,75,0,1
50649,-26.6666666666667,4,2,10,75,0,1
51558,-33.3333333333333,4,2,10,75,0,1
52468,-26.6666666666667,4,2,10,75,0,1
53831,-50,4,2,10,75,0,1
56861,-50,4,2,10,75,0,0
57165,-50,4,2,10,75,0,1
61558,-175.438596491228,4,2,10,45,0,0
71255,-200,4,2,10,45,0,0
87013,-58.8235294117647,4,2,10,75,0,0
87240,-58.8235294117647,4,2,10,5,0,0
87316,-58.8235294117647,4,2,10,75,0,0
87543,-58.8235294117647,4,2,10,5,0,0
87619,-58.8235294117647,4,2,10,75,0,0
96937,-58.8235294117647,4,2,10,5,0,0
97013,-58.8235294117647,4,2,10,75,0,0
97543,-58.8235294117647,4,2,10,5,0,0
97619,-58.8235294117647,4,2,10,75,0,0
98149,-58.8235294117647,4,2,10,5,0,0
98225,-58.8235294117647,4,2,10,75,0,0
98680,-100,4,2,10,75,0,0
98831,-58.8235294117647,4,2,10,75,0,0
99361,-58.8235294117647,4,2,10,5,0,0
99437,-58.8235294117647,4,2,10,75,0,0
100574,-58.8235294117647,4,2,10,5,0,0
100649,-58.8235294117647,4,2,10,75,0,0
100877,-58.8235294117647,4,2,10,5,0,0
100952,-58.8235294117647,4,2,10,75,0,0
101559,-47.6190476190476,4,2,10,75,0,0
101786,-47.6190476190476,4,2,10,5,0,0
101862,-142.857142857143,4,2,10,75,0,0
102089,-142.857142857143,4,2,10,5,0,0
102165,-142.857142857143,4,2,10,75,0,0
102771,-58.8235294117647,4,2,10,75,0,0
102998,-58.8235294117647,4,2,10,5,0,0
103074,-58.8235294117647,4,2,10,75,0,0
103604,-58.8235294117647,4,2,10,5,0,0
103680,-58.8235294117647,4,2,10,75,0,0
104210,-58.8235294117647,4,2,10,5,0,0
104286,-47.6190476190476,4,2,10,75,0,0
104513,-47.6190476190476,4,2,10,5,0,0
104589,-47.6190476190476,4,2,10,75,0,0
106407,-47.6190476190476,4,2,10,45,0,0
114892,-175.438596491228,4,2,10,45,0,0

[Colours]
Combo1 : 63,137,182
Combo2 : 212,212,212
Combo3 : 168,168,168
Combo4 : 202,232,255
Combo5 : 120,170,220
Combo6 : 139,187,216

[HitObjects]
48,68,44,5,4,0:0:0:0:
124,96,347,1,2,0:0:0:0:
164,166,650,1,2,0:0:0:0:
149,245,953,1,2,0:0:0:0:
48,68,1256,5,2,0:0:0:0:
124,96,1559,1,2,0:0:0:0:
120,176,1862,1,2,0:0:0:0:
42,196,2165,1,2,0:0:0:0:
468,68,2468,5,4,0:0:0:0:
392,40,2771,1,2,0:0:0:0:
364,116,3074,1,2,0:0:0:0:
440,144,3377,1,2,0:0:0:0:
468,68,3680,5,2,0:0:0:0:
392,40,3983,1,2,0:0:0:0:
364,116,4286,1,2,0:0:0:0:
288,142,4589,1,2,0:0:0:0:
476,384,4892,5,4,0:0:0:0:
446,312,5195,1,2,0:0:0:0:
371,296,5498,1,2,0:0:0:0:
313,347,5801,1,2,0:0:0:0:
476,384,6104,5,2,0:0:0:0:
446,312,6407,1,2,0:0:0:0:
442,235,6710,1,2,0:0:0:0:
463,161,7013,1,2,0:0:0:0:
328,0,7316,5,4,0:0:0:0:
340,187,7619,2,0,P|330:211|314:231,1,50.9999984436036,2|0,0:0|0:0,0:0:0:0:
256,168,7922,5,2,0:0:0:0:
367,319,8225,2,0,P|389:331|414:335,1,50.9999984436036,2|0,0:0|0:0,0:0:0:0:
412,248,8528,5,2,0:0:0:0:
272,352,8831,1,2,0:0:0:0:
202,269,9134,1,2,0:0:0:0:
367,319,9437,1,2,0:0:0:0:
144,356,9740,5,2,0:0:0:0:
128,352,10044,1,2,0:0:0:0:
112,348,10347,1,2,0:0:0:0:
40,384,10650,5,2,0:0:0:0:
48,350,10726,1,2,0:0:0:0:
56,316,10802,1,2,0:0:0:0:
64,282,10878,1,2,0:0:0:0:
60,180,10953,6,0,B|-4:162|-52:266|-24:274|-2:278|14:252|-12:243|0:210|38:200,1,216.749997106075,12|0,1:2|0:0,0:0:0:0:
136,140,11180,1,2,0:0:0:0:
128,148,11256,2,0,B|140:172|156:176|156:176|144:168|135:148,1,76.4999976654053,0|0,1:0|0:0,0:0:0:0:
56,64,11407,6,0,L|62:101,2,38.2499988327027,2|2|2,0:0|0:0|0:0,0:0:0:0:
0,24,11559,6,0,B|4:55|4:55|154:34|154:34|150:2,1,216.749997106075,0|0,1:0|0:0,0:0:0:0:
150,2,11786,5,0,0:0:0:0:
144,8,11862,2,0,B|128:10|128:10|139:85|139:85|155:83,1,108.374998553038,2|0,1:0|0:0,0:0:0:0:
231,100,12013,6,0,B|219:153|219:153|224:99,1,108.374998553038,2|2,0:0|0:0,0:0:0:0:
304,36,12165,6,0,B|361:-1|446:17|459:81|427:95|425:44|395:29|370:36,2,216.749997106075,8|0|0,1:0|0:0|1:0,0:0:0:0:
464,160,12544,6,0,B|467:187|462:148|494:143|496:163|488:164|487:152|499:151|476:154,1,54.1874992765188,2|0,1:0|0:0,0:0:0:0:
388,144,12619,5,2,1:2:0:0:
336,198,12695,5,2,1:2:0:0:
352,254,12771,5,2,1:2:0:0:
389,278,12847,5,2,1:2:0:0:
409,310,12922,6,0,L|405:329,3,18.7000005706787,2|2|2|2,0:0|0:0|0:0|0:0,0:0:0:0:
472,340,13074,6,0,L|464:377,3,38.2499988327027,0|0|2|0,1:0|0:0|0:0|0:0,0:0:0:0:
472,384,13225,2,0,L|479:346,3,38.2499988327027,2|0|2|0,0:0|0:0|0:0|0:0,0:0:0:0:
426,270,13377,5,0,1:0:0:0:
416,272,13453,2,0,B|394:267|394:267|374:276|374:276|371:254|371:254|356:237|356:237|377:228|377:228|388:209|388:209|403:225|403:225|424:230|424:230|413:250|413:250|416:272,1,220.999989883423
300,332,13680,5,2,1:0:0:0:
288,352,13756,1,2,0:0:0:0:
268,340,13831,1,2,0:0:0:0:
280,320,13907,1,2,0:0:0:0:
56,372,14134,5,2,0:0:0:0:
128,360,14210,1,2,0:0:0:0:
200,348,14286,1,2,1:0:0:0:
149,245,14437,5,0,0:0:0:0:
149,245,14513,1,0,0:0:0:0:
149,245,14589,2,0,B|130:242|130:242|132:223|132:223|151:226|151:226|149:245,1,76.4999976654053,2|0,1:0|0:0,0:0:0:0:
60,180,14740,6,0,B|51:197|51:197|34:188|34:188|42:171|42:171|60:180,1,76.4999976654053
140,120,14892,6,0,P|171:105|156:74,1,76.4999976654053,0|0,1:0|0:0,0:0:0:0:
132,102,15043,2,0,P|124:87|140:80,2,38.2499988327027,2|2|2,0:0|0:0|0:0,0:0:0:0:
172,196,15195,5,2,1:0:0:0:
54,70,15347,5,0,1:0:0:0:
52,60,15423,1,0,1:0:0:0:
50,51,15499,1,0,1:0:0:0:
127,71,15574,6,0,P|91:60|54:68,2,76.4999976654053,2|0|0,0:0|0:0|0:0,0:0:0:0:
121,60,15801,2,0,P|115:41|115:22,2,38.2499988327027,0|0|0,1:0|0:0|0:0,0:0:0:0:
183,12,15953,2,0,P|189:30|189:49,2,38.2499988327027,2|0|0,0:0|0:0|0:0,0:0:0:0:
256,20,16104,6,0,L|331:29,1,76.4999976654053,0|0,1:0|0:0,0:0:0:0:
380,84,16256,5,2,0:0:0:0:
384,100,16331,1,2,0:0:0:0:
388,120,16407,1,0,1:0:0:0:
456,148,16483,1,0,0:0:0:0:
503,92,16559,1,0,1:0:0:0:
464,29,16634,1,0,1:0:0:0:
456,31,16710,6,0,P|418:32|383:17,2,76.4999976654053,0|0|0,1:0|0:0|0:0,0:0:0:0:
488,148,16937,5,0,0:0:0:0:
496,156,17013,2,0,B|454:94|515:64|515:64|524:152|401:108|397:224|397:224|474:207|512:268,1,458.999985992432,2|2,1:0|0:0,0:0:0:0:
496,340,17619,5,0,1:0:0:0:
500,332,17695,1,0,1:0:0:0:
504,324,17771,1,0,1:0:0:0:
508,316,17847,1,0,1:0:0:0:
512,308,17922,6,0,B|507:304|507:304|510:300|510:300|506:296|506:296|509:292|509:292|505:288|505:288|508:284|508:284|504:280|504:280|500:285|500:285|496:281|496:281|492:286|492:286|488:283|488:283|484:287|484:287|480:284|480:284|476:288|476:288|472:285|472:285|469:289|469:289|464:286|464:286|461:290|461:290|456:287|456:287|453:292|453:292|448:288|448:288|445:293|445:293|440:289|440:289|437:294|437:294|432:290|432:290|429:295|429:295|424:291|424:291|421:296|421:296|426:299|426:299|422:304|422:304|427:307|427:307|423:312|423:312|428:315|428:315|424:320|424:320|429:323|429:323|425:328|425:328|430:331|430:331|427:336|427:336|431:339|431:339|428:344|428:344|432:347|432:347|429:351|429:351|433:355|433:355|430:359|430:359|434:363|434:363|431:367|431:367|436:371|436:371|432:375|432:375|437:379|437:379|433:383|433:383,1,280.500008560181,2|2,2:0|2:0,0:0:0:0:
300,332,18225,6,0,P|285:312|277:292,1,46.7500014266968,2|0,1:0|0:0,0:0:0:0:
274,327,18301,2,0,P|266:304|265:281,1,46.7500014266968,2|0,0:1|0:0,0:0:0:0:
253,315,18377,2,0,P|253:291|261:269,1,46.7500014266968,2|0,0:1|0:0,0:0:0:0:
236,297,18453,2,0,P|244:275|258:257,1,46.7500014266968,2|0,0:1|0:0,0:0:0:0:
192,356,18528,6,0,P|117:312|35:340,1,178.499994552612,0|0,1:0|0:0,0:0:0:0:
35,339,18831,2,0,P|64:345|92:337,1,59.4999981842042,2|0,1:0|0:0,0:0:0:0:
164,332,18983,2,0,P|179:306|179:277,1,59.4999981842042,2|0,0:0|0:0,0:0:0:0:
252,264,19134,5,2,1:0:0:0:
252,264,19210,1,2,0:0:0:0:
252,264,19286,2,0,P|236:238|236:209,1,59.4999981842042,2|0,0:0|0:0,0:0:0:0:
180,166,19437,6,0,P|195:140|195:111,3,59.4999981842042,2|2|2|2,1:0|0:0|0:0|0:0,0:0:0:0:
195,111,19740,2,0,L|135:104,3,59.4999981842042,2|2|2|2,1:0|0:0|0:0|0:0,0:0:0:0:
72,72,20043,2,0,L|12:78,3,59.4999981842042,2|2|2|2,1:0|0:0|0:0|0:0,0:0:0:0:
136,116,20347,6,0,L|195:122,2,59.4999981842042,2|2|2,1:0|0:0|0:0,0:0:0:0:
80,64,20650,5,2,1:0:0:0:
152,24,20801,5,2,0:0:0:0:
153,35,20877,1,2,0:0:0:0:
155,47,20953,1,2,1:0:0:0:
195,122,21104,5,2,0:0:0:0:
287,143,21256,5,2,1:0:0:0:
379,164,21407,5,2,0:0:0:0:
382,146,21483,1,2,0:0:0:0:
385,128,21559,1,2,1:0:0:0:
427,279,21710,5,2,0:0:0:0:
439,284,21786,1,2,0:0:0:0:
449,275,21862,1,2,1:0:0:0:
482,271,22013,5,2,0:0:0:0:
493,254,22089,1,2,0:0:0:0:
487,236,22165,1,2,1:0:0:0:
496,189,22316,5,2,0:0:0:0:
477,165,22392,1,2,0:0:0:0:
448,164,22468,1,2,1:0:0:0:
385,128,22619,5,2,0:0:0:0:
342,145,22695,1,2,0:0:0:0:
328,185,22771,1,2,1:0:0:0:
246,259,22922,5,2,0:0:0:0:
250,327,22998,1,2,0:0:0:0:
303,366,23074,2,0,B|347:322|366:353|410:385|457:298|368:256|351:308|355:344|293:335,1,238.4249952705,2|0,1:0|0:0,0:0:0:0:
179,277,23377,6,0,B|136:226|210:138|229:161|242:179|225:205|206:184|181:209|189:249,1,216.749997106075,12|0,1:2|0:0,0:0:0:0:
120,344,23604,5,2,0:0:0:0:
128,348,23680,2,0,B|147:350|147:350|141:337|141:337|101:332|101:332|92:342|92:342|112:345,1,108.374998553038,0|0,1:0|0:0,0:0:0:0:
52,252,23831,6,0,L|47:221,2,30.8125009403229,2|2|2,0:0|0:0|0:0,0:0:0:0:
0,312,23983,6,0,B|60:357|102:297|87:299|129:239|190:285,1,216.749997106075,0|0,1:0|0:0,0:0:0:0:
191,285,24210,5,2,0:0:0:0:
184,292,24286,2,0,B|153:315|132:285|140:286|119:256|89:278,1,108.374998553038,2|0,1:0|0:0,0:0:0:0:
60,180,24437,6,0,B|70:127|70:127|67:182,1,108.374998553038,2|2,0:0|0:0,0:0:0:0:
152,24,24589,6,0,B|115:81|133:166|197:179|211:147|160:145|145:115|152:90,2,216.749997106075,8|0|0,1:0|0:0|1:0,0:0:0:0:
277,183,24968,6,0,B|304:186|265:181|260:213|280:215|281:207|269:206|268:218|271:195,1,54.1874992765188,2|0,1:0|0:0,0:0:0:0:
260,108,25043,5,2,1:2:0:0:
314,56,25119,5,2,1:2:0:0:
370,72,25195,5,2,1:2:0:0:
394,109,25271,5,2,1:2:0:0:
426,127,25347,6,0,L|444:124,3,18.7000005706787,2|2|2|2,0:0|0:0|0:0|0:0,0:0:0:0:
456,192,25498,6,0,L|493:184,3,38.2499988327027,0|0|2|0,1:0|0:0|0:0|0:0,0:0:0:0:
500,192,25650,2,0,L|462:199,3,38.2499988327027,0|0|2|0,0:0|0:0|0:0|0:0,0:0:0:0:
428,280,25801,5,0,1:0:0:0:
436,272,25877,2,0,B|457:276|457:276|477:267|477:267|480:289|480:289|495:306|495:306|474:315|474:315|463:334|463:334|448:318|448:318|427:313|427:313|438:293|438:293|436:272,1,220.999989883423
326,326,26104,5,2,1:0:0:0:
300,332,26180,1,2,0:0:0:0:
307,356,26256,1,2,0:0:0:0:
331,350,26331,1,2,0:0:0:0:
117,261,26558,5,2,0:0:0:0:
189,249,26634,1,2,0:0:0:0:
261,237,26710,1,2,1:0:0:0:
35,339,26862,5,2,0:0:0:0:
35,339,26937,1,2,0:0:0:0:
35,339,27013,2,0,B|39:324|39:324|27:315|27:315|14:324|14:324|19:339|19:339|35:339,1,76.4999976654053,2|0,1:0|0:0,0:0:0:0:
164,332,27165,6,0,B|168:346|168:346|156:355|156:355|143:346|143:346|148:332|148:332|164:332,1,76.4999976654053
216,235,27316,6,0,P|231:204|262:219,1,76.4999976654053,2|2,1:2|0:0,0:0:0:0:
234,243,27468,2,0,P|249:251|256:235,2,38.2499988327027,2|2|2,0:0|0:0|0:0,0:0:0:0:
189,249,27619,5,2,1:0:0:0:
364,332,27770,5,2,0:0:0:0:
374,333,27846,1,2,0:0:0:0:
383,335,27922,1,0,1:0:0:0:
452,308,27998,6,0,P|476:278|509:258,2,76.4999976654053
450,296,28225,2,0,P|443:277|433:262,2,38.2499988327027,0|0|0,1:0|0:0|0:0,0:0:0:0:
373,291,28377,2,0,P|377:310|388:325,2,38.2499988327027,2|2|2,0:0|0:0|0:0,0:0:0:0:
378,213,28528,6,0,L|387:138,1,76.4999976654053,2|2,1:2|0:0,0:0:0:0:
314,56,28680,5,2,0:0:0:0:
298,60,28755,1,2,0:0:0:0:
278,64,28831,1,0,1:0:0:0:
250,132,28907,1,2,0:0:0:0:
306,179,28983,1,0,1:0:0:0:
369,140,29058,1,0,1:0:0:0:
359,132,29134,6,0,P|336:161|327:198,2,76.4999976654053,0|0|0,1:0|0:0|0:0,0:0:0:0:
208,100,29362,5,2,0:0:0:0:
196,92,29437,2,0,L|158:98,7,38.2499988327027,0|0|0|0|0|0|0|0,1:0|0:0|0:0|0:0|0:0|0:0|0:0|0:0,0:0:0:0:
92,136,29740,2,0,L|54:129,3,38.2499988327027,2|0|0|0,1:2|0:0|0:0|0:0,0:0:0:0:
152,92,29892,2,0,L|189:85,3,38.2499988327027,2|0|0|0,0:0|0:0|0:0|0:0,0:0:0:0:
96,56,30044,5,0,1:0:0:0:
103,99,30120,1,0,1:0:0:0:
110,142,30196,1,0,1:0:0:0:
118,186,30272,1,0,1:0:0:0:
128,231,30347,6,0,B|121:227|117:222|117:222|119:218|119:218|115:221|115:221|111:217|107:213|107:213|102:215|102:215|105:210|105:210|102:206|99:201|99:201|103:197|103:197|98:198|98:198|96:192|94:187|94:187|89:187|89:187|94:184|94:184|93:178|92:173|92:173|98:172|98:172|92:169|92:169|93:164|94:159|94:159|89:156|89:156|94:155|94:155|96:150|99:144|99:144|103:145|103:145|100:142|100:142|101:136|104:132|104:132|99:128|99:128|106:129|106:129|107:123|110:119|110:119|115:119|115:119|112:116|112:116|113:111|116:105|116:105|110:102|110:102|116:103|116:103|118:96|119:91|119:91|125:90|125:90|119:88|119:88|120:82|120:76|120:76|114:76|114:76|119:73|119:73|118:68|117:62|117:62|122:59|122:59|116:59|116:59|114:54|111:49|111:49|105:51|105:51|109:46|109:46|106:42|102:38|102:38|105:33|105:33|100:35|100:35|96:31|91:28|91:28|87:32|87:32|89:26|89:26|86:24|84:22|84:22|82:22,1,372.922729631534,2|2,1:0|0:0,0:0:0:0:
0,0,30650,6,0,B|-11:81|68:98|60:86|140:103|129:184,1,248.625000948429,2|0,1:2|0:0,0:0:0:0:
8,330,30953,6,0,P|30:313|53:304,1,53.125,2|0,1:0|0:0,0:0:0:0:
14,300,31029,2,0,P|39:290|65:289,1,53.125,2|0,0:1|0:0,0:0:0:0:
28,276,31104,2,0,P|55:276|79:286,1,53.125,2|0,0:1|0:0,0:0:0:0:
48,257,31180,2,0,P|72:267|93:282,1,53.125,2|0,0:1|0:0,0:0:0:0:
78,285,31256,6,0,P|100:301|123:310,1,53.125,2|0,1:0|0:0,0:0:0:0:
84,314,31332,2,0,P|109:323|135:324,1,53.125,2|0,0:1|0:0,0:0:0:0:
98,338,31407,2,0,P|125:338|149:327,1,53.125,2|0,0:1|0:0,0:0:0:0:
118,357,31483,2,0,P|142:346|163:331,1,53.125,2|0,0:1|0:0,0:0:0:0:
148,329,31559,5,4,1:2:0:0:
148,329,31786,5,2,0:0:0:0:
118,357,31862,6,0,P|180:322|252:317,1,144.500002756119,0|0,1:0|0:0,0:0:0:0:
227,233,32089,1,2,0:0:0:0:
227,233,32165,2,0,P|297:247|355:289,1,144.500002756119,0|0,1:0|0:0,0:0:0:0:
390,208,32392,1,2,0:0:0:0:
390,208,32468,2,0,P|434:263|451:333,1,144.500002756119,0|0,1:0|0:0,0:0:0:0:
451,333,32695,5,2,0:0:0:0:
451,333,32771,2,0,P|459:298|481:270,1,72.2500013780594,0|0,1:0|0:0,0:0:0:0:
407,276,32922,2,0,P|391:243|390:207,1,72.2500013780594,2|0,0:0|0:0,0:0:0:0:
334,261,33074,2,0,P|301:246|277:219,1,72.2500013780594,0|0,1:0|0:0,0:0:0:0:
269,295,33225,2,0,P|234:305|199:299,1,72.2500013780594,2|0,0:0|0:0,0:0:0:0:
64,376,33377,6,0,B|46:319|96:287|96:287|93:295|93:295|142:263|125:207,1,212.5,0|0,1:0|0:0,0:0:0:0:
66,159,33604,1,2,0:0:0:0:
66,159,33680,2,0,B|39:211|82:251|82:251|80:243|80:243|123:283|97:336,1,212.5,0|0,1:0|0:0,0:0:0:0:
198,309,33983,5,2,1:2:0:0:
269,295,34084,1,2,0:0:0:0:
316,350,34185,1,2,0:0:0:0:
316,368,34286,2,0,B|360:356|344:284|344:284|316:160|416:140,1,283.333333333333,2|0,1:2|0:0,0:0:0:0:
415,140,34589,1,2,1:0:0:0:
314,56,34816,5,2,0:0:0:0:
324,63,34892,2,0,B|330:110|330:110|323:120|323:120|231:133|231:133|221:126|221:126|215:78|215:78|222:68|222:68|314:55|314:55,1,318.75,0|0,1:0|0:0,0:0:0:0:
415,140,35195,6,0,L|400:34,1,106.25,0|0,1:0|0:0,0:0:0:0:
393,30,35347,2,0,L|407:135,1,106.25,2|0,0:0|0:0,0:0:0:0:
388,207,35498,6,0,P|465:129|370:184,1,318.75,2|0,1:0|0:0,0:0:0:0:
288,268,35801,6,0,P|278:315|325:325,1,106.25,0|0,1:0|0:0,0:0:0:0:
336,327,35953,2,0,P|345:279|298:269,1,106.25,2|0,0:0|0:0,0:0:0:0:
148,240,36104,6,0,B|82:249|82:249|78:247|78:247|13:256,1,136,8|0,1:2|0:0,0:0:0:0:
27,243,36256,2,0,B|75:236|75:236|78:237|78:237|127:230,1,101.999996887207,2|0,0:0|0:0,0:0:0:0:
199,124,36407,6,0,L|249:131,1,50.9999984436036,0|0,1:0|0:0,0:0:0:0:
192,112,36559,2,0,L|242:119,1,50.9999984436036,2|0,0:0|0:0,0:0:0:0:
80,19,36710,6,0,B|48:73|48:73|86:122|86:122|147:101|147:101|142:35|142:35|80:19,1,318.75,0|0,1:0|0:0,0:0:0:0:
155,246,37013,6,0,B|194:251|194:251|203:185,1,106.25,0|0,1:0|0:0,0:0:0:0:
196,179,37165,2,0,B|156:173|156:173|147:239,1,106.25,2|0,0:0|0:0,0:0:0:0:
64,376,37316,6,0,L|59:344,3,31.8750012159348,0|0|0|0,1:0|0:0|0:0|0:0,0:0:0:0:
149,274,37619,5,2,1:0:0:0:
139,282,37695,1,2,0:0:0:0:
126,275,37771,1,2,0:0:0:0:
94,280,37922,5,2,1:0:0:0:
78,265,37998,1,2,0:0:0:0:
80,246,38074,1,2,0:0:0:0:
61,204,38225,5,2,1:0:0:0:
73,176,38301,1,2,0:0:0:0:
100,168,38377,1,2,0:0:0:0:
153,118,38528,5,2,1:0:0:0:
199,124,38604,1,2,0:0:0:0:
222,159,38680,1,2,0:0:0:0:
224,198,38756,1,2,0:0:0:0:
263,256,38831,1,2,1:0:0:0:
235,316,38907,1,2,0:0:0:0:
171,333,38983,1,2,0:0:0:0:
63,376,39134,5,2,1:0:0:0:
113,321,39209,1,2,0:0:0:0:
184,304,39285,1,2,0:0:0:0:
253,329,39361,1,2,0:0:0:0:
251,339,39437,6,0,P|272:346|293:348,4,42.5,2|2|2|2|2,1:2|0:0|0:0|0:0|0:0,0:0:0:0:
432,320,39740,5,2,1:0:0:0:
432,249,39816,1,2,0:0:0:0:
366,228,39892,1,2,0:0:0:0:
325,284,39968,1,2,0:0:0:0:
366,341,40044,1,2,1:0:0:0:
444,244,40195,5,2,0:0:0:0:
407,135,40347,5,2,1:0:0:0:
460,88,40498,5,2,0:0:0:0:
456,84,40574,1,2,0:0:0:0:
452,80,40650,1,2,1:0:0:0:
452,80,40801,6,0,B|408:36|439:17|470:-26|384:-73|342:15|394:32|430:28|421:89,1,236.300007211304,12|0,0:3|1:0,0:0:0:0:
322,201,41104,6,0,P|344:167|330:205,1,118.150003605652,2|0,0:0|0:0,0:0:0:0:
494,184,41256,6,0,B|404:171|447:128|360:7|244:100|273:153|184:140,1,354.450010816956,12|0,1:3|0:0,0:0:0:0:
46,67,41559,6,0,B|12:-19|150:-65|179:73|93:114|93:114|65:164|91:194|91:194|76:165|92:135,1,414.375011855364,12|0,1:3|0:0,0:0:0:0:
88,268,41862,6,0,P|121:262|149:241,1,69.062501975894,2|0,1:2|0:0,0:0:0:0:
153,294,41937,2,0,P|175:267|182:234,1,69.062501975894,2|0,1:2|0:0,0:0:0:0:
220,274,42013,2,0,P|220:239|204:209,1,69.062501975894,2|0,1:2|0:0,0:0:0:0:
258,214,42089,2,0,P|236:187|204:174,1,69.062501975894,2|0,1:2|0:0,0:0:0:0:
242,119,42165,6,0,B|237:119|233:120|233:120|232:125|232:125|229:120|229:120|225:121|222:121|222:121|219:117|219:117|219:122|219:122|215:123|211:124|211:124|211:129|211:129|208:125|208:125|204:126|200:127|200:127|197:123|197:123|198:128|198:128|194:130|190:131|190:131|191:137|191:137|188:133|188:133|184:135|181:137|181:137|177:133|177:133|178:138|178:138|175:140|172:143|172:143|173:148|173:148|169:145|169:145|166:147|163:150|163:150|159:147|159:147|161:152|161:152|158:155|156:158|156:158|159:162|159:162|154:160|154:160|151:164|149:167|149:167|144:166|144:166|148:169|148:169|145:173|144:176|144:176|148:180|148:180|142:179|142:179|141:183|139:187|139:187|134:186|134:186|138:189|138:189|137:193|136:197|136:197|140:200|140:200|135:200|135:200|134:204|133:208|133:208|128:208|128:208|133:211|133:211|132:215|131:219|131:219|136:221|136:221|131:221|131:221|130:226|130:229|130:229|125:230|125:230|130:232|130:232|129:236|129:240|129:240|134:242|134:242|129:243|129:243|129:247|128:251|128:251|123:252|123:252|128:254|128:254|128:258|127:262|127:262|132:264|132:264|127:265|127:265|127:269|126:273|126:273|121:274|121:274|126:276|126:276|125:280|124:284|124:284|129:287|129:287|123:287|123:287|123:291|121:295|121:295|116:295|116:295|121:298|121:298|119:302|118:305|118:305|122:308|122:308|117:308|117:308|115:312|113:315|113:315|108:314|108:314|112:318|112:318|110:321|108:325|108:325|111:329|111:329|106:327|106:327|104:330|101:333|101:333|96:331|96:331|99:336|99:336|96:339|93:341|93:341|96:346|96:346|91:343|91:343|88:346|85:349|85:349|81:345|81:345|83:350|83:350|79:353|76:355|76:355|77:360|77:360|74:356|74:356|70:358|66:360|66:360|63:356|63:356|64:361|64:361|60:363|56:364|56:364|57:370|57:370|53:365|53:365|49:367|46:368|46:368|43:363|43:363|43:368|43:368|39:369|35:370|35:370|35:375|35:375|32:371|32:371|28:372|24:372|24:372|22:367|22:367|21:372|21:372|18:373|14:373,1,645.807824206989,12|0,0:3|0:0,0:0:0:0:
20,264,42468,6,0,B|3:243|2:216|2:216|-9:256|21:286,1,127.500004863739,2|0,1:0|0:0,0:0:0:0:
96,212,42619,2,0,B|110:190|136:181|136:181|94:182|75:220,1,127.500004863739,10|0,0:0|1:0,0:0:0:0:
176,292,42922,5,2,0:0:0:0:
244,312,42998,1,2,0:0:0:0:
268,376,43074,5,2,1:2:0:0:
332,347,43150,1,2,0:0:0:0:
391,380,43225,5,2,0:0:0:0:
421,317,43301,1,2,0:0:0:0:
487,304,43377,6,0,B|470:242,1,63.75,2|0,1:0|0:0,0:0:0:0:
504,288,43680,6,0,B|444:333|402:273|417:275|375:215|316:259,1,212.5,2|0,1:2|0:0,0:0:0:0:
268,376,43831,2,0,B|339:397|358:327|345:334|364:263|434:284,1,212.5,2|0,0:0|0:0,0:0:0:0:
494,184,43983,5,2,1:0:0:0:
461,165,44059,1,2,0:0:0:0:
461,202,44134,2,0,B|492:181|471:151|469:158|448:128|479:108,1,106.25,2|0,0:0|0:0,0:0:0:0:
353,178,44286,5,2,1:0:0:0:
324,203,44362,1,2,0:0:0:0:
359,214,44437,2,0,B|348:178|313:188|319:192|284:203|275:167,1,106.25,2|0,0:0|0:0,0:0:0:0:
340,284,44589,5,4,1:0:0:0:
340,284,44892,5,0,1:0:0:0:
291,232,44968,1,2,0:0:0:0:
220,229,45043,1,2,0:0:0:0:
167,276,45119,1,2,0:0:0:0:
162,346,45195,5,2,1:2:0:0:
176,352,45271,1,2,0:0:0:0:
224,328,45346,5,2,0:0:0:0:
238,323,45423,1,2,0:0:0:0:
259,273,45498,5,2,1:2:0:0:
266,260,45574,1,2,0:0:0:0:
249,208,45649,5,2,0:0:0:0:
246,193,45725,1,2,0:0:0:0:
199,164,45801,6,0,B|165:147|149:180|156:179|141:212|108:195,2,106.25,4|0|0,1:3|0:0|0:0,0:0:0:0:
328,9,46104,5,2,1:2:0:0:
393,30,46180,1,2,0:0:0:0:
393,99,46256,1,2,0:0:0:0:
327,120,46331,1,2,0:0:0:0:
287,64,46407,5,2,1:0:0:0:
300,68,46483,1,2,0:0:0:0:
308,80,46559,5,2,0:0:0:0:
312,151,46635,1,2,0:0:0:0:
364,199,46710,1,2,1:2:0:0:
436,197,46786,1,2,0:0:0:0:
484,147,46862,1,2,0:0:0:0:
481,139,46937,1,2,0:0:0:0:
477,130,47013,2,0,P|458:149|447:173,6,53.125,2|0|0|0|0|0|0,1:0|0:0|0:0|0:0|0:0|0:0|0:0,0:0:0:0:
400,240,47316,6,0,P|410:264|413:290,2,53.125,2|2|2,1:2|0:0|0:0,0:0:0:0:
511,342,47468,6,0,L|194:308,1,318.75,6|0,0:3|0:0,0:0:0:0:
77,253,47771,5,2,1:2:0:0:
61,253,47847,1,2,1:2:0:0:
45,261,47922,1,2,1:2:0:0:
37,277,47998,1,2,1:2:0:0:
37,293,48074,5,2,0:1:0:0:
102,306,48149,1,2,0:0:0:0:
146,255,48225,1,4,0:3:0:0:
122,192,48301,1,2,0:0:0:0:
120,125,48377,1,2,0:0:0:0:
177,93,48453,1,2,0:0:0:0:
234,130,48528,1,2,1:2:0:0:
280,114,48604,1,2,0:0:0:0:
287,63,48680,2,0,P|251:54|283:72,2,106.25,2|2|2,0:0|0:0|1:2,0:0:0:0:
176,164,48983,6,0,B|149:168|149:168|152:194|152:194|178:190|178:190|176:164,1,106.25,2|0,0:0|0:0,0:0:0:0:
189,172,49134,5,2,1:2:0:0:
216,239,49210,1,2,1:2:0:0:
194,308,49286,1,2,1:2:0:0:
132,346,49362,1,2,1:2:0:0:
59,335,49437,2,0,P|106:310|158:312,1,106.25,10|0,0:0|0:0,0:0:0:0:
256,216,49589,5,2,0:0:0:0:
256,216,49665,1,2,0:0:0:0:
256,216,49740,2,0,P|257:268|285:312,1,106.25,2|0,1:2|0:0,0:0:0:0:
360,288,49892,2,0,P|358:235|330:191,1,106.25,2|0,0:0|0:0,0:0:0:0:
330,191,50043,5,2,1:0:0:0:
330,191,50119,1,2,0:0:0:0:
393,99,50346,5,2,1:0:0:0:
433,43,50422,1,2,0:0:0:0:
499,64,50498,1,2,0:0:0:0:
499,133,50574,1,2,0:0:0:0:
433,155,50649,6,0,B|398:155|373:201|373:201|383:149|357:127,1,159.375,4|0,1:3|0:0,0:0:0:0:
292,176,50801,2,0,B|257:175|232:129|232:129|242:181|216:203,1,159.375,2|0,0:0|0:0,0:0:0:0:
148,156,50953,5,2,1:2:0:0:
132,152,51028,1,2,0:0:0:0:
56,192,51104,5,2,0:0:0:0:
41,199,51179,1,2,0:0:0:0:
8,278,51255,5,2,1:0:0:0:
1,293,51331,1,2,0:0:0:0:
12,289,51407,1,2,0:0:0:0:
0,282,51482,1,2,0:0:0:0:
4,286,51558,6,0,B|86:250|49:171|42:187|5:108|86:73,1,255.000009727478,4|0,1:3|0:0,0:0:0:0:
235,69,51786,5,2,0:0:0:0:
236,82,51861,2,0,B|215:168|130:146|146:136|60:114|40:199,1,255.000009727478,2|0,1:2|0:0,0:0:0:0:
120,224,52089,5,2,0:0:0:0:
120,224,52165,2,0,P|100:183|103:228,1,127.500004863739,10|0,1:2|0:0,0:0:0:0:
6,169,52316,5,2,0:0:0:0:
112,368,52468,6,0,B|140:348|135:295|135:295|156:343|191:347,1,159.375,2|0,1:0|1:0,0:0:0:0:
228,255,52619,2,0,B|258:269|301:238|301:238|270:280|285:312,1,159.375,2|0,1:2|1:0,0:0:0:0:
380,300,52771,5,2,1:2:0:0:
408,288,52847,1,2,1:2:0:0:
436,236,52922,1,2,1:2:0:0:
416,168,52998,1,2,1:2:0:0:
347,145,53074,5,2,1:0:0:0:
327,77,53150,1,2,0:0:0:0:
355,25,53225,1,2,0:0:0:0:
383,13,53301,1,2,0:0:0:0:
398,16,53377,6,0,B|414:52|398:84|398:84|438:56|412:4,1,159.375003799796,4|0,1:3|0:0,0:0:0:0:
347,145,53528,5,2,0:0:0:0:
347,145,53604,1,2,0:0:0:0:
347,145,53680,2,0,P|296:119|334:161,1,159.375003799796,2|0,1:0|0:0,0:0:0:0:
183,94,53831,6,0,P|173:121|176:92,1,85,2|0,0:0|0:0,0:0:0:0:
92,134,53983,5,2,1:2:0:0:
165,123,54058,1,2,1:2:0:0:
239,113,54134,1,2,1:2:0:0:
312,102,54210,1,2,1:2:0:0:
385,92,54286,2,0,P|407:56|403:14,1,85,4|0,1:3|0:0,0:0:0:0:
268,44,54437,2,0,P|278:84|310:110,1,85,2|0,0:0|0:0,0:0:0:0:
416,168,54589,5,2,1:2:0:0:
394,167,54665,1,2,1:2:0:0:
377,177,54740,1,2,1:2:0:0:
371,197,54816,1,2,1:2:0:0:
330,270,54892,5,2,1:0:0:0:
374,268,54968,1,2,0:0:0:0:
408,288,55043,1,2,0:0:0:0:
420,328,55119,1,2,0:0:0:0:
476,380,55195,6,0,P|440:357|427:317,1,85,4|0,1:3|0:0,0:0:0:0:
378,189,55347,2,0,P|390:228|374:267,1,85,4|0,0:3|0:0,0:0:0:0:
285,312,55498,5,4,1:3:0:0:
276,308,55574,1,2,0:0:0:0:
194,308,55650,5,2,0:0:0:0:
195,298,55725,1,2,0:0:0:0:
169,220,55801,6,0,P|140:189|99:180,1,85,2|0,1:0|0:0,0:0:0:0:
88,108,55953,2,0,P|50:125|28:161,1,85,2|0,0:0|0:0,0:0:0:0:
0,260,56104,5,2,0:0:0:0:
16,272,56180,2,0,L|99:257,1,85,0|2,0:0|0:0,0:0:0:0:
169,220,56331,2,0,L|252:234,1,85,0|2,0:0|1:2,0:0:0:0:
330,270,56483,5,2,1:2:0:0:
396,236,56559,1,2,1:2:0:0:
408,188,56634,1,2,1:2:0:0:
392,160,56710,6,0,B|396:200|396:200|400:200|400:200|403:240,1,85,10|0,1:2|0:0,0:0:0:0:
372,320,56861,2,0,B|384:200|384:200|396:200|396:200|407:78,1,255,2|0,0:0|0:0,0:0:0:0:
407,78,57165,2,0,P|394:106|395:75,1,85,10|0,0:0|0:0,0:0:0:0:
456,16,57316,5,2,1:0:0:0:
496,80,57392,1,2,1:2:0:0:
488,156,57468,1,2,1:2:0:0:
432,208,57543,1,2,1:2:0:0:
408,188,57619,5,2,1:0:0:0:
378,235,57695,1,2,0:0:0:0:
384,293,57771,1,2,0:0:0:0:
426,332,57846,1,2,0:0:0:0:
436,320,57922,5,2,1:0:0:0:
440,304,57998,1,2,0:0:0:0:
386,250,58074,5,2,0:0:0:0:
378,235,58150,1,2,0:0:0:0:
309,243,58225,5,2,1:2:0:0:
294,236,58301,1,2,1:2:0:0:
240,232,58377,1,2,1:2:0:0:
176,268,58453,1,2,1:2:0:0:
131,336,58528,6,0,P|167:314|187:276,1,85,2|0,1:0|0:0,0:0:0:0:
240,232,58680,2,0,P|230:191|200:161,1,85,2|0,0:0|0:0,0:0:0:0:
174,97,58831,2,0,P|132:93|94:112,1,85,2|0,1:2|0:0,0:0:0:0:
25,118,58983,2,0,P|8:156|15:198,1,85,2|0,0:0|0:0,0:0:0:0:
0,272,59134,6,0,L|83:257,1,85,2|0,1:0|0:0,0:0:0:0:
144,324,59286,2,0,B|147:303|147:303|168:306|168:306|164:327|164:327|144:324,1,85,2|0,0:0|0:0,0:0:0:0:
132,336,59437,5,4,1:3:0:0:
204,364,59513,1,2,0:0:0:0:
276,336,59589,1,4,0:3:0:0:
320,272,59665,1,0,0:0:0:0:
392,248,59740,1,8,1:2:0:0:
464,272,59816,1,2,0:0:0:0:
504,340,59892,5,2,0:0:0:0:
488,348,59968,1,2,0:0:0:0:
472,344,60043,1,2,1:0:0:0:
460,332,60119,1,2,1:2:0:0:
460,316,60195,1,2,1:2:0:0:
468,304,60271,1,2,1:2:0:0:
496,232,60346,5,4,1:0:0:0:
488,196,60422,1,2,1:2:0:0:
464,168,60498,1,2,1:2:0:0:
432,152,60574,1,2,1:2:0:0:
400,76,60649,6,0,P|366:100|351:140,1,85,2|0,1:2|1:0,0:0:0:0:
280,128,60801,2,0,P|284:169|310:202,1,85,2|0,1:0|1:0,0:0:0:0:
265,257,60953,5,2,1:0:0:0:
252,272,61028,1,2,0:0:0:0:
204,288,61104,1,2,0:0:0:0:
128,272,61180,1,2,0:0:0:0:
96,200,61256,5,2,1:2:0:0:
112,204,61331,1,2,1:2:0:0:
124,216,61407,1,2,1:2:0:0:
128,232,61483,1,2,1:2:0:0:
127,252,61558,6,0,B|100:260|100:260|100:175|156:144|156:144|188:83|188:83|88:140|88:140|55:79|7:64|7:64|104:95|104:95|103:91|103:91|210:125,1,678.299991719971,6|0,1:2|0:0,0:0:0:0:
340,68,63983,6,0,B|352:83|373:93|373:93|334:93|299:48|299:48|353:118|310:192|310:192|407:213|451:138|451:138|445:137|445:137|474:84|425:21|425:21|445:46|475:53|475:53|446:76,1,678.299991719971,2|0,1:2|0:0,0:0:0:0:
231,360,66407,6,0,B|277:328|341:351|341:351|216:306|216:306|195:306|195:306|86:266|86:266|163:294|217:230|217:230|242:200|242:200|249:242|282:255|282:255|317:267,1,678.299991719971,2|0,1:2|0:0,0:0:0:0:
128,156,68831,5,2,1:2:0:0:
168,384,69134,1,0,0:0:0:0:
214,214,69437,5,2,1:2:0:0:
81,325,69740,1,0,0:0:0:0:
209,292,70043,5,2,1:2:0:0:
86,247,70346,1,0,0:0:0:0:
496,80,70650,5,6,1:2:0:0:
496,80,71256,6,0,B|364:152|324:24|324:24|368:88|420:20|460:100|460:100|436:152|500:152|456:224|456:224|420:192|436:152,1,595,2|0,1:2|0:0,0:0:0:0:
316,152,73680,6,0,B|288:132|288:108|168:108|140:128|140:228|200:228|228:192|228:144|304:144|348:172|348:172|348:244|420:288|420:288|368:256|368:213,1,595,2|0,1:2|0:0,0:0:0:0:
360,208,76104,6,0,B|399:160|435:204|485:180|485:180|419:212|463:256|379:256|379:256|307:224|257:284|257:284|287:228|245:183|245:183|223:216|180:216,1,595,2|0,1:2|0:0,0:0:0:0:
180,138,78528,6,0,P|162:100|125:81,1,85,2|0,1:2|0:0,0:0:0:0:
72,136,79134,2,0,P|89:173|126:192,1,85,2|0,1:2|0:0,0:0:0:0:
164,264,79740,2,0,L|247:250,1,85,2|0,1:2|0:0,0:0:0:0:
304,136,80347,5,2,1:2:0:0:
320,140,80422,1,2,0:0:0:0:
348,160,80498,1,2,0:0:0:0:
368,196,80574,1,2,0:0:0:0:
368,256,80650,1,2,0:0:0:0:
420,308,80725,1,2,0:0:0:0:
492,296,80801,1,2,0:0:0:0:
512,224,80877,1,2,0:0:0:0:
472,159,80953,6,0,P|459:200|468:241,3,85,4|0|0|0,1:0|0:0|0:0|0:0,0:0:0:0:
420,308,82165,2,0,P|400:270|364:247,3,85
340,328,83377,5,0,1:0:0:0:
248,250,83680,1,0,0:0:0:0:
340,328,83983,5,0,1:0:0:0:
248,250,84286,1,0,0:0:0:0:
340,328,84589,5,0,1:0:0:0:
268,376,84892,1,0,0:0:0:0:
248,250,85195,1,0,0:0:0:0:
352,320,85498,2,0,L|357:362,3,42.5
345,370,86104,6,0,L|339:327,3,42.5
366,248,86710,5,2,0:0:0:0:
379,230,86786,1,2,0:0:0:0:
414,218,86862,1,2,0:0:0:0:
481,237,86937,1,2,0:0:0:0:
511,308,87013,6,0,B|477:336|477:336|422:248|331:272,1,216.750004134178,4|0,1:2|0:0,0:0:0:0:
299,361,87316,2,0,B|342:361|342:361|328:258|413:218,1,216.750004134178,0|0,1:0|0:0,0:0:0:0:
488,128,87619,5,2,1:0:0:0:
476,136,87695,1,0,0:0:0:0:
467,147,87771,2,0,P|435:131|400:130,1,72.2500013780594
340,80,87922,5,2,1:0:0:0:
312,104,87998,1,2,0:0:0:0:
260,120,88074,1,2,0:0:0:0:
188,112,88150,1,2,0:0:0:0:
136,55,88225,6,0,P|167:38|202:38,1,72.2500013780594,2|0,1:2|0:0,0:0:0:0:
72,100,88377,2,0,P|72:135|90:166,1,72.2500013780594
0,56,88528,5,2,1:2:0:0:
8,36,88604,1,2,0:0:0:0:
28,24,88680,1,2,0:0:0:0:
56,28,88756,1,2,0:0:0:0:
128,8,88831,5,2,1:2:0:0:
144,32,88907,1,2,0:0:0:0:
172,44,88983,1,2,0:0:0:0:
208,44,89059,1,2,0:0:0:0:
232,32,89134,5,2,1:2:0:0:
280,20,89210,1,2,0:0:0:0:
332,36,89286,1,2,0:0:0:0:
356,92,89362,1,2,0:0:0:0:
324,160,89437,5,4,1:2:0:0:
316,156,89513,2,0,P|320:88|386:73,1,144.500002756119
396,72,89740,2,0,P|413:102|405:137,1,72.2500013780594,2|0,1:2|0:0,0:0:0:0:
460,208,89892,5,4,0:3:0:0:
472,184,89968,5,2,0:0:0:0:
448,200,90043,1,2,1:2:0:0:
444,228,90119,1,2,0:0:0:0:
476,296,90195,5,2,0:1:0:0:
484,304,90271,1,2,0:0:0:0:
432,356,90347,5,2,1:0:0:0:
426,366,90423,1,2,0:0:0:0:
360,332,90498,5,2,0:1:0:0:
349,329,90574,1,2,0:0:0:0:
359,254,90650,6,0,P|324:256|295:277,1,72.2500013780594,10|0,1:2|0:0,0:0:0:0:
264,352,90801,2,0,P|234:331|199:329,1,72.2500013780594,4|0,0:3|0:0,0:0:0:0:
124,368,90953,6,0,L|117:296,1,72.2500013780594,2|0,1:2|0:0,0:0:0:0:
124,280,91104,2,0,L|130:351,1,72.2500013780594,2|0,0:0|0:0,0:0:0:0:
248,250,91256,5,2,1:2:0:0:
255,229,91331,1,2,0:0:0:0:
250,207,91407,1,2,0:0:0:0:
239,191,91483,1,2,0:0:0:0:
172,161,91559,5,2,1:0:0:0:
103,138,91634,1,2,1:2:0:0:
103,66,91710,1,2,1:2:0:0:
172,44,91786,1,2,1:2:0:0:
214,102,91862,5,4,1:2:0:0:
208,112,91937,2,0,P|264:152|328:126,1,144.500002756119
464,52,92165,6,0,P|432:39|413:67,1,72.2500013780594,2|0,1:2|0:0,0:0:0:0:
416,80,92316,2,0,P|447:92|466:64,1,72.2500013780594,2|0,0:0|0:0,0:0:0:0:
339,20,92468,6,0,P|326:53|328:89,2,72.2500013780594,2|0|2,1:2|0:0|0:1,0:0:0:0:
504,180,92771,5,2,1:2:0:0:
488,172,92847,1,2,0:0:0:0:
448,168,92922,1,2,0:0:0:0:
408,192,92998,1,2,0:0:0:0:
396,268,93074,5,2,1:0:0:0:
384,244,93150,1,2,0:0:0:0:
352,220,93225,1,2,0:0:0:0:
296,216,93301,1,2,0:0:0:0:
240,260,93377,6,0,P|258:230|260:194,1,72.2500013780594,8|0,1:2|0:0,0:0:0:0:
192,172,93528,2,0,P|173:202|171:238,1,72.2500013780594,4|0,0:3|0:0,0:0:0:0:
252,100,93680,5,2,1:2:0:0:
236,24,93756,1,2,0:0:0:0:
232,32,93831,1,2,0:0:0:0:
40,212,93983,6,0,P|75:207|106:189,1,72.2500013780594,2|0,1:0|0:0,0:0:0:0:
140,76,94134,5,2,1:2:0:0:
140,76,94210,1,2,1:2:0:0:
140,76,94286,2,0,B|108:100|108:100|168:108|187:159,1,144.500002756119,4|0,1:2|0:0,0:0:0:0:
112,380,94589,6,0,B|114:348|114:348|119:344|119:344|122:310,1,72.2500013780594,8|0,1:2|0:0,0:0:0:0:
56,284,94740,2,0,B|52:319|52:319|48:323|48:323|45:353,1,72.2500013780594,4|0,0:3|0:0,0:0:0:0:
203,291,94892,6,0,P|189:259|160:238,2,72.2500013780594,2|0|2,1:2|1:0|1:0,0:0:0:0:
252,66,95195,5,2,1:2:0:0:
249,95,95271,1,2,1:2:0:0:
280,145,95346,1,2,1:2:0:0:
349,162,95422,1,2,1:2:0:0:
404,113,95498,5,2,1:0:0:0:
472,130,95574,1,2,0:0:0:0:
504,180,95649,1,2,0:0:0:0:
500,212,95725,1,2,0:0:0:0:
488,215,95801,6,0,P|467:187|464:152,1,72.2500013780594,8|0,1:2|0:0,0:0:0:0:
404,113,95953,2,0,P|418:80|448:60,1,72.2500013780594,4|0,0:3|0:0,0:0:0:0:
366,248,96104,5,2,1:2:0:0:
349,257,96180,1,2,0:0:0:0:
326,265,96256,1,2,0:0:0:0:
297,271,96331,1,2,0:0:0:0:
262,270,96407,1,2,1:2:0:0:
221,260,96483,1,2,0:2:0:0:
176,232,96559,1,2,1:2:0:0:
145,182,96634,1,2,1:2:0:0:
152,116,96710,6,0,B|167:147|196:153|196:153|117:200|132:285,1,216.750004134178,4|0,1:2|0:0,0:0:0:0:
84,352,97013,2,0,P|59:327|49:293,1,72.2500013780594,10|0,1:2|0:0,0:0:0:0:
0,232,97165,2,0,P|9:197|33:171,1,72.2500013780594,4|0,0:3|0:0,0:0:0:0:
72,88,97316,2,0,B|198:105|187:188|250:197,1,216.750004134178,2|0,1:0|0:0,0:0:0:0:
404,113,97619,5,2,1:0:0:0:
365,91,97695,1,2,0:0:0:0:
396,85,97771,1,2,0:0:0:0:
376,120,97847,1,2,0:0:0:0:
416,16,97922,6,0,B|391:108|391:108|394:126|394:126|368:225,1,216.750004134178,2|0,1:0|0:0,0:0:0:0:
403,335,98225,6,0,B|437:325|437:325|428:290,1,72.2500013780594,10|0,1:2|0:0,0:0:0:0:
422,284,98377,2,0,B|387:293|387:293|396:328,1,72.2500013780594,4|0,0:3|0:0,0:0:0:0:
488,215,98528,5,2,1:0:0:0:
307,316,98680,6,0,L|286:311,1,21.25,2|0,0:1|0:0,0:0:0:0:
307,324,98756,2,0,L|320:307,1,21.25,2|0,0:1|0:0,0:0:0:0:
308,332,98831,5,2,1:2:0:0:
288,264,98907,1,2,0:0:0:0:
224,232,98983,1,2,1:2:0:0:
160,264,99059,1,2,1:0:0:0:
164,272,99134,2,0,B|180:304|180:304|80:264|23:354,1,216.750004134178,4|0,1:2|0:0,0:0:0:0:
120,384,99437,5,2,1:2:0:0:
140,368,99513,1,2,0:0:0:0:
144,348,99589,1,2,0:0:0:0:
136,328,99665,1,2,0:0:0:0:
116,316,99740,5,2,1:0:0:0:
80,284,99816,1,2,1:2:0:0:
60,224,99892,1,2,1:2:0:0:
84,160,99968,1,2,1:2:0:0:
152,136,100043,5,2,1:0:0:0:
192,104,100119,1,2,0:0:0:0:
200,60,100195,1,2,0:0:0:0:
184,32,100271,1,2,0:0:0:0:
164,32,100347,6,0,B|150:131|150:131|144:142|144:142|129:245,1,216.750004134178,2|0,1:2|0:0,0:0:0:0:
200,312,100650,2,0,P|205:211|109:181,1,216.750004134178,2|0,1:2|0:0,0:0:0:0:
24,353,100953,5,2,1:0:0:0:
88,384,101028,1,0,0:0:0:0:
156,364,101104,1,0,0:0:0:0:
224,336,101180,1,0,0:0:0:0:
292,352,101256,1,2,1:2:0:0:
300,364,101331,2,0,P|283:366|278:350,4,36.1250006890297
376,362,101559,6,0,B|410:275|324:244|331:261|246:230|280:145,1,267.749991828919,2|0,1:2|0:0,0:0:0:0:
280,144,101862,2,0,P|307:157|277:149,1,89.2499972763062,2|0,1:2|0:0,0:0:0:0:
372,96,102165,5,2,1:0:0:0:
396,88,102240,1,2,1:2:0:0:
408,72,102316,1,2,1:2:0:0:
412,48,102392,1,2,1:2:0:0:
360,0,102468,5,2,1:2:0:0:
372,72,102543,1,2,0:0:0:0:
384,144,102619,1,2,1:2:0:0:
396,216,102695,1,2,1:2:0:0:
448,268,102771,6,0,B|456:236|480:224|480:224|388:200|352:290,1,216.750004134178,2|0,1:0|0:0,0:0:0:0:
284,332,103074,5,2,1:2:0:0:
296,340,103150,1,2,0:0:0:0:
304,352,103225,1,2,0:0:0:0:
308,364,103301,1,2,0:0:0:0:
308,376,103377,2,0,B|212:367|212:367|191:373|191:373|92:365,1,216.750004134178,2|0,1:2|0:0,0:0:0:0:
19,282,103680,5,2,1:2:0:0:
19,237,103756,1,2,1:2:0:0:
60,224,103831,1,2,1:2:0:0:
86,260,103907,1,2,1:2:0:0:
60,294,103983,2,0,B|68:198|68:198|62:177|62:177|70:78,1,216.750004134178,2|0,1:0|0:0,0:0:0:0:
60,52,104286,6,0,B|49:173|49:173|57:198|57:198|46:317,1,267.749991828919,10|0,1:2|0:0,0:0:0:0:
136,363,104589,5,2,1:2:0:0:
139,367,104665,2,0,B|168:341|156:284|156:284|185:335|223:338,1,178.499994552612
244,248,104892,5,2,1:0:0:0:
260,232,104968,1,2,1:2:0:0:
280,224,105043,1,2,1:2:0:0:
304,224,105119,1,2,1:2:0:0:
364,272,105195,6,0,P|389:307|431:319,1,89.2499972763062,10|0,1:2|0:0,0:0:0:0:
472,256,105347,2,0,P|446:220|404:208,1,89.2499972763062
468,380,105498,6,0,B|482:285|379:271|399:130,1,267.749991828919,4|0,1:3|0:0,0:0:0:0:
327,364,105801,5,2,1:0:0:0:
327,364,105877,1,2,1:2:0:0:
327,364,105952,2,0,B|328:300|397:302|401:208,1,178.499994552612,2|2,1:2|1:2,0:0:0:0:
476,152,106180,2,0,L|484:196,5,44.6249986381531,0|0|2|2|2|0,0:0|0:0|0:0|0:0|0:0|0:0,0:0:0:0:
464,68,106407,5,4,0:0:0:0:
388,96,106710,1,2,0:0:0:0:
348,166,107013,1,2,0:0:0:0:
363,245,107316,1,2,0:0:0:0:
464,68,107619,5,2,0:0:0:0:
388,96,107922,1,2,0:0:0:0:
392,176,108225,1,2,0:0:0:0:
470,196,108528,1,2,0:0:0:0:
44,68,108831,5,4,0:0:0:0:
120,40,109134,1,2,0:0:0:0:
148,116,109437,1,2,0:0:0:0:
72,144,109740,1,2,0:0:0:0:
44,68,110043,5,2,0:0:0:0:
120,40,110346,1,2,0:0:0:0:
148,116,110649,1,2,0:0:0:0:
224,142,110952,1,2,0:0:0:0:
36,384,111255,5,4,0:0:0:0:
66,312,111558,1,2,0:0:0:0:
141,296,111861,1,2,0:0:0:0:
199,347,112164,1,2,0:0:0:0:
36,384,112467,5,2,0:0:0:0:
66,312,112770,1,2,0:0:0:0:
70,235,113073,1,2,0:0:0:0:
49,161,113376,1,2,0:0:0:0:
184,0,113679,5,4,0:0:0:0:
184,0,113983,1,2,0:0:0:0:
388,96,114286,5,2,0:0:0:0:
388,96,114590,1,2,0:0:0:0:
472,68,114892,2,0,L|376:84,2,96.8999988171387,2|2|2,0:0|0:0|0:0,0:0:0:0:
480,60,115801,5,2,0:0:0:0:
