osu file format v14

[General]
AudioFilename: audio.mp3
AudioLeadIn: 0
PreviewTime: 42165
Countdown: 0
SampleSet: Soft
StackLeniency: 0.5
Mode: 0
LetterboxInBreaks: 0
WidescreenStoryboard: 1

[Editor]
DistanceSpacing: 1
BeatDivisor: 4
GridSize: 4
TimelineZoom: 4.699998

[Metadata]
Title:::vexations
TitleUnicode:::vexations
Artist:Trerey-U
ArtistUnicode:Trerey-U
Creator:Seiioh
Version:::extra
Source:
Tags:Formless​:​: nankasuisui uytrere ambient instrumental electronic electronica
BeatmapID:3207047
BeatmapSetID:1570531

[Difficulty]
HPDrainRate:5.4
CircleSize:4.2
OverallDifficulty:8.5
ApproachRate:9.4
SliderMultiplier:1.6
SliderTickRate:1

[Events]
//Background and Video events
0,0,"67341258_p0.jpg",0,0
//Break Periods
2,61758,70715
2,81152,86170
//Storyboard Layer 0 (Background)
//Storyboard Layer 1 (Fail)
//Storyboard Layer 2 (Pass)
//Storyboard Layer 3 (Foreground)
//Storyboard Layer 4 (Overlay)
//Storyboard Sound Samples

[TimingPoints]
44,303.030303030303,4,2,10,45,1,0
10953,-83.3333333333333,4,2,10,70,0,0
18528,-83.3333333333333,4,2,10,55,0,0
18756,-83.3333333333333,4,2,10,5,0,0
18831,-83.3333333333333,4,2,10,55,0,0
23074,-83.3333333333333,4,2,10,70,0,0
23301,-83.3333333333333,4,2,10,5,0,0
23377,-83.3333333333333,4,2,10,70,0,0
31862,-111.111111111111,4,2,10,55,0,0
34488,-111.111111111111,4,2,10,5,0,0
34589,-111.111111111111,4,2,10,55,0,0
35119,-111.111111111111,4,2,10,5,0,0
35195,-111.111111111111,4,2,10,55,0,0
35725,-111.111111111111,4,2,10,5,0,0
35801,-111.111111111111,4,2,10,55,0,0
36937,-111.111111111111,4,2,10,5,0,0
37013,-111.111111111111,4,2,10,55,0,0
39437,-111.111111111111,4,2,10,60,0,0
40801,-90.9090909090908,4,2,10,65,0,0
41483,-90.9090909090908,4,2,10,5,0,0
41559,-76.9230769230769,4,2,10,65,0,0
41786,-76.9230769230769,4,2,10,5,0,0
41862,-76.9230769230769,4,2,10,65,0,0
42165,303.030303030303,4,2,10,80,1,0
42165,-71.4285714285714,4,2,10,80,0,1
42392,-71.4285714285714,4,2,10,5,0,1
42468,-71.4285714285714,4,2,10,75,0,1
42771,-71.4285714285714,4,2,10,75,0,0
42922,-71.4285714285714,4,2,10,75,0,1
43377,-55.5555555555556,4,2,10,75,0,0
43604,-55.5555555555556,4,2,10,5,0,0
43680,-55.5555555555556,4,2,10,75,0,1
43983,-71.4285714285714,4,2,10,75,0,1
44589,-71.4285714285714,4,2,10,75,0,0
44816,-71.4285714285714,4,2,10,5,0,0
44892,-71.4285714285714,4,2,10,75,0,1
50119,-71.4285714285714,4,2,10,75,0,0
50346,-71.4285714285714,4,2,10,75,0,1
56861,-71.4285714285714,4,2,10,75,0,0
57165,-71.4285714285714,4,2,10,75,0,1
61558,-71.4285714285714,4,2,10,45,0,0
71255,-153.846153846154,4,2,10,45,0,0
87013,-62.5,4,2,10,75,0,0
87240,-62.5,4,2,10,5,0,0
87316,-62.5,4,2,10,75,0,0
87543,-62.5,4,2,10,5,0,0
87619,-62.5,4,2,10,75,0,0
88755,-62.5,4,2,10,5,0,0
88831,-62.5,4,2,10,75,0,0
89665,-62.5,4,2,10,5,0,0
89740,-62.5,4,2,10,75,0,0
89968,-62.5,4,2,10,5,0,0
90043,-62.5,4,2,10,75,0,0
90877,-62.5,4,2,10,5,0,0
90952,-62.5,4,2,10,75,0,0
92089,-62.5,4,2,10,5,0,0
92165,-62.5,4,2,10,75,0,0
93301,-62.5,4,2,10,5,0,0
93377,-62.5,4,2,10,75,0,0
93907,-62.5,4,2,10,5,0,0
93983,-62.5,4,2,10,75,0,0
94513,-62.5,4,2,10,5,0,0
94589,-62.5,4,2,10,75,0,0
94816,-62.5,4,2,10,5,0,0
94892,-62.5,4,2,10,75,0,0
95725,-62.5,4,2,10,5,0,0
95801,-62.5,4,2,10,75,0,0
96937,-62.5,4,2,10,5,0,0
97013,-62.5,4,2,10,75,0,0
97240,-62.5,4,2,10,5,0,0
97316,-62.5,4,2,10,75,0,0
99361,-62.5,4,2,10,5,0,0
99437,-62.5,4,2,10,75,0,0
101786,-62.5,4,2,10,5,0,0
101862,-62.5,4,2,10,75,0,0
102998,-62.5,4,2,10,5,0,0
103074,-62.5,4,2,10,75,0,0
103604,-62.5,4,2,10,5,0,0
103680,-62.5,4,2,10,75,0,0
104210,-62.5,4,2,10,5,0,0
104286,-62.5,4,2,10,75,0,0
106407,-62.5,4,2,10,45,0,0

[Colours]
Combo1 : 63,137,182
Combo2 : 212,212,212
Combo3 : 168,168,168
Combo4 : 202,232,255
Combo5 : 120,170,220
Combo6 : 139,187,216

[HitObjects]
104,76,10953,6,0,B|83:31|83:31|88:78,2,95.9999970703126,12|0|0,1:2|0:0|1:0,0:0:0:0:
116,156,11407,5,2,0:0:0:0:
116,156,11483,1,2,0:0:0:0:
116,156,11559,2,0,B|159:148|154:120|200:112,1,95.9999970703126,0|0,1:0|0:0,0:0:0:0:
224,20,11862,2,0,B|267:27|262:55|308:63,1,95.9999970703126,2|2,1:0|0:0,0:0:0:0:
404,24,12165,6,0,P|393:38|408:28,1,47.9999985351563,8|0,1:0|0:0,0:0:0:0:
412,16,12316,2,0,P|418:37|398:48,1,47.9999985351563
484,80,12468,5,0,1:0:0:0:
488,100,12544,1,2,1:0:0:0:
504,168,12619,5,2,1:2:0:0:
508,188,12695,1,2,1:2:0:0:
484,260,12771,6,0,L|436:251,1,47.9999985351563,2|2,1:2|1:2,0:0:0:0:
424,320,12922,2,0,L|471:328,1,47.9999985351563,2|2,0:0|0:0,0:0:0:0:
492,256,13074,6,0,L|444:247,3,47.9999985351563,0|2|2|2,1:0|0:0|0:0|0:0,0:0:0:0:
388,196,13377,5,0,1:0:0:0:
372,200,13453,2,0,L|356:294,1,95.9999970703126
288,260,13680,6,0,L|240:251,3,47.9999985351563,2|2|2|2,1:0|0:0|0:0|0:0,0:0:0:0:
116,329,14134,6,0,L|164:320,2,47.9999985351563,2|2|2,0:0|0:0|1:0,0:0:0:0:
0,384,14437,5,0,0:0:0:0:
0,384,14513,1,0,0:0:0:0:
0,384,14589,2,0,P|15:366|20:342,1,47.9999985351563,2|0,1:0|0:0,0:0:0:0:
56,280,14740,2,0,P|56:256|45:235,1,47.9999985351563
32,164,14892,2,0,P|24:154|13:150,3,23.9999992675781,0|0|0|0,1:0|0:0|0:0|0:0,0:0:0:0:
56,88,15044,2,0,P|63:97|74:101,3,23.9999992675781,2|2|2|0,0:0|0:0|0:0|0:0,0:0:0:0:
100,32,15195,5,2,1:0:0:0:
164,134,15347,1,0,1:0:0:0:
164,134,15422,1,0,1:0:0:0:
164,134,15498,2,0,L|211:126,1,47.9999985351563,0|2,1:0|0:0,0:0:0:0:
260,70,15650,2,0,L|307:62,1,47.9999985351563
384,144,15801,6,0,L|376:97,1,47.9999985351563,0|0,1:0|0:0,0:0:0:0:
424,4,15953,2,0,L|432:51,1,47.9999985351563,2|0,0:0|0:0,0:0:0:0:
392,148,16104,2,0,L|384:101,1,47.9999985351563,0|0,1:0|0:0,0:0:0:0:
472,148,16256,5,2,0:0:0:0:
468,171,16331,1,2,0:0:0:0:
457,193,16407,1,0,1:0:0:0:
441,210,16483,1,0,0:0:0:0:
419,224,16559,2,0,P|399:236|386:256,1,47.9999985351563,0|0,1:0|1:0,0:0:0:0:
320,292,16710,2,0,P|321:339|342:382,1,95.9999970703126,0|0,1:0|0:0,0:0:0:0:
460,332,16937,1,0,0:0:0:0:
460,332,17013,6,0,P|459:308|449:287,4,47.9999985351563,2|0|0|0|0,1:0|0:0|0:0|0:0|0:0,0:0:0:0:
385,256,17468,1,2,0:0:0:0:
342,382,17619,1,0,1:0:0:0:
316,376,17695,1,0,1:0:0:0:
290,370,17771,1,0,1:0:0:0:
264,364,17847,1,0,1:0:0:0:
216,304,17922,6,0,L|168:312,1,47.9999985351563,2|0,2:0|0:0,0:0:0:0:
96,328,18074,2,0,L|48:336,1,47.9999985351563,0|2,0:0|2:0,0:0:0:0:
0,272,18225,6,0,L|23:267,1,23.9999992675781,2|0,1:0|0:0,0:0:0:0:
22,242,18301,2,0,L|33:263,1,23.9999992675781,2|0,0:1|0:0,0:0:0:0:
57,255,18377,2,0,L|40:272,1,23.9999992675781,2|0,0:1|0:0,0:0:0:0:
55,294,18453,2,0,L|33:283,1,23.9999992675781,2|0,0:1|0:0,0:0:0:0:
19,304,18528,2,0,L|22:280,1,23.9999992675781,0|0,1:0|0:0,0:0:0:0:
116,156,18831,5,2,1:0:0:0:
124,164,18907,1,0,0:0:0:0:
132,172,18983,1,2,0:0:0:0:
140,180,19059,1,0,0:0:0:0:
148,188,19134,2,0,L|153:140,2,47.9999985351563,2|2|2,1:0|0:0|0:0,0:0:0:0:
24,48,19437,5,2,1:0:0:0:
35,49,19512,1,2,0:0:0:0:
47,50,19588,1,2,0:0:0:0:
59,52,19664,1,2,0:0:0:0:
132,60,19740,5,2,1:0:0:0:
143,61,19815,1,2,0:0:0:0:
155,62,19891,1,2,0:0:0:0:
167,64,19967,1,2,0:0:0:0:
240,72,20043,2,0,L|288:77,3,47.9999985351563,2|2|2|2,1:0|0:0|0:0|0:0,0:0:0:0:
352,44,20347,5,2,1:0:0:0:
352,44,20422,1,2,0:0:0:0:
352,44,20498,1,2,0:0:0:0:
452,144,20650,2,0,P|464:189|450:235,1,95.9999970703126,2|2,1:0|0:0,0:0:0:0:
380,256,20877,1,2,0:0:0:0:
380,256,20953,2,0,P|344:285|297:288,1,95.9999970703126,2|2,1:0|0:0,0:0:0:0:
312,184,21256,1,2,1:0:0:0:
450,235,21407,6,0,L|495:250,2,47.9999985351563,2|2|2,0:0|0:0|1:0,0:0:0:0:
379,256,21710,2,0,L|403:297,2,47.9999985351563,2|2|2,0:0|0:0|1:0,0:0:0:0:
311,226,22013,2,0,L|303:273,2,47.9999985351563,2|2|2,0:0|0:0|1:0,0:0:0:0:
278,159,22316,2,0,L|241:190,2,47.9999985351563,2|2|2,0:0|0:0|1:0,0:0:0:0:
295,86,22619,2,0,L|247:87,2,47.9999985351563,2|2|2,0:0|0:0|1:0,0:0:0:0:
354,41,22922,2,0,L|316:10,1,47.9999985351563,2|2,0:0|0:0,0:0:0:0:
448,48,23074,6,0,B|438:115|394:109|385:175,1,143.999995605469,2|0,1:0|0:0,0:0:0:0:
408,308,23377,6,0,B|412:336|429:353|429:353|420:332|423:308,2,95.9999970703126,12|0|0,1:2|0:0|1:0,0:0:0:0:
396,228,23831,5,2,0:0:0:0:
396,228,23907,1,2,0:0:0:0:
396,228,23983,2,0,B|352:248|352:248|352:256|352:256|315:270,1,95.9999970703126,0|0,1:0|0:0,0:0:0:0:
288,364,24286,2,0,B|244:344|244:344|244:336|244:336|207:321,1,95.9999970703126,2|2,1:0|0:0,0:0:0:0:
108,360,24589,6,0,P|119:346|104:356,1,47.9999985351563,8|0,1:0|0:0,0:0:0:0:
100,368,24740,2,0,P|94:347|114:336,1,47.9999985351563
28,304,24892,5,0,1:0:0:0:
24,284,24968,1,2,1:0:0:0:
60,220,25043,5,2,1:2:0:0:
56,200,25119,1,2,1:2:0:0:
72,128,25195,6,0,L|81:80,1,47.9999985351563,2|2,1:2|1:2,0:0:0:0:
12,64,25346,2,0,L|4:111,1,47.9999985351563,2|2,0:0|0:0,0:0:0:0:
56,200,25498,6,0,L|104:209,3,47.9999985351563,0|2|0|2,1:0|0:0|0:0|0:0,0:0:0:0:
160,272,25801,5,0,1:0:0:0:
168,284,25877,2,0,L|187:190,1,95.9999970703126
180,116,26104,6,0,L|228:125,3,47.9999985351563,2|2|2|2,1:0|0:0|0:0|0:0,0:0:0:0:
396,55,26558,6,0,L|348:64,2,47.9999985351563,2|2|2,0:0|0:0|1:0,0:0:0:0:
512,0,26861,5,2,0:0:0:0:
512,0,26937,1,2,0:0:0:0:
512,0,27013,2,0,B|497:18|497:18|492:42,1,47.9999985351563,2|0,1:0|0:0,0:0:0:0:
456,104,27164,2,0,B|456:128|456:128|467:149,1,47.9999985351563
480,220,27316,2,0,B|488:230|488:230|499:234,3,23.9999992675781,2|0|2|0,1:2|0:0|0:0|0:0,0:0:0:0:
456,296,27468,2,0,B|449:287|449:287|438:283,3,23.9999992675781,2|2|2|0,0:0|0:0|0:0|0:0,0:0:0:0:
412,352,27619,5,2,1:0:0:0:
348,250,27771,1,2,0:0:0:0:
348,250,27846,1,2,0:0:0:0:
348,250,27922,2,0,L|301:258,1,47.9999985351563,0|0,1:0|0:0,0:0:0:0:
268,328,28074,2,0,L|221:320,1,47.9999985351563
268,340,28225,6,0,L|221:332,1,47.9999985351563,0|0,1:0|0:0,0:0:0:0:
184,224,28377,2,0,L|176:271,1,47.9999985351563,2|2,0:0|0:0,0:0:0:0:
68,308,28528,2,0,L|115:316,1,47.9999985351563,2|2,1:2|0:0,0:0:0:0:
40,236,28680,5,2,0:0:0:0:
44,213,28755,1,2,0:0:0:0:
55,191,28831,1,0,1:0:0:0:
71,174,28907,1,2,0:0:0:0:
93,160,28983,2,0,P|113:148|126:128,1,47.9999985351563,0|0,1:0|1:0,0:0:0:0:
192,92,29134,2,0,P|191:45|170:2,1,95.9999970703126,0|0,1:0|0:0,0:0:0:0:
52,52,29361,1,2,0:0:0:0:
52,52,29437,6,0,P|53:76|63:97,4,47.9999985351563,0|0|0|0|2,1:0|0:0|0:0|0:0|1:2,0:0:0:0:
127,128,29892,1,2,0:0:0:0:
170,2,30043,1,0,1:0:0:0:
196,8,30119,1,0,1:0:0:0:
222,14,30195,1,0,1:0:0:0:
248,20,30271,1,0,1:0:0:0:
296,80,30346,6,0,L|344:72,1,47.9999985351563,2|0,1:0|0:0,0:0:0:0:
416,60,30498,2,0,L|464:52,1,47.9999985351563,0|2,0:0|0:0,0:0:0:0:
512,112,30650,2,0,L|369:88,1,143.999995605469,2|0,1:2|0:0,0:0:0:0:
296,80,30953,6,0,L|300:50,1,23.9999992675781,2|0,1:0|0:0,0:0:0:0:
287,82,31028,2,0,L|291:52,1,23.9999992675781,2|0,0:1|0:0,0:0:0:0:
279,85,31104,2,0,L|283:55,1,23.9999992675781,2|0,0:1|0:0,0:0:0:0:
270,88,31180,2,0,L|274:58,1,23.9999992675781,2|0,0:1|0:0,0:0:0:0:
262,91,31256,2,0,L|266:61,1,23.9999992675781,2|0,1:0|0:0,0:0:0:0:
253,94,31331,2,0,L|257:64,1,23.9999992675781,2|0,0:1|0:0,0:0:0:0:
245,97,31407,2,0,L|249:67,1,23.9999992675781,2|0,0:1|0:0,0:0:0:0:
236,99,31483,2,0,L|240:69,1,23.9999992675781,2|0,0:1|0:0,0:0:0:0:
196,8,31559,5,4,1:2:0:0:
196,8,31862,6,0,P|176:37|144:52,1,71.9999978027344,0|0,1:0|0:0,0:0:0:0:
96,108,32089,1,2,0:0:0:0:
96,108,32165,2,0,P|60:105|31:84,1,71.9999978027344,0|0,1:0|0:0,0:0:0:0:
12,12,32392,1,2,0:0:0:0:
12,12,32468,1,0,1:0:0:0:
143,52,32619,1,0,0:0:0:0:
102,183,32771,6,0,P|95:217|102:252,1,71.9999978027344,0|2,1:0|0:0,0:0:0:0:
80,320,33074,2,0,P|90:334|104:345,1,35.9999989013672,0|0,1:0|0:0,0:0:0:0:
100,352,33225,2,0,P|86:341|76:327,1,35.9999989013672,2|0,0:0|0:0,0:0:0:0:
102,252,33377,5,0,1:0:0:0:
268,340,33528,1,0,0:0:0:0:
268,340,33604,1,2,0:0:0:0:
268,340,33680,2,0,B|318:331|318:331|320:327|320:327|372:318,1,107.999996704102,0|0,1:0|0:0,0:0:0:0:
452,360,33983,6,0,L|499:367,2,47.9999985351563,2|2|2,1:2|0:0|0:0,0:0:0:0:
348,236,34286,6,0,B|359:172|406:181|418:113,1,143.999995605469,2|2,1:2|1:0,0:0:0:0:
417,113,34892,6,0,P|411:77|388:50,1,71.9999978027344,0|0,1:0|0:0,0:0:0:0:
280,24,35195,6,0,P|264:32|251:45,1,35.9999989013672,0|0,1:0|0:0,0:0:0:0:
227,116,35347,2,0,P|226:133|231:151,1,35.9999989013672,2|0,0:0|0:0,0:0:0:0:
276,216,35498,6,0,L|311:210,1,35.9999989013672,2|0,1:0|0:0,0:0:0:0:
320,200,35650,2,0,L|284:205,1,35.9999989013672
219,287,35801,6,0,L|183:281,1,35.9999989013672,0|0,1:0|0:0,0:0:0:0:
175,271,35953,2,0,L|210:276,1,35.9999989013672,2|0,0:0|0:0,0:0:0:0:
272,355,36104,6,0,P|300:310|298:257,1,107.999996704102,8|0,1:2|0:0,0:0:0:0:
328,192,36407,6,0,P|313:181|302:167,1,35.9999989013672,0|0,1:0|0:0,0:0:0:0:
351,116,36559,2,0,P|365:126|376:140,1,35.9999989013672,2|0,0:0|0:0,0:0:0:0:
400,212,36710,1,0,1:0:0:0:
280,100,36862,1,0,0:0:0:0:
307,231,37013,1,0,1:0:0:0:
372,80,37165,1,2,0:0:0:0:
220,15,37316,2,0,L|184:19,2,35.9999989013672,0|0|0,1:0|0:0|0:0,0:0:0:0:
315,111,37619,2,0,L|351:116,2,35.9999989013672,2|2|2,1:0|0:0|0:0,0:0:0:0:
220,207,37922,2,0,L|184:212,2,35.9999989013672,2|2|2,1:0|0:0|0:0,0:0:0:0:
256,296,38225,5,2,1:0:0:0:
256,304,38301,1,2,0:0:0:0:
256,312,38377,1,2,0:0:0:0:
256,88,38528,5,2,1:0:0:0:
256,80,38604,1,2,0:0:0:0:
256,72,38680,1,2,0:0:0:0:
256,64,38756,1,2,0:0:0:0:
255,32,38831,6,0,P|271:23|288:17,2,35.9999989013672,2|2|2,1:0|0:0|0:0,0:0:0:0:
168,140,39134,5,2,1:0:0:0:
132,120,39210,1,2,0:0:0:0:
92,112,39286,1,2,0:0:0:0:
48,120,39362,1,2,0:0:0:0:
15,144,39437,2,0,P|8:160|6:178,3,35.9999989013672,2|2|2|0,1:2|0:0|0:0|0:0,0:0:0:0:
64,248,39740,5,2,1:0:0:0:
64,248,39816,1,2,0:0:0:0:
64,248,39892,1,2,0:0:0:0:
64,248,39968,1,2,0:0:0:0:
64,248,40043,2,0,P|80:279|80:315,2,71.9999978027344,2|2|2,1:0|0:0|1:0,0:0:0:0:
140,384,40498,5,2,0:0:0:0:
152,380,40574,1,2,0:0:0:0:
164,376,40650,1,2,1:0:0:0:
224,292,40801,6,0,B|263:298|263:298|266:303|266:303|308:310,1,88.000002685547,12|0,0:3|1:0,0:0:0:0:
288,180,41104,1,2,0:0:0:0:
200,296,41256,6,0,B|259:306|259:306|263:313|263:313|326:324,1,132.00000402832,12|0,1:3|0:0,0:0:0:0:
416,344,41559,6,0,B|427:277|376:268|389:193,1,155.999992858887,12|0,1:3|0:0,0:0:0:0:
428,112,41862,5,2,1:2:0:0:
427,80,41937,1,2,1:2:0:0:
398,70,42013,1,2,1:2:0:0:
379,96,42089,1,2,1:2:0:0:
397,121,42165,6,0,B|476:104|476:104|458:18,1,167.999994873047,12|0,0:3|0:0,0:0:0:0:
440,8,42468,2,0,L|451:62,1,55.9999982910157,2|0,1:0|0:0,0:0:0:0:
468,136,42619,2,0,L|479:190,1,55.9999982910157,10|0,0:0|0:0,0:0:0:0:
512,256,42771,1,0,1:0:0:0:
326,324,42922,5,2,0:0:0:0:
308,320,42998,1,2,0:0:0:0:
260,336,43074,5,2,1:2:0:0:
248,321,43150,1,2,0:0:0:0:
200,302,43225,5,2,0:0:0:0:
201,283,43301,1,2,0:0:0:0:
176,236,43377,6,0,B|204:156|204:156|200:124|200:124|230:29,1,215.999993408203,2|0,1:0|0:0,0:0:0:0:
240,40,43680,2,0,L|308:61,1,71.9999978027344,2|0,1:2|0:0,0:0:0:0:
168,124,43831,2,0,L|99:102,1,71.9999978027344,2|0,0:0|0:0,0:0:0:0:
252,232,43983,5,2,1:0:0:0:
236,300,44058,1,2,0:0:0:0:
168,324,44134,2,0,L|112:316,1,55.9999982910157,2|0,0:0|0:0,0:0:0:0:
48,220,44286,5,2,1:0:0:0:
64,228,44361,1,2,0:0:0:0:
61,212,44437,2,0,L|5:220,1,55.9999982910157,2|0,0:0|0:0,0:0:0:0:
81,85,44589,6,0,L|102:252,1,167.999994873047,4|0,1:0|0:0,0:0:0:0:
55,366,44892,5,0,1:0:0:0:
57,324,44967,1,2,0:0:0:0:
85,295,45043,1,2,0:0:0:0:
126,289,45119,1,2,0:0:0:0:
161,312,45195,5,2,1:2:0:0:
200,320,45271,1,2,0:0:0:0:
232,348,45346,5,2,0:0:0:0:
267,329,45422,1,2,0:0:0:0:
309,329,45498,5,2,1:2:0:0:
324,292,45574,1,2,0:0:0:0:
356,265,45649,5,2,0:0:0:0:
343,227,45725,1,2,0:0:0:0:
340,143,45801,6,0,P|363:158|390:161,1,55.9999982910157,4|0,1:3|0:0,0:0:0:0:
456,192,45952,2,0,P|480:179|497:157,1,55.9999982910157
472,88,46104,5,2,1:2:0:0:
396,244,46255,1,2,0:0:0:0:
396,244,46331,1,2,0:0:0:0:
396,244,46407,2,0,L|405:299,1,55.9999982910157,2|2,1:0|0:0,0:0:0:0:
484,384,46558,2,0,L|474:328,1,55.9999982910157,2|2,0:0|0:0,0:0:0:0:
333,312,46710,5,2,1:2:0:0:
277,321,46785,1,2,0:0:0:0:
222,331,46861,1,2,0:0:0:0:
167,341,46937,1,2,0:0:0:0:
103,383,47013,6,0,P|97:304|165:263,1,167.999994873047,2|0,1:0|0:0,0:0:0:0:
165,263,47316,1,2,1:2:0:0:
112,384,47468,6,0,L|97:216,1,167.999994873047,6|0,0:3|0:0,0:0:0:0:
128,104,47771,2,0,L|123:48,3,55.9999982910157,2|2|2|2,1:2|1:2|1:2|1:2,0:0:0:0:
40,128,48074,5,2,0:1:0:0:
48,136,48149,1,2,0:0:0:0:
56,144,48225,2,0,L|111:138,1,55.9999982910157,4|2,0:3|0:0,0:0:0:0:
256,52,48377,2,0,L|200:57,1,55.9999982910157,2|2,0:0|0:0,0:0:0:0:
340,143,48528,2,0,L|395:137,1,55.9999982910157,2|2,1:2|0:0,0:0:0:0:
448,48,48680,5,2,0:0:0:0:
440,40,48755,1,2,0:0:0:0:
432,32,48831,1,2,1:2:0:0:
424,24,48907,1,0,0:0:0:0:
416,16,48983,2,0,P|404:41|405:69,1,55.9999982910157,2|0,0:0|0:0,0:0:0:0:
464,120,49134,2,0,P|480:142|504:155,3,55.9999982910157,2|2|2|2,1:2|1:2|1:2|1:2,0:0:0:0:
436,212,49437,5,10,0:0:0:0:
432,224,49513,1,0,0:0:0:0:
408,288,49589,5,2,0:0:0:0:
397,294,49665,1,2,0:0:0:0:
337,327,49740,5,2,1:2:0:0:
325,325,49816,1,0,0:0:0:0:
257,311,49892,5,2,0:0:0:0:
249,302,49968,1,0,0:0:0:0:
205,246,50043,6,0,P|215:221|216:193,1,55.9999982910157,2|2,1:0|0:0,0:0:0:0:
140,176,50195,2,0,P|129:201|128:229,1,55.9999982910157
191,119,50346,5,2,1:0:0:0:
169,103,50421,1,2,0:0:0:0:
142,97,50497,1,2,0:0:0:0:
114,101,50573,1,2,0:0:0:0:
91,115,50649,6,0,P|63:114|38:101,1,55.9999982910157,4|0,1:3|0:0,0:0:0:0:
60,28,50801,2,0,P|87:28|112:41,1,55.9999982910157,2|0,0:0|0:0,0:0:0:0:
189,12,50952,2,0,P|205:65|191:119,1,111.999996582031,2|2,1:2|0:0,0:0:0:0:
215,192,51180,1,2,0:0:0:0:
215,192,51255,2,0,P|160:199|115:232,1,111.999996582031,2|2,1:0|0:0,0:0:0:0:
40,240,51483,1,2,0:0:0:0:
40,240,51558,2,0,P|33:266|33:294,1,55.9999982910157,4|0,1:3|0:0,0:0:0:0:
112,304,51710,2,0,P|119:277|119:249,1,55.9999982910157,0|2,0:0|0:0,0:0:0:0:
64,372,51861,6,0,B|143:378|143:378|152:375|152:375|230:382,1,167.999994873047,2|2,1:2|0:0,0:0:0:0:
312,384,52165,2,0,L|316:328,1,55.9999982910157,10|0,1:2|0:0,0:0:0:0:
245,317,52316,2,0,L|240:372,1,55.9999982910157,2|0,0:0|0:0,0:0:0:0:
369,279,52468,2,0,L|364:223,1,55.9999982910157,2|0,1:0|1:0,0:0:0:0:
436,212,52619,2,0,L|440:267,1,55.9999982910157,2|0,1:2|1:0,0:0:0:0:
304,151,52771,5,2,1:2:0:0:
322,114,52846,1,2,1:2:0:0:
354,87,52922,1,2,1:2:0:0:
393,74,52998,1,2,1:2:0:0:
435,78,53074,2,0,P|462:82|489:75,3,55.9999982910157,2|2|2|2,1:0|0:0|0:0|0:0,0:0:0:0:
354,87,53377,6,0,P|348:59|332:37,1,55.9999982910157,4|0,1:3|0:0,0:0:0:0:
268,68,53528,2,0,P|273:95|289:117,1,55.9999982910157,2|2,0:0|0:0,0:0:0:0:
200,32,53680,5,2,1:0:0:0:
180,28,53755,1,0,0:0:0:0:
108,48,53831,5,2,0:0:0:0:
88,44,53906,1,0,0:0:0:0:
24,80,53983,5,2,1:2:0:0:
24,130,54059,1,2,1:2:0:0:
71,145,54135,1,2,1:2:0:0:
101,105,54211,1,2,1:2:0:0:
70,64,54286,6,0,P|48:114|55:169,1,111.999996582031,4|2,1:3|0:0,0:0:0:0:
156,232,54513,1,0,0:0:0:0:
167,235,54589,2,0,P|156:209|135:190,1,55.9999982910157,2|2,1:2|1:2,0:0:0:0:
33,268,54740,2,0,P|60:260|88:264,1,55.9999982910157,2|2,1:2|1:2,0:0:0:0:
168,348,54892,5,2,1:0:0:0:
156,359,54968,1,2,0:0:0:0:
144,348,55043,1,2,0:0:0:0:
156,336,55119,1,2,0:0:0:0:
184,348,55195,6,0,L|128:341,1,55.9999982910157,4|0,1:3|0:0,0:0:0:0:
284,272,55346,2,0,L|228:278,1,55.9999982910157,4|0,0:3|0:0,0:0:0:0:
416,368,55498,2,0,L|360:361,1,55.9999982910157,4|2,1:3|0:0,0:0:0:0:
452,224,55649,5,2,0:0:0:0:
452,224,55725,1,2,0:0:0:0:
452,224,55801,2,0,L|465:112,1,111.999996582031,2|2,1:0|0:0,0:0:0:0:
376,40,56028,1,0,0:0:0:0:
376,40,56104,2,0,L|369:95,3,55.9999982910157,2|0|2|0,0:0|0:0|0:0|0:0,0:0:0:0:
312,168,56407,5,2,1:2:0:0:
286,134,56482,1,2,1:2:0:0:
252,110,56558,1,2,1:2:0:0:
213,96,56634,1,2,1:2:0:0:
171,95,56710,6,0,B|123:65|79:107|79:107|51:109|27:135|27:135|78:78|131:113,1,279.999991455078,10|0,1:2|0:0,0:0:0:0:
84,180,57165,6,0,B|94:195|90:208|90:208|89:196|81:184,1,55.9999982910157,10|0,0:0|0:0,0:0:0:0:
172,228,57316,5,2,1:0:0:0:
148,262,57391,1,2,1:2:0:0:
133,301,57467,1,2,1:2:0:0:
129,343,57543,1,2,1:2:0:0:
135,383,57619,2,0,P|153:363|158:335,1,55.9999982910157,2|2,1:0|0:0,0:0:0:0:
84,304,57771,2,0,P|65:324|60:352,1,55.9999982910157,2|2,0:0|0:0,0:0:0:0:
231,376,57922,5,2,1:0:0:0:
287,368,57998,1,2,0:0:0:0:
343,361,58074,1,2,0:0:0:0:
398,353,58149,1,2,0:0:0:0:
465,374,58225,5,2,1:2:0:0:
453,361,58300,1,2,1:2:0:0:
436,353,58376,1,2,1:2:0:0:
418,350,58452,1,2,1:2:0:0:
398,353,58528,6,0,P|418:335|428:309,1,55.9999982910157,2|0,1:0|0:0,0:0:0:0:
476,256,58680,2,0,P|469:228|452:207,1,55.9999982910157,2|0,0:0|0:0,0:0:0:0:
316,148,58831,6,0,P|310:175|317:201,1,55.9999982910157,2|0,1:2|0:0,0:0:0:0:
309,272,58983,2,0,P|329:290|356:297,1,55.9999982910157,2|0,0:0|0:0,0:0:0:0:
512,196,59134,6,0,L|345:172,1,167.999994873047,2|0,1:0|0:0,0:0:0:0:
260,88,59437,2,0,L|204:95,1,55.9999982910157,4|2,1:3|0:0,0:0:0:0:
84,180,59589,5,4,0:3:0:0:
84,180,59665,1,0,0:0:0:0:
84,179,59740,1,8,1:2:0:0:
121,154,59815,1,2,0:0:0:0:
134,110,59891,1,2,0:0:0:0:
115,68,59967,1,2,0:0:0:0:
74,48,60043,2,0,P|48:37|30:17,3,55.9999982910157,2|2|2|2,1:0|1:2|1:2|1:2,0:0:0:0:
134,110,60346,5,4,1:0:0:0:
152,104,60422,1,2,1:2:0:0:
200,88,60498,5,2,1:2:0:0:
217,81,60574,1,2,1:2:0:0:
265,64,60649,5,2,1:2:0:0:
319,65,60724,1,0,1:0:0:0:
351,108,60800,1,2,1:0:0:0:
337,160,60876,1,0,1:0:0:0:
286,180,60952,6,0,P|265:198|253:223,1,55.9999982910157,2|2,1:0|0:0,0:0:0:0:
208,276,61104,2,0,P|212:303|227:326,1,55.9999982910157,2|2,0:0|0:0,0:0:0:0:
268,384,61255,5,2,1:2:0:0:
286,381,61330,1,2,1:2:0:0:
305,379,61406,1,2,1:2:0:0:
323,377,61482,1,2,1:2:0:0:
380,328,61558,5,2,1:2:0:0:
380,328,71255,6,0,B|265:318|264:162|264:162|313:261|371:245|392:326|392:326|416:394|510:426|565:317|490:274|462:275|462:275|508:303|496:350,1,779.999964294435,2|0,1:2|0:0,0:0:0:0:
424,80,73680,6,0,B|388:62|352:93|352:93|352:53|401:0|508:22|543:142|446:226|361:191|361:191|273:155|246:288|348:350|348:350|308:319|308:272,1,779.999964294435,2|0,1:2|0:0,0:0:0:0:
144,244,76104,6,0,B|105:282|145:306|121:342|121:342|145:306|185:338|216:276|216:276|208:244|216:212|216:212|241:142|137:142|137:142|53:142|53:206|-14:154|-14:154|49:174|81:126|81:126|125:142|165:126,1,779.999964294435,2|0,1:2|0:0,0:0:0:0:
312,24,78528,6,0,P|332:70|321:120,1,103.999995239258,2|0,1:2|0:0,0:0:0:0:
199,24,79134,2,0,P|179:70|190:120,2,103.999995239258,2|0|2,1:2|0:0|1:2,0:0:0:0:
256,168,80043,1,0,0:0:0:0:
256,0,80346,5,2,1:2:0:0:
256,8,80422,1,2,0:0:0:0:
256,16,80498,1,2,0:0:0:0:
256,24,80574,1,2,0:0:0:0:
300,80,80649,5,2,0:0:0:0:
300,96,80725,1,2,0:0:0:0:
300,112,80801,1,2,0:0:0:0:
300,128,80877,1,2,0:0:0:0:
256,192,80952,5,4,1:0:0:0:
100,72,86710,5,2,0:0:0:0:
100,72,86786,1,2,0:0:0:0:
100,72,86861,1,2,0:0:0:0:
100,72,86937,1,2,0:0:0:0:
100,72,87013,6,0,B|182:86|196:7|279:22,1,192,4|0,1:2|0:0,0:0:0:0:
348,76,87316,2,0,P|388:4|439:68,1,192,0|0,1:0|0:0,0:0:0:0:
496,120,87619,5,2,1:0:0:0:
480,128,87695,1,0,0:0:0:0:
472,144,87771,1,0,0:0:0:0:
476,160,87846,1,0,0:0:0:0:
500,180,87922,5,2,1:0:0:0:
512,224,87998,1,2,0:0:0:0:
500,268,88074,1,2,0:0:0:0:
468,300,88149,1,2,0:0:0:0:
424,312,88225,6,0,L|360:304,1,64,2|0,1:2|0:0,0:0:0:0:
276,216,88377,2,0,L|339:223,1,64
308,384,88528,2,0,P|237:325|252:235,1,192,2|2,1:2|0:0,0:0:0:0:
184,132,88831,1,2,1:2:0:0:
184,132,88907,1,2,0:0:0:0:
184,132,88983,2,0,P|186:163|171:191,1,64,2|2,0:0|0:0,0:0:0:0:
160,264,89134,5,2,1:2:0:0:
133,281,89209,1,2,0:0:0:0:
102,288,89285,1,2,0:0:0:0:
70,283,89361,1,2,0:0:0:0:
42,267,89437,6,0,B|32:188|32:188|40:164|40:164|28:77,1,192,4|0,1:2|0:0,0:0:0:0:
120,0,89740,2,0,B|110:79|110:79|118:103|118:103|106:189,1,192,2|2,1:2|0:0,0:0:0:0:
160,264,90043,5,2,1:2:0:0:
191,269,90118,1,2,0:0:0:0:
223,274,90194,1,2,0:1:0:0:
254,279,90270,1,2,0:0:0:0:
286,285,90346,2,0,L|348:271,1,64,2|2,1:0|0:0,0:0:0:0:
460,192,90498,5,2,0:1:0:0:
460,192,90574,1,2,0:0:0:0:
460,192,90649,2,0,P|384:142|388:50,1,192,10|0,1:2|0:0,0:0:0:0:
456,16,90952,2,0,P|463:46|458:78,1,64,2|0,1:2|0:0,0:0:0:0:
376,116,91104,2,0,P|353:138|323:149,1,64,2|0,0:0|0:0,0:0:0:0:
255,191,91255,5,2,1:2:0:0:
244,168,91330,1,2,0:0:0:0:
224,144,91406,1,2,0:0:0:0:
184,128,91482,1,2,0:0:0:0:
116,140,91558,5,2,1:0:0:0:
48,160,91634,1,2,1:2:0:0:
0,108,91710,1,2,1:2:0:0:
20,40,91786,1,2,1:2:0:0:
92,28,91861,6,0,P|142:105|114:194,1,192,4|0,1:2|0:0,0:0:0:0:
20,283,92165,2,0,P|47:268|79:262,1,64,2|0,1:2|0:0,0:0:0:0:
108,356,92316,2,0,P|80:371|48:377,1,64,2|0,0:0|0:0,0:0:0:0:
180,280,92468,5,2,1:2:0:0:
180,280,92543,1,0,0:0:0:0:
180,280,92619,2,0,L|243:291,1,64,2|0,0:1|0:0,0:0:0:0:
340,380,92771,2,0,L|276:368,1,64,2|2,1:2|0:0,0:0:0:0:
436,264,92922,5,2,0:0:0:0:
436,264,92998,1,2,0:0:0:0:
436,263,93074,2,0,B|464:200|392:168|431:76,1,192,2|2,1:0|0:0,0:0:0:0:
443,72,93377,2,0,P|433:102|432:133,1,64,8|0,1:2|0:0,0:0:0:0:
512,236,93528,2,0,P|510:204|500:174,1,64,4|0,0:3|0:0,0:0:0:0:
364,80,93680,2,0,L|172:62,1,192,2|0,1:2|0:0,0:0:0:0:
16,132,93983,2,0,L|79:126,1,64,2|0,1:0|0:0,0:0:0:0:
200,220,94134,5,2,1:2:0:0:
200,220,94210,1,2,1:2:0:0:
200,220,94286,2,0,P|140:271|131:193,1,192,4|0,1:2|0:0,0:0:0:0:
199,137,94589,2,0,P|212:72|184:132,1,192,8|0,1:2|0:0,0:0:0:0:
79,126,94892,5,2,1:2:0:0:
79,126,94968,1,0,1:0:0:0:
79,126,95043,2,0,L|73:62,1,64,2|0,1:0|0:0,0:0:0:0:
184,132,95195,5,2,1:2:0:0:
180,164,95271,1,2,1:2:0:0:
177,196,95347,1,2,1:2:0:0:
174,228,95423,1,2,1:2:0:0:
172,260,95498,2,0,P|226:333|316:318,1,192,2|2,1:0|0:0,0:0:0:0:
395,331,95801,2,0,P|384:302|384:270,1,64,8|0,1:2|0:0,0:0:0:0:
464,256,95952,2,0,P|475:285|475:317,1,64,4|0,0:3|0:0,0:0:0:0:
412,192,96104,5,2,1:2:0:0:
420,176,96180,1,2,0:0:0:0:
428,160,96255,1,2,0:0:0:0:
436,144,96331,1,2,0:0:0:0:
504,111,96407,5,2,1:2:0:0:
502,64,96482,1,2,0:2:0:0:
471,29,96558,1,2,1:2:0:0:
425,22,96634,1,2,1:2:0:0:
385,46,96710,6,0,P|301:86|215:49,1,192,4|0,1:2|0:0,0:0:0:0:
160,0,97013,2,0,B|168:96|168:96|176:100|176:100|182:186,1,192,10|0,1:2|0:0,0:0:0:0:
95,277,97316,5,2,1:0:0:0:
87,269,97392,1,0,0:0:0:0:
80,260,97468,2,0,P|110:252|142:256,1,64
280,292,97619,5,2,1:0:0:0:
272,300,97695,1,2,0:0:0:0:
264,308,97771,1,2,0:0:0:0:
256,316,97846,1,2,0:0:0:0:
200,364,97922,6,0,L|214:236,1,128,2|0,1:0|0:0,0:0:0:0:
392,160,98225,6,0,L|405:222,1,64,10|0,1:2|0:0,0:0:0:0:
396,232,98377,2,0,L|382:169,1,64,4|0,0:3|0:0,0:0:0:0:
432,80,98528,5,2,1:0:0:0:
447,76,98604,1,0,0:0:0:0:
463,73,98680,1,2,0:1:0:0:
478,70,98756,1,2,0:1:0:0:
500,48,98831,5,2,1:2:0:0:
470,54,98907,1,2,0:0:0:0:
438,60,98983,1,2,1:2:0:0:
408,68,99059,1,2,1:0:0:0:
352,116,99134,6,0,B|272:104|288:32|192:20,1,192,4|0,1:2|0:0,0:0:0:0:
96,56,99437,5,2,1:2:0:0:
95,88,99512,1,2,0:0:0:0:
126,98,99588,1,2,0:0:0:0:
145,71,99664,1,2,0:0:0:0:
126,45,99740,2,0,L|62:55,1,64,2|2,1:0|1:2,0:0:0:0:
0,144,99892,2,0,L|63:154,1,64,2|2,1:2|1:2,0:0:0:0:
152,232,100043,5,2,1:0:0:0:
198,241,100118,1,2,0:0:0:0:
246,248,100194,1,2,0:0:0:0:
293,257,100270,1,2,0:0:0:0:
341,265,100346,6,0,L|404:256,1,64,2|0,1:2|0:0,0:0:0:0:
396,184,100498,2,0,L|332:192,1,64
237,320,100649,6,0,L|174:312,1,64,2|0,1:2|0:0,0:0:0:0:
182,239,100801,2,0,L|246:248,1,64
308,383,100952,5,2,1:0:0:0:
314,335,101027,1,0,0:0:0:0:
320,287,101103,1,0,0:0:0:0:
326,239,101179,1,0,0:0:0:0:
332,192,101255,2,0,L|322:128,1,64,2|0,1:2|0:0,0:0:0:0:
388,16,101407,5,0,0:0:0:0:
388,16,101483,1,0,0:0:0:0:
388,16,101558,2,0,L|198:44,1,192,2|0,1:2|0:0,0:0:0:0:
104,119,101861,2,0,P|117:91|118:59,1,64,2|0,1:2|0:0,0:0:0:0:
32,40,102013,2,0,P|18:68|17:100,1,64
152,232,102165,5,2,1:0:0:0:
183,227,102240,1,2,1:2:0:0:
215,222,102316,1,2,1:2:0:0:
246,218,102392,1,2,1:2:0:0:
277,212,102468,2,0,P|206:171|190:252,1,192,2|2,1:2|1:2,0:0:0:0:
172,328,102771,6,0,B|272:340|272:340|276:344|276:344|361:354,1,192,2|0,1:0|0:0,0:0:0:0:
432,380,103074,2,0,L|438:316,1,64,2|2,1:2|0:0,0:0:0:0:
368,200,103225,2,0,L|361:263,1,64,2|2,0:0|0:0,0:0:0:0:
440,384,103377,2,0,L|459:192,1,192,2|0,1:2|0:0,0:0:0:0:
416,64,103680,2,0,L|422:0,3,64,2|2|2|2,1:2|1:2|1:2|1:2,0:0:0:0:
500,116,103983,6,0,P|419:161|337:121,1,192,2|0,1:0|0:0,0:0:0:0:
291,16,104286,2,0,P|284:46|265:72,1,64,10|0,1:2|0:0,0:0:0:0:
232,152,104437,2,0,P|201:160|169:157,1,64
84,168,104589,2,0,P|60:146|48:116,3,64,2|0|0|0,1:2|0:0|0:0|0:0,0:0:0:0:
120,68,104892,5,2,1:0:0:0:
136,81,104967,1,2,1:2:0:0:
148,99,105043,1,2,1:2:0:0:
155,119,105119,1,2,1:2:0:0:
168,200,105195,6,0,L|160:263,1,64,10|0,1:2|0:0,0:0:0:0:
96,352,105346,1,0,0:0:0:0:
88,356,105422,1,0,0:0:0:0:
80,360,105498,2,0,L|72:296,1,64,4|0,1:3|0:0,0:0:0:0:
232,304,105649,5,0,0:0:0:0:
232,304,105725,1,0,0:0:0:0:
232,304,105801,1,2,1:0:0:0:
279,309,105876,1,2,1:2:0:0:
327,314,105952,1,2,1:2:0:0:
375,319,106028,1,0,0:0:0:0:
422,325,106104,2,0,L|485:332,3,64,2|0|2|2,1:2|0:0|0:0|0:0,0:0:0:0:
512,264,106407,5,4,0:0:0:0:
468,200,106710,1,2,0:0:0:0:
393,222,107013,1,2,0:0:0:0:
390,300,107316,1,2,0:0:0:0:
472,208,107619,5,2,0:0:0:0:
397,230,107922,1,2,0:0:0:0:
395,308,108225,1,2,0:0:0:0:
468,335,108528,1,2,0:0:0:0:
256,380,108831,5,4,0:0:0:0:
184,372,109134,1,2,0:0:0:0:
112,364,109437,1,2,0:0:0:0:
40,356,109740,1,2,0:0:0:0:
252,376,110043,5,2,0:0:0:0:
180,368,110346,1,2,0:0:0:0:
108,360,110649,1,2,0:0:0:0:
36,352,110952,1,2,0:0:0:0:
122,139,111255,5,4,0:0:0:0:
168,200,111558,1,2,0:0:0:0:
124,264,111861,1,2,0:0:0:0:
49,243,112164,1,2,0:0:0:0:
162,192,112467,5,2,0:0:0:0:
118,257,112770,1,2,0:0:0:0:
43,235,113073,1,2,0:0:0:0:
40,158,113376,1,2,0:0:0:0:
256,16,113680,5,4,0:0:0:0:
328,28,113983,1,2,0:0:0:0:
260,20,114286,1,2,0:0:0:0:
332,32,114589,1,2,0:0:0:0:
512,0,114892,5,2,0:0:0:0:
452,44,115195,1,2,0:0:0:0:
434,116,115498,1,2,0:0:0:0:
466,182,115801,1,2,0:0:0:0:
