osu file format v14

[General]
AudioFilename: audio.mp3
AudioLeadIn: 0
PreviewTime: 42165
Countdown: 0
SampleSet: Soft
StackLeniency: 0.6
Mode: 0
LetterboxInBreaks: 0
WidescreenStoryboard: 1

[Editor]
DistanceSpacing: 1
BeatDivisor: 8
GridSize: 4
TimelineZoom: 3.399999

[Metadata]
Title:::vexations
TitleUnicode:::vexations
Artist:Trerey-U
ArtistUnicode:Trerey-U
Creator:Seiioh
Version:::advanced
Source:
Tags:Formless​:​: nankasuisui uytrere ambient instrumental electronic electronica
BeatmapID:3207050
BeatmapSetID:1570531

[Difficulty]
HPDrainRate:3
CircleSize:3.4
OverallDifficulty:5
ApproachRate:6
SliderMultiplier:1.1
SliderTickRate:1

[Events]
//Background and Video events
0,0,"67341258_p0.jpg",0,0
//Break Periods
2,61758,70205
2,81152,85963
//Storyboard Layer 0 (Background)
//Storyboard Layer 1 (Fail)
//Storyboard Layer 2 (Pass)
//Storyboard Layer 3 (Foreground)
//Storyboard Layer 4 (Overlay)
//Storyboard Sound Samples

[TimingPoints]
44,303.030303030303,4,2,10,45,1,0
10953,-100,4,2,10,70,0,0
18528,-100,4,2,10,55,0,0
23377,-100,4,2,10,70,0,0
31862,-100,4,2,10,55,0,0
39437,-100,4,2,10,60,0,0
40801,-100,4,2,10,65,0,0
42165,303.030303030303,4,2,10,80,1,1
42468,-100,4,2,10,75,0,1
42771,-100,4,2,10,75,0,0
42922,-100,4,2,10,75,0,1
43377,-100,4,2,10,75,0,0
43680,-100,4,2,10,75,0,1
44589,-100,4,2,10,75,0,0
44892,-100,4,2,10,75,0,1
50119,-100,4,2,10,75,0,0
50346,-100,4,2,10,75,0,1
56861,-100,4,2,10,75,0,0
57165,-100,4,2,10,75,0,1
61558,-100,4,2,10,45,0,0
87013,-100,4,2,10,75,0,0
106407,-100,4,2,10,45,0,0

[Colours]
Combo1 : 63,137,182
Combo2 : 212,212,212
Combo3 : 168,168,168
Combo4 : 202,232,255
Combo5 : 120,170,220
Combo6 : 139,187,216

[HitObjects]
45,59,10953,6,0,P|83:96|137:104,1,110,12|0,1:2|1:0,0:0:0:0:
204,17,11559,1,0,1:0:0:0:
301,68,11862,1,2,1:0:0:0:
398,19,12165,6,0,P|424:8|451:9,1,55,8|0,1:0|0:0,0:0:0:0:
504,25,12468,2,0,B|490:130|490:130|485:132|485:132|470:239,1,220,0|0,1:0|1:0,0:0:0:0:
455,348,13377,5,0,1:0:0:0:
362,288,13680,2,0,P|337:276|309:273,1,55,2|2,1:0|0:0,0:0:0:0:
202,247,14134,2,0,P|175:252|154:269,1,55,2|2,0:0|1:0,0:0:0:0:
85,356,14589,5,2,1:0:0:0:
6,279,14892,1,0,1:0:0:0:
84,202,15195,2,0,P|107:153|97:100,1,110,2|0,1:0|1:0,0:0:0:0:
31,12,15801,6,0,L|140:25,1,110,0|0,1:0|1:0,0:0:0:0:
228,91,16407,2,0,L|337:77,1,110,0|0,1:0|1:0,0:0:0:0:
381,44,16862,1,0,0:0:0:0:
381,44,17013,2,0,P|476:72|448:167,1,220,2|0,1:0|1:0,0:0:0:0:
354,226,17922,1,2,2:0:0:0:
457,264,18225,2,0,P|485:309|486:364,1,110,2|0,1:0|1:0,0:0:0:0:
256,192,18831,12,0,22695,0:0:0:0:
26,364,23377,6,0,L|136:355,1,110,12|0,1:2|1:0,0:0:0:0:
205,270,23983,1,0,1:0:0:0:
313,294,24286,1,2,1:0:0:0:
377,383,24589,6,0,P|400:367|415:344,1,55,8|0,1:0|0:0,0:0:0:0:
468,329,24892,2,0,B|480:224|480:224|478:219|478:219|491:110,1,220,0|0,1:0|1:0,0:0:0:0:
504,1,25801,1,0,1:0:0:0:
412,57,26104,6,0,P|384:62|357:58,1,55,2|2,1:0|0:0,0:0:0:0:
249,79,26559,2,0,P|226:64|208:44,1,55,2|2,0:0|1:0,0:0:0:0:
104,4,27013,5,2,1:0:0:0:
40,92,27316,1,2,1:2:0:0:
132,152,27619,2,0,P|155:201|145:254,1,110,2|0,1:0|1:0,0:0:0:0:
92,352,28225,6,0,L|201:339,1,110,0|2,1:0|1:2,0:0:0:0:
256,244,28831,2,0,L|365:258,1,110,0|0,1:0|1:0,0:0:0:0:
396,304,29286,1,0,0:0:0:0:
396,304,29437,2,0,P|491:276|463:181,1,220,0|0,1:0|1:0,0:0:0:0:
472,72,30346,5,2,1:0:0:0:
364,91,30650,1,2,1:2:0:0:
268,36,30953,2,0,B|144:36|184:108|67:107,1,220,2|4,1:0|1:2,0:0:0:0:
25,207,31862,6,0,B|20:264|20:264|24:264|24:264|22:313,1,110,0|0,1:0|1:0,0:0:0:0:
116,368,32468,1,0,1:0:0:0:
212,312,32771,1,0,1:0:0:0:
320,336,33074,1,0,1:0:0:0:
424,304,33377,2,0,P|475:285|503:239,2,110,0|0|2,1:0|1:0|1:2,0:0:0:0:
352,220,34286,2,0,P|380:173|431:155,1,110,2|2,1:2|1:0,0:0:0:0:
500,68,34892,5,0,1:0:0:0:
408,4,35195,1,0,1:0:0:0:
312,56,35498,2,0,L|203:46,1,110,2|0,1:0|1:0,0:0:0:0:
92,36,36104,1,8,1:2:0:0:
32,128,36407,2,0,L|142:118,1,110,0|0,1:0|1:0,0:0:0:0:
260,108,37013,1,0,1:0:0:0:
323,199,37316,6,0,P|358:241|366:295,1,110,0|2,1:0|1:0,0:0:0:0:
256,292,37922,2,0,P|237:343|194:376,1,110,2|2,1:0|1:0,0:0:0:0:
148,276,38528,2,0,P|94:285|44:265,1,110,2|2,1:0|1:0,0:0:0:0:
104,172,39134,2,0,P|69:130|61:76,1,110,2|2,1:0|1:2,0:0:0:0:
172,84,39740,5,2,1:0:0:0:
256,152,40043,2,0,L|310:155,1,55,2|2,1:0|0:0,0:0:0:0:
360,128,40347,1,2,1:0:0:0:
488,24,40801,6,0,L|479:133,1,110,12|2,0:3|0:0,0:0:0:0:
440,172,41256,2,0,L|435:226,1,55,12|0,1:3|0:0,0:0:0:0:
464,272,41559,2,0,L|459:326,1,55,12|0,1:3|0:0,0:0:0:0:
436,376,41862,1,2,1:2:0:0:
340,324,42165,6,0,P|287:307|233:316,1,110,12|2,0:3|1:0,0:0:0:0:
184,340,42619,1,10,0:0:0:0:
88,288,42922,2,0,B|80:208|80:208|84:208|84:208|75:127,1,165,2|2,0:0|1:0,0:0:0:0:
19,31,43680,2,0,P|71:48|126:44,1,110,2|2,1:2|1:0,0:0:0:0:
232,12,44286,1,2,1:0:0:0:
336,44,44589,1,4,1:0:0:0:
444,16,44892,6,0,L|449:70,1,55,0|2,1:0|0:0,0:0:0:0:
438,124,45195,2,0,L|459:342,1,220,2|4,1:2|1:3,0:0:0:0:
356,380,46104,1,2,1:2:0:0:
356,380,46255,2,0,P|320:339|267:331,1,110,2|2,0:0|0:0,0:0:0:0:
168,288,46861,5,2,0:0:0:0:
168,288,47013,2,0,L|58:299,1,110,2|2,1:0|1:2,0:0:0:0:
12,328,47468,2,0,L|0:218,1,110,6|2,0:3|1:2,0:0:0:0:
64,128,48074,1,2,0:1:0:0:
48,20,48377,1,2,0:0:0:0:
156,8,48680,1,2,0:0:0:0:
180,116,48983,2,0,P|226:144|280:148,1,110,2|2,0:0|1:2,0:0:0:0:
332,164,49437,2,0,L|352:56,1,110,10|2,0:0|1:2,0:0:0:0:
452,12,50043,1,2,1:0:0:0:
500,112,50346,5,2,1:0:0:0:
500,112,50498,1,2,0:0:0:0:
500,111,50649,2,0,P|468:156|466:210,1,110,4|2,1:3|1:2,0:0:0:0:
416,308,51255,2,0,P|391:259|346:227,1,110,2|4,1:0|1:3,0:0:0:0:
296,212,51710,5,0,0:0:0:0:
296,212,51861,2,0,L|186:221,1,110,2|10,1:2|1:2,0:0:0:0:
108,296,52468,1,2,1:0:0:0:
192,368,52771,2,0,L|301:377,1,110,2|2,1:2|1:0,0:0:0:0:
408,348,53377,2,0,P|395:295|413:243,1,110,4|2,1:3|1:0,0:0:0:0:
484,160,53983,1,2,1:2:0:0:
432,64,54286,6,0,L|323:73,1,110,4|2,1:3|1:2,0:0:0:0:
224,120,54892,1,2,1:0:0:0:
136,52,55195,1,4,1:3:0:0:
44,108,55498,6,0,P|5:145|0:199,1,110,4|2,1:3|1:0,0:0:0:0:
108,224,56104,2,0,P|146:261|152:315,1,110,2|2,0:0|1:2,0:0:0:0:
64,380,56710,1,10,1:2:0:0:
228,348,57165,6,0,L|337:357,1,110,10|2,0:0|1:2,0:0:0:0:
388,380,57619,1,2,1:0:0:0:
467,304,57922,6,0,P|487:253|478:199,1,110,2|2,1:0|1:2,0:0:0:0:
432,188,58377,1,2,1:2:0:0:
432,188,58528,2,0,P|398:145|347:126,1,110,2|2,1:0|1:2,0:0:0:0:
276,43,59134,6,0,P|235:80|181:87,1,110,2|4,1:0|1:3,0:0:0:0:
84,36,59740,1,8,1:2:0:0:
12,119,60043,2,0,L|19:173,1,55,2|2,1:0|1:2,0:0:0:0:
59,211,60346,5,4,1:0:0:0:
59,211,60498,1,2,1:2:0:0:
59,211,60649,2,0,L|47:320,2,110,2|2|2,1:2|1:0|1:2,0:0:0:0:
162,174,61558,1,2,1:2:0:0:
24,88,71255,6,0,B|144:80|144:80|164:64|164:64|284:56|284:56|332:108|332:108|434:100,1,440,2|0,1:2|0:0,0:0:0:0:
434,100,73680,2,0,B|450:215|450:215|365:308|365:308|343:162|343:162|295:147,1,440,2|0,1:2|0:0,0:0:0:0:
295,147,76104,2,0,B|158:185|158:185|198:331|198:331|57:370,1,440,2|0,1:2|0:0,0:0:0:0:
55,370,78528,6,0,P|102:342|128:294,1,110,2|0,1:2|0:0,0:0:0:0:
228,224,79134,2,0,P|181:196|155:148,2,110,2|0|2,1:2|0:0|1:2,0:0:0:0:
344,256,80043,2,0,L|453:242,2,110,0|2|2,0:0|1:2|0:0,0:0:0:0:
276,356,80952,1,4,1:0:0:0:
471,340,87013,6,0,P|462:286|425:247,1,110,4|0,1:2|1:0,0:0:0:0:
324,208,87619,1,2,1:0:0:0:
324,208,87771,1,0,0:0:0:0:
324,208,87922,2,0,P|297:212|275:229,1,55,2|2,1:0|0:0,0:0:0:0:
220,236,88225,6,0,P|219:290|195:339,1,110,2|2,1:2|1:2,0:0:0:0:
112,268,88831,2,0,P|105:294|108:321,2,55,2|2|2,1:2|0:0|1:2,0:0:0:0:
80,228,89286,1,2,0:0:0:0:
80,228,89437,6,0,L|61:119,1,110,4|2,1:2|1:2,0:0:0:0:
4,24,90043,2,0,P|26:9|53:2,1,55,2|2,1:2|0:1,0:0:0:0:
104,24,90346,2,0,P|126:39|153:46,1,55,2|2,1:0|0:1,0:0:0:0:
204,68,90649,6,0,L|313:58,1,110,10|2,1:2|1:2,0:0:0:0:
428,64,91255,1,2,1:2:0:0:
428,64,91407,2,0,L|424:10,2,55,2|2|2,0:0|1:0|1:2,0:0:0:0:
468,104,91861,6,0,P|469:158|450:209,1,110,4|2,1:2|1:2,0:0:0:0:
380,288,92468,1,2,1:2:0:0:
380,288,92619,1,2,0:1:0:0:
380,288,92771,2,0,L|325:295,1,55,2|2,1:2|0:0,0:0:0:0:
296,340,93074,6,0,P|249:311|195:307,1,110,2|8,1:0|1:2,0:0:0:0:
87,282,93680,2,0,P|83:309|88:336,2,55,2|2|2,1:2|0:0|1:0,0:0:0:0:
103,228,94134,1,2,1:2:0:0:
103,228,94286,6,0,P|148:195|173:147,1,110,4|8,1:2|1:2,0:0:0:0:
232,56,94892,2,0,B|208:40|208:40|181:36,1,55,2|2,1:2|1:0,0:0:0:0:
124,47,95195,2,0,B|99:60|99:60|82:81,1,55,2|2,1:2|1:2,0:0:0:0:
28,96,95498,6,0,L|38:205,1,110,2|8,1:0|1:2,0:0:0:0:
132,276,96104,1,2,1:2:0:0:
132,276,96255,2,0,L|78:285,2,55,2|2|2,0:0|1:2|1:2,0:0:0:0:
179,252,96710,6,0,P|257:228|333:257,1,165,4|4,1:2|0:3,0:0:0:0:
380,288,97316,2,0,L|387:342,2,55,2|0|2,1:0|0:0|1:0,0:0:0:0:
428,260,97771,1,2,0:0:0:0:
428,260,97922,6,0,L|434:150,1,110,2|10,1:0|1:2,0:0:0:0:
416,52,98528,1,2,1:0:0:0:
416,52,98680,1,2,0:1:0:0:
416,51,98831,2,0,P|390:62|363:64,1,55,2|2,1:2|1:2,0:0:0:0:
312,88,99134,6,0,P|266:58|212:50,1,110,4|2,1:2|1:2,0:0:0:0:
105,62,99740,2,0,L|112:8,2,55,2|2|2,1:0|1:2|1:0,0:0:0:0:
60,96,100195,1,2,0:0:0:0:
60,96,100346,6,0,L|73:205,1,110,2|2,1:2|1:2,0:0:0:0:
156,276,100952,1,2,1:0:0:0:
156,276,101104,2,0,L|166:222,2,55,0|2|0,0:0|1:2|0:0,0:0:0:0:
192,320,101558,6,0,P|244:337|296:320,1,110,2|2,1:2|1:2,0:0:0:0:
392,264,102165,1,2,1:0:0:0:
392,264,102316,1,2,1:2:0:0:
392,264,102468,2,0,L|446:255,1,55,2|2,1:2|1:2,0:0:0:0:
496,280,102771,6,0,L|477:171,1,110,2|2,1:0|1:2,0:0:0:0:
453,77,103377,2,0,L|508:68,2,55,2|0|2,1:2|0:0|1:2,0:0:0:0:
404,52,103831,1,2,1:2:0:0:
404,52,103983,6,0,P|353:32|301:45,1,110,2|10,1:0|1:2,0:0:0:0:
232,132,104589,2,0,P|179:145|129:125,1,110,2|2,1:2|1:0,0:0:0:0:
80,28,105195,5,10,1:2:0:0:
184,64,105498,1,4,1:3:0:0:
164,172,105801,2,0,L|145:280,1,110,2|2,1:0|1:2,0:0:0:0:
256,352,106407,5,4,0:0:0:0:
256,192,106710,12,4,108831,0:0:0:0:
