osu file format v14

[General]
AudioFilename: audio.mp3
AudioLeadIn: 0
PreviewTime: 86178
Countdown: 0
SampleSet: Normal
StackLeniency: 0.7
Mode: 1
LetterboxInBreaks: 0
WidescreenStoryboard: 1

[Editor]
DistanceSpacing: 0.5
BeatDivisor: 4
GridSize: 32
TimelineZoom: 2.100001

[Metadata]
Title:Hisui
TitleUnicode:翡翠
Artist:Trerey-U + NIWASHI
ArtistUnicode:Trerey-U + 庭師
Creator:Boaz
Version:Hivie's Oni
Source:BOFU2017
Tags:_vex vexinho antti vixlowo _vix arcpotato 490 hivie mappers' guild mpg fa featured artist electronic instrumental jazz video game THE BMS OF FIGHTERS 2017 -LEGENDA EST A MYTH- ULTIMATE
BeatmapID:3954580
BeatmapSetID:1795383

[Difficulty]
HPDrainRate:5.5
CircleSize:2
OverallDifficulty:5.5
ApproachRate:10
SliderMultiplier:1.4
SliderTickRate:1

[Events]
//Background and Video events
0,0,"hisui.jpg",0,0
//Break Periods
//Storyboard Layer 0 (Background)
//Storyboard Layer 1 (Fail)
//Storyboard Layer 2 (Pass)
//Storyboard Layer 3 (Foreground)
//Storyboard Layer 4 (Overlay)
//Storyboard Sound Samples

[TimingPoints]
160,284.360189573459,4,1,0,80,1,0
9398,-98.6564057276225,4,1,0,80,0,0
9540,-97.3484376945101,4,1,0,80,0,0
9683,-96.0658456435613,4,1,0,80,0,0
9825,-94.8252341831631,4,1,0,80,0,0
9967,-93.6162571454224,4,1,0,80,0,0
10109,-92.437719790774,4,1,0,80,0,0
10251,-91.2884867941048,4,1,0,80,0,0
10393,-90.1674785967542,4,1,0,80,0,0
10536,-89.0660592255125,4,1,0,80,0,0
10678,-87.99864963709,4,1,0,80,0,0
10820,-86.9565217391304,4,1,0,80,0,0
11107,-100,4,1,0,80,0,0
38403,-98.7654320987654,4,1,0,80,0,0
38474,-98.159509202454,4,1,0,80,0,0
38545,-97.5609756097561,4,1,0,80,0,0
38687,-96.3855421686747,4,1,0,80,0,0
38832,-95.2380952380952,4,1,0,80,0,1
38975,-100,4,1,0,80,0,1
45657,-83.3333333333333,4,1,0,80,0,0
46795,-100,4,1,0,70,0,0
46934,-90.9090909090909,4,1,0,70,0,0
47005,-92.1040451726372,4,1,0,70,0,0
47076,-93.3308320045024,4,1,0,70,0,0
47266,-96.7804688259897,4,1,0,70,0,0
47360,-98.5831764589319,4,1,0,70,0,0
47550,-102.440028827345,4,1,0,70,0,0
47645,-104.483881129896,4,1,0,70,0,0
47739,-106.588109266202,4,1,0,70,0,0
47834,-108.80262438491,4,1,0,70,0,0
47929,-111.111111111111,4,1,0,70,0,0
50204,-110.717515827555,4,1,0,70,0,0
50346,-112.320318075237,4,1,0,65,0,0
50488,-113.970207923865,4,1,0,60,0,0
50630,-115.669291338583,4,1,0,55,0,0
50773,-117.432317203155,4,1,0,50,0,0
50915,-119.237012987013,4,1,0,45,0,0
51057,-121.09804352605,4,1,0,40,0,0
51199,-123.018088432336,4,1,0,35,0,0
51341,-125,4,1,0,30,0,0
52194,-117.647058823529,4,1,0,70,0,0
52337,-114.274258219727,4,1,0,70,0,0
52479,-111.111111111111,4,1,0,70,0,0
54754,-111.111111111111,4,1,0,70,0,0
54896,-112.674660588643,4,1,0,65,0,0
55038,-114.282842496733,4,1,0,60,0,0
55180,-115.937595594983,4,1,0,55,0,0
55322,-117.64097258148,4,1,0,50,0,0
55465,-119.407687460618,4,1,0,45,0,0
55607,-121.215351812367,4,1,0,40,0,0
55749,-123.078588439056,4,1,0,35,0,0
55891,-125,4,1,0,30,0,0
56744,-117.647058823529,4,1,0,70,0,0
56815,-115.947925142392,4,1,0,70,0,0
56886,-114.297172648887,4,1,0,70,0,0
56957,-112.692763938316,4,1,0,70,0,0
57029,-111.111111111111,4,1,0,70,0,0
61510,-100,4,1,0,70,0,0
62505,-80,4,1,0,70,0,0
62719,-111.111111111111,4,1,0,70,0,0
63643,-66.6666666666667,4,1,0,70,0,0
63856,-111.111111111111,4,1,0,70,0,0
65633,-117.647058823529,4,1,0,80,0,0
75512,-111.111111111111,4,1,0,80,0,0
75654,-109.758188989882,4,1,0,80,0,0
75725,-109.09400835251,4,1,0,80,0,0
75796,-108.437817688919,4,1,0,80,0,0
75938,-107.148836430604,4,1,0,80,0,0
76081,-105.88137976673,4,1,0,80,0,0
76152,-105.263157894737,4,1,0,80,0,0
76223,-104.652113482136,4,1,0,80,0,0
76294,-104.048122256544,4,1,0,80,0,0
76365,-103.451062798028,4,1,0,80,0,0
76507,-102.277267279265,4,1,0,80,0,0
76578,-101.700301922771,4,1,0,80,0,0
76649,-101.12980959153,4,1,0,80,0,0
76792,-100,4,1,0,80,0,0
83474,-94.1225165562914,4,1,0,80,0,0
83616,-91.4354644149578,4,1,0,80,0,0
83758,-88.8975762314308,4,1,0,80,0,0
83829,-87.6807403123193,4,1,0,80,0,0
83901,-86.4803194523674,4,1,0,80,0,0
84043,-84.2066284021477,4,1,0,80,0,0
84114,-83.1140350877193,4,1,0,80,0,0
84185,-82.0494317156774,4,1,0,80,0,0
84256,-81.011756323477,4,1,0,80,0,0
84327,-80,4,1,0,80,0,0
85468,-142.857142857143,4,1,0,80,0,0
86178,-100,4,1,0,80,0,0
86605,-100,4,1,0,80,0,1
103667,-100,4,1,0,80,0,0
103735,-99.0720167298392,4,1,0,80,0,0
103806,-98.1610981610982,4,1,0,80,0,0
103877,-97.2667778775824,4,1,0,80,0,0
103948,-96.3886063072228,4,1,0,80,0,0
104090,-94.6789907569323,4,1,0,80,0,0
104232,-93.0289641629848,4,1,0,80,0,0
104375,-91.4244361355687,4,1,0,80,0,0
104446,-90.648170294188,4,1,0,80,0,0
104517,-89.8849756907388,4,1,0,80,0,0
104588,-89.134524929445,4,1,0,80,0,0
104659,-88.3965014577259,4,1,0,80,0,0
104804,-86.9565217391304,4,1,0,80,0,1
104946,-100,4,1,0,80,0,1
117316,-100,4,1,0,80,0,0
118453,-100,4,1,0,80,0,1
120728,-100,4,1,0,90,0,1
120796,-99.2010802295488,4,1,0,90,0,1
120867,-98.4148247376646,4,1,0,90,0,1
120938,-97.6409347657548,4,1,0,90,0,1
121010,-96.8684759916493,4,1,0,90,0,1
121152,-95.3802877853511,4,1,0,90,0,1
121223,-94.6532102211724,4,1,0,90,0,1
121294,-93.9371337240277,4,1,0,90,0,1
121436,-92.5370001049648,4,1,0,90,0,1
121578,-91.1779915192885,4,1,0,90,0,1
121649,-90.5133470225873,4,1,0,90,0,1
121720,-89.8583222913057,4,1,0,90,0,1
121792,-89.2036830921785,4,1,0,90,0,1
121863,-88.5674100863974,4,1,0,90,0,1
122005,-87.3217115689382,4,1,0,90,0,1
122147,-86.1105684704044,4,1,0,90,0,1
122289,-84.9325626204239,4,1,0,90,0,1
122431,-83.7863524044858,4,1,0,90,0,1
122502,-83.2247710752384,4,1,0,90,0,1
122645,-82.1162444113264,4,1,0,90,0,1
122716,-81.5767558064218,4,1,0,90,0,1
122858,-80.5187688373367,4,1,0,90,0,1
122929,-80,4,1,0,90,0,1
123003,-66.6666666666667,4,1,0,80,0,0
123501,-133.333333333333,4,1,0,30,0,0

[HitObjects]
256,192,160,5,0,0:0:0:0:
256,192,302,1,0,0:0:0:0:
256,192,444,1,8,0:0:0:0:
256,192,586,1,8,0:0:0:0:
256,192,1297,1,0,0:0:0:0:
256,192,1439,1,0,0:0:0:0:
256,192,1581,1,8,0:0:0:0:
256,192,1723,1,8,0:0:0:0:
256,192,2008,1,0,0:0:0:0:
256,192,2150,1,8,0:0:0:0:
256,192,2221,1,8,0:0:0:0:
256,192,2292,1,8,0:0:0:0:
256,192,2434,1,0,0:0:0:0:
256,192,2577,1,0,0:0:0:0:
256,192,2719,1,8,0:0:0:0:
256,192,2861,1,8,0:0:0:0:
256,192,3145,1,0,0:0:0:0:
256,192,3287,1,8,0:0:0:0:
256,192,3359,1,8,0:0:0:0:
256,192,3430,1,8,0:0:0:0:
256,192,3572,1,0,0:0:0:0:
256,192,3714,1,0,0:0:0:0:
256,192,3785,1,0,0:0:0:0:
256,192,3856,1,8,0:0:0:0:
256,192,3998,1,0,0:0:0:0:
256,192,4283,1,0,0:0:0:0:
257,192,4425,1,8,0:0:0:0:
257,192,4567,1,8,0:0:0:0:
256,192,4638,1,8,0:0:0:0:
257,192,4709,1,0,0:0:0:0:
257,192,4851,1,0,0:0:0:0:
257,192,4994,1,8,0:0:0:0:
256,191,5136,1,8,0:0:0:0:
257,192,5278,1,0,0:0:0:0:
257,192,5349,1,0,0:0:0:0:
257,192,5420,1,8,0:0:0:0:
257,192,5491,1,8,0:0:0:0:
256,192,5847,1,0,0:0:0:0:
256,192,5989,1,0,0:0:0:0:
256,192,6131,1,8,0:0:0:0:
256,192,6273,1,8,0:0:0:0:
256,192,6558,1,0,0:0:0:0:
256,192,6700,1,8,0:0:0:0:
256,192,6771,1,0,0:0:0:0:
256,192,6842,1,8,0:0:0:0:
256,192,6984,1,0,0:0:0:0:
256,192,7126,1,0,0:0:0:0:
256,192,7269,1,8,0:0:0:0:
256,192,7411,1,8,0:0:0:0:
256,192,7695,1,8,0:0:0:0:
256,192,7837,1,0,0:0:0:0:
256,192,7908,1,0,0:0:0:0:
256,192,7979,1,0,0:0:0:0:
256,192,8122,1,8,0:0:0:0:
256,192,8264,1,0,0:0:0:0:
256,192,8335,1,8,0:0:0:0:
256,192,8406,1,0,0:0:0:0:
256,192,8548,1,8,0:0:0:0:
256,192,8975,1,8,0:0:0:0:
256,191,9046,1,8,0:0:0:0:
256,192,9117,1,8,0:0:0:0:
256,191,9259,1,0,0:0:0:0:
257,192,9401,1,0,0:0:0:0:
256,191,9543,1,0,0:0:0:0:
256,191,9686,1,8,0:0:0:0:
256,191,9828,1,0,0:0:0:0:
256,191,9970,1,0,0:0:0:0:
256,191,10112,1,8,0:0:0:0:
256,191,10254,1,0,0:0:0:0:
256,191,10396,1,0,0:0:0:0:
256,191,10539,1,8,0:0:0:0:
256,191,10681,1,8,0:0:0:0:
256,191,10823,1,8,0:0:0:0:
256,192,11107,1,0,0:0:0:0:
256,192,11250,1,0,0:0:0:0:
256,192,11392,1,0,0:0:0:0:
256,192,11534,1,8,0:0:0:0:
256,192,11676,1,0,0:0:0:0:
256,192,11747,1,0,0:0:0:0:
256,192,11818,1,0,0:0:0:0:
256,192,11889,1,0,0:0:0:0:
256,192,11960,1,8,0:0:0:0:
256,192,12103,1,0,0:0:0:0:
256,192,12245,1,8,0:0:0:0:
256,192,12316,1,8,0:0:0:0:
256,192,12387,1,8,0:0:0:0:
256,192,12458,1,8,0:0:0:0:
256,192,12529,1,0,0:0:0:0:
256,192,12671,1,8,0:0:0:0:
256,192,12814,1,0,0:0:0:0:
256,192,12885,1,0,0:0:0:0:
256,192,12956,1,8,0:0:0:0:
256,192,13027,1,8,0:0:0:0:
256,192,13098,1,0,0:0:0:0:
256,192,13240,1,8,0:0:0:0:
256,192,13382,1,0,0:0:0:0:
256,192,13453,1,0,0:0:0:0:
256,192,13524,1,8,0:0:0:0:
256,192,13809,1,0,0:0:0:0:
256,192,13951,1,8,0:0:0:0:
256,192,14093,1,0,0:0:0:0:
256,192,14235,1,8,0:0:0:0:
256,192,14378,1,0,0:0:0:0:
256,192,14449,1,0,0:0:0:0:
256,192,14520,1,8,0:0:0:0:
256,192,14662,1,0,0:0:0:0:
256,192,14804,1,8,0:0:0:0:
256,192,15088,1,0,0:0:0:0:
256,192,15160,1,8,0:0:0:0:
256,192,15231,1,0,0:0:0:0:
256,192,15373,1,8,0:0:0:0:
256,192,15444,1,8,0:0:0:0:
256,192,15515,1,0,0:0:0:0:
256,192,15657,1,0,0:0:0:0:
256,192,15799,1,8,0:0:0:0:
256,192,16084,1,0,0:0:0:0:
256,191,16226,1,8,0:0:0:0:
256,191,16297,1,8,0:0:0:0:
256,191,16368,1,8,0:0:0:0:
256,191,16439,1,8,0:0:0:0:
256,191,16510,1,0,0:0:0:0:
255,191,16652,1,8,0:0:0:0:
256,191,16795,1,0,0:0:0:0:
256,191,16866,1,0,0:0:0:0:
256,191,16937,1,0,0:0:0:0:
256,191,17008,1,0,0:0:0:0:
256,191,17079,1,8,0:0:0:0:
256,191,17221,1,0,0:0:0:0:
255,191,17363,1,8,0:0:0:0:
256,191,17434,1,8,0:0:0:0:
256,191,17505,1,0,0:0:0:0:
255,191,17577,1,0,0:0:0:0:
256,191,17648,1,8,0:0:0:0:
255,191,17790,1,0,0:0:0:0:
256,191,17932,1,8,0:0:0:0:
256,191,18003,1,8,0:0:0:0:
256,191,18074,1,0,0:0:0:0:
256,191,18359,1,8,0:0:0:0:
256,192,18501,1,8,0:0:0:0:
256,192,18643,1,0,0:0:0:0:
256,191,18785,1,8,0:0:0:0:
256,192,18927,1,0,0:0:0:0:
256,191,18998,1,0,0:0:0:0:
256,192,19069,1,8,0:0:0:0:
256,192,19212,1,0,0:0:0:0:
256,192,19354,1,8,0:0:0:0:
256,192,19638,1,8,0:0:0:0:
256,192,19780,1,8,0:0:0:0:
256,191,19923,1,0,0:0:0:0:
255,191,20207,1,0,0:0:0:0:
255,192,20349,1,8,0:0:0:0:
255,191,20491,1,0,0:0:0:0:
256,192,20633,1,8,0:0:0:0:
255,192,20776,1,8,0:0:0:0:
255,192,20847,1,0,0:0:0:0:
255,192,20918,1,8,0:0:0:0:
255,192,20989,1,8,0:0:0:0:
255,192,21060,1,0,0:0:0:0:
256,192,21202,1,8,0:0:0:0:
256,192,21344,1,0,0:0:0:0:
256,192,21415,1,8,0:0:0:0:
256,192,21487,1,0,0:0:0:0:
256,192,21558,1,0,0:0:0:0:
256,192,21629,1,8,0:0:0:0:
256,192,21771,1,0,0:0:0:0:
256,192,21913,1,8,0:0:0:0:
256,192,21984,1,8,0:0:0:0:
256,192,22055,1,0,0:0:0:0:
256,192,22197,1,8,0:0:0:0:
256,192,22340,1,0,0:0:0:0:
256,191,22411,1,0,0:0:0:0:
256,191,22482,1,0,0:0:0:0:
255,191,22553,1,0,0:0:0:0:
256,192,22624,1,8,0:0:0:0:
256,191,22908,1,8,0:0:0:0:
254,192,23050,1,0,0:0:0:0:
256,192,23193,1,8,0:0:0:0:
256,192,23264,1,0,0:0:0:0:
256,192,23335,1,8,0:0:0:0:
256,191,23406,1,8,0:0:0:0:
256,191,23477,1,0,0:0:0:0:
256,191,23619,1,8,0:0:0:0:
256,192,23761,1,0,0:0:0:0:
256,191,23904,1,8,0:0:0:0:
256,191,24188,1,0,0:0:0:0:
256,192,24259,1,8,0:0:0:0:
255,191,24330,1,0,0:0:0:0:
256,191,24472,1,8,0:0:0:0:
256,191,24543,1,8,0:0:0:0:
256,191,24614,1,0,0:0:0:0:
256,191,24757,1,0,0:0:0:0:
256,191,24899,1,8,0:0:0:0:
256,191,25183,1,8,0:0:0:0:
256,192,25325,1,0,0:0:0:0:
256,192,25396,1,8,0:0:0:0:
256,192,25468,1,0,0:0:0:0:
256,192,25539,1,0,0:0:0:0:
256,192,25610,1,8,0:0:0:0:
256,192,25752,1,0,0:0:0:0:
256,192,25894,1,8,0:0:0:0:
256,192,25965,1,0,0:0:0:0:
256,192,26036,1,8,0:0:0:0:
256,192,26107,1,8,0:0:0:0:
256,192,26178,1,0,0:0:0:0:
256,191,26321,1,8,0:0:0:0:
256,191,26463,1,0,0:0:0:0:
256,191,26534,1,0,0:0:0:0:
256,191,26605,1,8,0:0:0:0:
256,191,26747,1,0,0:0:0:0:
256,191,26889,1,8,0:0:0:0:
256,191,26960,1,8,0:0:0:0:
256,191,27032,1,8,0:0:0:0:
256,191,27103,1,8,0:0:0:0:
256,191,27174,1,0,0:0:0:0:
256,191,27458,1,8,0:0:0:0:
256,192,27600,1,0,0:0:0:0:
256,192,27671,1,0,0:0:0:0:
256,192,27742,1,8,0:0:0:0:
256,192,27814,1,8,0:0:0:0:
256,192,27885,1,0,0:0:0:0:
256,192,28027,1,8,0:0:0:0:
256,191,28169,1,0,0:0:0:0:
256,192,28311,1,8,0:0:0:0:
256,191,28382,1,8,0:0:0:0:
256,192,28453,1,8,0:0:0:0:
256,192,28596,1,0,0:0:0:0:
256,192,28738,1,8,0:0:0:0:
256,192,28809,1,8,0:0:0:0:
256,192,28880,1,0,0:0:0:0:
256,191,28951,1,0,0:0:0:0:
256,191,29022,1,8,0:0:0:0:
256,192,29306,1,12,0:0:0:0:
256,192,29733,1,0,0:0:0:0:
255,192,30017,1,8,0:0:0:0:
256,192,30160,1,0,0:0:0:0:
256,192,30444,1,8,0:0:0:0:
255,192,30586,1,0,0:0:0:0:
256,192,30728,1,8,0:0:0:0:
256,192,30870,1,0,0:0:0:0:
256,192,30941,1,0,0:0:0:0:
256,192,31013,1,8,0:0:0:0:
256,192,31155,1,0,0:0:0:0:
256,192,31297,1,8,0:0:0:0:
256,192,31439,1,8,0:0:0:0:
256,192,31510,1,8,0:0:0:0:
256,192,31581,1,8,0:0:0:0:
257,192,31723,1,0,0:0:0:0:
257,192,31866,1,8,0:0:0:0:
256,192,32008,1,0,0:0:0:0:
256,192,32150,1,8,0:0:0:0:
256,192,32221,1,8,0:0:0:0:
256,192,32292,1,0,0:0:0:0:
256,192,32434,1,8,0:0:0:0:
256,192,32719,1,8,0:0:0:0:
256,192,32861,1,0,0:0:0:0:
255,192,32932,1,0,0:0:0:0:
256,192,33003,1,8,0:0:0:0:
256,192,33145,1,0,0:0:0:0:
256,192,33287,1,0,0:0:0:0:
256,192,33430,1,8,0:0:0:0:
256,192,33572,1,0,0:0:0:0:
256,192,33856,1,0,0:0:0:0:
256,192,33998,1,8,0:0:0:0:
256,192,34141,1,0,0:0:0:0:
256,192,34283,1,12,0:0:0:0:
256,192,34567,1,0,0:0:0:0:
256,192,34709,1,8,0:0:0:0:
256,192,34851,1,0,0:0:0:0:
256,192,34923,1,8,0:0:0:0:
256,192,34994,1,0,0:0:0:0:
256,192,35136,1,8,0:0:0:0:
256,192,35420,1,8,0:0:0:0:
256,192,35562,1,0,0:0:0:0:
256,192,35705,1,0,0:0:0:0:
256,192,35847,1,8,0:0:0:0:
256,192,35918,1,0,0:0:0:0:
256,192,35989,1,8,0:0:0:0:
256,192,36060,1,8,0:0:0:0:
256,192,36131,1,0,0:0:0:0:
256,192,36273,1,8,0:0:0:0:
256,192,36344,1,8,0:0:0:0:
256,192,36415,1,8,0:0:0:0:
256,192,36558,1,4,0:0:0:0:
255,192,36842,1,8,0:0:0:0:
255,192,36984,1,0,0:0:0:0:
255,192,37055,1,0,0:0:0:0:
256,192,37126,1,8,0:0:0:0:
256,192,37269,1,0,0:0:0:0:
256,192,37411,1,8,0:0:0:0:
256,192,37482,1,0,0:0:0:0:
256,192,37553,1,8,0:0:0:0:
255,192,37695,1,0,0:0:0:0:
256,192,37837,1,0,0:0:0:0:
256,192,37979,1,8,0:0:0:0:
256,192,38050,1,0,0:0:0:0:
256,192,38122,1,8,0:0:0:0:
256,192,38193,1,8,0:0:0:0:
256,192,38264,1,0,0:0:0:0:
256,192,38406,1,0,0:0:0:0:
256,192,38477,1,0,0:0:0:0:
256,192,38548,1,8,0:0:0:0:
256,192,38690,1,0,0:0:0:0:
256,192,38832,1,12,0:0:0:0:
256,192,39117,1,0,0:0:0:0:
256,192,39188,1,0,0:0:0:0:
256,192,39259,1,8,0:0:0:0:
255,192,39330,1,8,0:0:0:0:
255,191,39401,1,0,0:0:0:0:
256,192,39543,1,8,0:0:0:0:
255,191,39686,1,8,0:0:0:0:
256,192,39828,1,0,0:0:0:0:
256,192,40112,1,8,0:0:0:0:
256,192,40254,1,0,0:0:0:0:
256,192,40325,1,8,0:0:0:0:
256,192,40396,1,0,0:0:0:0:
256,192,40539,1,8,0:0:0:0:
256,192,40681,1,0,0:0:0:0:
256,192,40752,1,0,0:0:0:0:
256,192,40823,1,8,0:0:0:0:
256,192,40965,1,0,0:0:0:0:
256,192,41107,1,8,0:0:0:0:
256,192,41392,1,8,0:0:0:0:
256,191,41463,1,0,0:0:0:0:
256,192,41534,1,8,0:0:0:0:
255,192,41676,1,0,0:0:0:0:
256,192,41818,1,8,0:0:0:0:
256,192,41889,1,8,0:0:0:0:
256,192,41960,1,0,0:0:0:0:
256,192,42103,1,8,0:0:0:0:
256,192,42387,1,8,0:0:0:0:
256,192,42529,1,0,0:0:0:0:
256,192,42600,1,8,0:0:0:0:
256,192,42671,1,0,0:0:0:0:
256,192,42742,1,0,0:0:0:0:
256,192,42814,1,8,0:0:0:0:
256,192,42956,1,0,0:0:0:0:
256,192,43098,1,8,0:0:0:0:
256,192,43169,1,8,0:0:0:0:
256,192,43240,1,0,0:0:0:0:
256,192,43311,1,0,0:0:0:0:
255,192,43382,1,8,0:0:0:0:
256,192,43667,1,8,0:0:0:0:
255,192,43738,1,0,0:0:0:0:
255,192,43809,1,8,0:0:0:0:
255,192,43880,1,8,0:0:0:0:
256,192,43951,1,0,0:0:0:0:
256,192,44093,1,0,0:0:0:0:
256,192,44164,1,0,0:0:0:0:
256,192,44235,1,8,0:0:0:0:
256,191,44378,1,0,0:0:0:0:
256,192,44662,1,0,0:0:0:0:
256,192,44804,1,8,0:0:0:0:
256,192,44946,1,0,0:0:0:0:
256,192,45088,1,8,0:0:0:0:
256,192,45160,1,8,0:0:0:0:
256,192,45231,1,0,0:0:0:0:
256,191,45302,1,0,0:0:0:0:
256,191,45373,1,8,0:0:0:0:
256,191,45515,1,8,0:0:0:0:
256,192,45657,1,4,0:0:0:0:
256,192,45799,1,4,0:0:0:0:
256,192,46084,1,4,0:0:0:0:
256,192,46368,1,4,0:0:0:0:
256,192,46652,1,4,0:0:0:0:
256,192,46937,1,8,0:0:0:0:
256,192,47008,1,8,0:0:0:0:
256,192,47079,1,0,0:0:0:0:
256,192,47269,1,0,0:0:0:0:
256,191,47363,1,8,0:0:0:0:
256,192,47553,1,0,0:0:0:0:
256,192,47648,1,8,0:0:0:0:
256,192,47742,1,0,0:0:0:0:
256,192,47837,1,0,0:0:0:0:
256,192,47932,1,8,0:0:0:0:
256,191,48216,1,0,0:0:0:0:
256,191,48311,1,8,0:0:0:0:
256,191,48406,1,8,0:0:0:0:
256,191,48501,1,0,0:0:0:0:
256,192,48785,1,8,0:0:0:0:
256,191,48927,1,0,0:0:0:0:
256,191,48998,1,0,0:0:0:0:
256,191,49069,1,8,0:0:0:0:
257,191,49212,1,0,0:0:0:0:
256,191,49354,1,8,0:0:0:0:
256,191,49425,1,0,0:0:0:0:
256,191,49496,1,8,0:0:0:0:
256,191,49567,1,0,0:0:0:0:
256,191,49638,1,8,0:0:0:0:
256,192,49923,1,8,0:0:0:0:
256,191,50207,1,0,0:0:0:0:
256,191,50349,1,0,0:0:0:0:
256,191,50491,1,8,0:0:0:0:
256,191,50633,1,0,0:0:0:0:
255,191,50776,1,8,0:0:0:0:
255,191,50918,1,8,0:0:0:0:
256,191,51060,1,0,0:0:0:0:
256,191,51202,1,0,0:0:0:0:
256,191,51344,1,8,0:0:0:0:
256,192,52197,1,0,0:0:0:0:
256,192,52340,1,8,0:0:0:0:
256,192,52482,1,0,0:0:0:0:
256,192,52766,1,8,0:0:0:0:
256,192,52861,1,0,0:0:0:0:
256,192,52956,1,0,0:0:0:0:
256,192,53050,1,8,0:0:0:0:
256,192,53335,1,8,0:0:0:0:
256,192,53477,1,0,0:0:0:0:
256,192,53548,1,0,0:0:0:0:
256,192,53619,1,8,0:0:0:0:
256,192,53761,1,0,0:0:0:0:
256,192,53904,1,8,0:0:0:0:
256,192,53975,1,0,0:0:0:0:
256,192,54046,1,8,0:0:0:0:
256,191,54117,1,0,0:0:0:0:
256,191,54188,1,8,0:0:0:0:
256,192,54472,1,0,0:0:0:0:
256,192,54567,1,8,0:0:0:0:
256,192,54662,1,8,0:0:0:0:
256,192,54757,1,0,0:0:0:0:
256,192,54899,1,8,0:0:0:0:
256,192,55041,1,0,0:0:0:0:
256,192,55183,1,0,0:0:0:0:
256,192,55325,1,8,0:0:0:0:
256,192,55468,1,0,0:0:0:0:
256,192,55610,1,8,0:0:0:0:
256,192,55752,1,0,0:0:0:0:
256,192,55894,1,8,0:0:0:0:
256,192,56747,1,8,0:0:0:0:
256,192,56818,1,0,0:0:0:0:
256,192,56889,1,8,0:0:0:0:
256,192,56960,1,0,0:0:0:0:
256,192,57032,1,8,0:0:0:0:
256,192,57174,1,0,0:0:0:0:
256,192,57316,1,8,0:0:0:0:
256,192,57458,1,0,0:0:0:0:
256,192,57600,1,8,0:0:0:0:
256,192,57742,1,8,0:0:0:0:
256,192,57885,1,0,0:0:0:0:
256,192,58169,1,0,0:0:0:0:
256,192,58311,1,8,0:0:0:0:
256,192,58453,1,0,0:0:0:0:
256,192,58596,1,0,0:0:0:0:
256,192,58738,1,8,0:0:0:0:
256,192,58880,1,8,0:0:0:0:
256,192,59022,1,0,0:0:0:0:
256,192,59306,1,0,0:0:0:0:
256,192,59449,1,0,0:0:0:0:
256,192,59591,1,8,0:0:0:0:
256,192,59733,1,0,0:0:0:0:
256,192,59875,1,8,0:0:0:0:
256,192,60017,1,8,0:0:0:0:
256,192,60160,1,0,0:0:0:0:
256,192,60444,1,8,0:0:0:0:
256,192,60586,1,8,0:0:0:0:
256,192,60728,1,0,0:0:0:0:
256,192,60870,1,8,0:0:0:0:
256,192,61013,1,0,0:0:0:0:
256,192,61155,1,0,0:0:0:0:
256,192,61297,1,8,0:0:0:0:
256,192,61581,1,4,0:0:0:0:
256,192,62577,1,12,0:0:0:0:
256,192,63714,12,8,65562,0:0:0:0:
256,192,65705,5,0,0:0:0:0:
256,192,65776,1,0,0:0:0:0:
256,192,65847,5,8,0:0:0:0:
256,192,66131,1,4,0:0:0:0:
256,192,66415,1,0,0:0:0:0:
256,192,66558,1,8,0:0:0:0:
256,192,66842,1,0,0:0:0:0:
256,192,66984,1,8,0:0:0:0:
256,192,67126,1,8,0:0:0:0:
256,192,67269,1,0,0:0:0:0:
256,192,67411,1,0,0:0:0:0:
256,192,67553,1,8,0:0:0:0:
256,192,67695,1,8,0:0:0:0:
255,191,67979,1,8,0:0:0:0:
255,191,68122,1,0,0:0:0:0:
255,191,68264,1,0,0:0:0:0:
255,192,68335,1,0,0:0:0:0:
256,191,68406,1,8,0:0:0:0:
255,192,68548,1,0,0:0:0:0:
255,192,68690,1,8,0:0:0:0:
255,192,68832,1,0,0:0:0:0:
255,191,69117,1,0,0:0:0:0:
255,191,69259,1,8,0:0:0:0:
255,191,69401,1,8,0:0:0:0:
255,191,69543,1,0,0:0:0:0:
256,191,69686,1,0,0:0:0:0:
256,191,69828,1,8,0:0:0:0:
256,191,69970,1,0,0:0:0:0:
256,191,70254,1,0,0:0:0:0:
256,191,70396,1,8,0:0:0:0:
256,191,70539,1,0,0:0:0:0:
256,191,70681,1,8,0:0:0:0:
256,191,70752,1,8,0:0:0:0:
256,191,70823,1,0,0:0:0:0:
256,191,70965,1,0,0:0:0:0:
256,191,71107,1,8,0:0:0:0:
256,191,71250,1,8,0:0:0:0:
256,191,71392,1,0,0:0:0:0:
256,191,71534,1,8,0:0:0:0:
256,192,71605,1,8,0:0:0:0:
256,191,71676,1,0,0:0:0:0:
256,191,71818,1,0,0:0:0:0:
256,192,71960,1,8,0:0:0:0:
256,192,72103,1,8,0:0:0:0:
256,192,72245,1,0,0:0:0:0:
256,192,72387,1,8,0:0:0:0:
256,192,72529,1,0,0:0:0:0:
256,191,72671,1,0,0:0:0:0:
256,191,72956,1,0,0:0:0:0:
256,191,73098,1,8,0:0:0:0:
256,191,73240,1,0,0:0:0:0:
256,191,73382,1,8,0:0:0:0:
256,191,73453,1,8,0:0:0:0:
256,191,73524,1,8,0:0:0:0:
256,192,73667,1,0,0:0:0:0:
256,192,73809,1,8,0:0:0:0:
256,191,73951,1,8,0:0:0:0:
256,191,74093,1,0,0:0:0:0:
256,191,74235,1,8,0:0:0:0:
256,191,74306,1,8,0:0:0:0:
256,191,74378,1,8,0:0:0:0:
256,191,74520,1,0,0:0:0:0:
256,191,74662,1,8,0:0:0:0:
257,191,74804,1,8,0:0:0:0:
255,191,74946,1,0,0:0:0:0:
255,191,75017,1,0,0:0:0:0:
255,191,75088,1,8,0:0:0:0:
256,191,75231,1,0,0:0:0:0:
255,192,75515,1,8,0:0:0:0:
255,192,75657,1,0,0:0:0:0:
255,192,75728,1,0,0:0:0:0:
256,192,75799,1,8,0:0:0:0:
256,192,75941,1,0,0:0:0:0:
256,192,76084,1,8,0:0:0:0:
256,192,76155,1,0,0:0:0:0:
256,192,76226,1,8,0:0:0:0:
256,192,76297,1,8,0:0:0:0:
256,192,76368,1,0,0:0:0:0:
256,191,76510,1,8,0:0:0:0:
256,191,76581,1,8,0:0:0:0:
256,191,76652,1,8,0:0:0:0:
256,192,76795,1,0,0:0:0:0:
256,192,77079,1,0,0:0:0:0:
256,192,77221,1,8,0:0:0:0:
256,192,77363,1,8,0:0:0:0:
256,192,77648,1,0,0:0:0:0:
256,192,77790,1,8,0:0:0:0:
256,192,77861,1,0,0:0:0:0:
256,192,77932,1,8,0:0:0:0:
256,192,78003,1,8,0:0:0:0:
256,192,78074,1,0,0:0:0:0:
255,192,78216,1,0,0:0:0:0:
256,192,78359,1,8,0:0:0:0:
256,192,78430,1,8,0:0:0:0:
256,192,78501,1,0,0:0:0:0:
256,192,78572,1,8,0:0:0:0:
255,192,78643,1,0,0:0:0:0:
255,192,78785,1,8,0:0:0:0:
255,192,78927,1,0,0:0:0:0:
255,192,78998,1,0,0:0:0:0:
255,192,79069,1,8,0:0:0:0:
255,191,79212,1,0,0:0:0:0:
255,192,79354,1,8,0:0:0:0:
255,192,79425,1,8,0:0:0:0:
255,192,79496,1,0,0:0:0:0:
255,192,79567,1,0,0:0:0:0:
255,192,79638,1,8,0:0:0:0:
255,191,79780,1,8,0:0:0:0:
255,191,80065,1,8,0:0:0:0:
255,191,80207,1,0,0:0:0:0:
255,191,80278,1,8,0:0:0:0:
255,191,80349,1,0,0:0:0:0:
255,191,80491,1,8,0:0:0:0:
255,191,80633,1,0,0:0:0:0:
255,191,80705,1,0,0:0:0:0:
255,191,80776,1,8,0:0:0:0:
255,191,80847,1,8,0:0:0:0:
255,191,80918,1,0,0:0:0:0:
255,191,81060,1,8,0:0:0:0:
255,191,81202,1,8,0:0:0:0:
255,191,81344,1,0,0:0:0:0:
255,191,81415,1,8,0:0:0:0:
255,191,81487,1,0,0:0:0:0:
256,192,81629,1,8,0:0:0:0:
256,192,81771,1,0,0:0:0:0:
256,192,81842,1,0,0:0:0:0:
256,192,81913,1,8,0:0:0:0:
256,192,82055,1,0,0:0:0:0:
254,192,82197,1,8,0:0:0:0:
255,192,82482,1,0,0:0:0:0:
255,192,82624,1,0,0:0:0:0:
255,192,82766,1,0,0:0:0:0:
255,192,82908,1,8,0:0:0:0:
255,191,83050,1,0,0:0:0:0:
255,191,83193,1,12,0:0:0:0:
255,192,83477,1,0,0:0:0:0:
255,192,83619,1,8,0:0:0:0:
255,192,83761,1,0,0:0:0:0:
255,192,83832,1,0,0:0:0:0:
255,192,83904,1,8,0:0:0:0:
255,192,84046,1,0,0:0:0:0:
255,192,84117,1,8,0:0:0:0:
256,192,84188,1,0,0:0:0:0:
256,192,84259,1,8,0:0:0:0:
255,192,84330,1,0,0:0:0:0:
256,192,85468,12,0,86036,0:0:0:0:
255,192,86321,5,8,0:0:0:0:
256,192,86392,1,8,0:0:0:0:
256,192,86463,1,0,0:0:0:0:
255,191,86605,1,12,0:0:0:0:
256,191,86889,1,8,0:0:0:0:
256,191,87032,1,0,0:0:0:0:
256,192,87103,1,0,0:0:0:0:
256,192,87174,1,8,0:0:0:0:
256,191,87316,1,0,0:0:0:0:
256,192,87458,1,8,0:0:0:0:
256,191,87600,1,0,0:0:0:0:
256,192,87671,1,8,0:0:0:0:
255,191,87742,1,0,0:0:0:0:
256,191,87885,1,0,0:0:0:0:
256,191,88027,1,8,0:0:0:0:
256,191,88169,1,0,0:0:0:0:
256,191,88311,1,8,0:0:0:0:
256,191,88382,1,8,0:0:0:0:
256,191,88453,1,0,0:0:0:0:
256,191,88524,1,0,0:0:0:0:
256,191,88596,1,8,0:0:0:0:
255,191,88738,1,0,0:0:0:0:
256,191,88880,1,8,0:0:0:0:
256,191,89164,1,8,0:0:0:0:
256,191,89306,1,0,0:0:0:0:
256,191,89378,1,8,0:0:0:0:
256,191,89449,1,0,0:0:0:0:
256,191,89591,1,8,0:0:0:0:
256,191,89733,1,0,0:0:0:0:
256,191,89875,1,8,0:0:0:0:
256,191,89946,1,8,0:0:0:0:
256,191,90017,1,0,0:0:0:0:
256,191,90160,1,8,0:0:0:0:
256,191,90302,1,0,0:0:0:0:
256,191,90444,1,0,0:0:0:0:
256,191,90586,1,8,0:0:0:0:
256,191,90657,1,0,0:0:0:0:
256,191,90728,1,8,0:0:0:0:
256,190,90799,1,8,0:0:0:0:
256,191,90870,1,0,0:0:0:0:
255,190,91013,1,0,0:0:0:0:
256,191,91155,1,12,0:0:0:0:
256,192,91439,1,0,0:0:0:0:
256,192,91581,1,8,0:0:0:0:
256,192,91652,1,8,0:0:0:0:
256,192,91723,1,0,0:0:0:0:
256,192,91866,1,8,0:0:0:0:
256,192,92008,1,0,0:0:0:0:
256,192,92079,1,0,0:0:0:0:
256,192,92150,1,8,0:0:0:0:
256,192,92221,1,8,0:0:0:0:
256,192,92292,1,0,0:0:0:0:
256,192,92434,1,8,0:0:0:0:
256,192,92577,1,0,0:0:0:0:
256,192,92719,1,8,0:0:0:0:
256,192,92861,1,0,0:0:0:0:
256,192,92932,1,8,0:0:0:0:
256,192,93003,1,0,0:0:0:0:
256,191,93074,1,0,0:0:0:0:
256,192,93145,1,8,0:0:0:0:
256,191,93287,1,8,0:0:0:0:
256,192,93430,1,0,0:0:0:0:
256,192,93714,1,8,0:0:0:0:
255,192,93856,1,0,0:0:0:0:
255,192,93927,1,0,0:0:0:0:
256,192,93998,1,8,0:0:0:0:
256,192,94141,1,0,0:0:0:0:
256,192,94283,1,8,0:0:0:0:
256,192,94425,1,0,0:0:0:0:
256,192,94496,1,8,0:0:0:0:
256,192,94567,1,0,0:0:0:0:
255,192,94709,1,8,0:0:0:0:
255,192,94851,1,8,0:0:0:0:
255,192,94994,1,0,0:0:0:0:
256,191,95136,1,8,0:0:0:0:
256,192,95207,1,0,0:0:0:0:
256,192,95278,1,8,0:0:0:0:
256,191,95349,1,8,0:0:0:0:
256,192,95420,1,0,0:0:0:0:
256,191,95562,1,0,0:0:0:0:
256,191,95705,1,12,0:0:0:0:
256,192,95989,1,0,0:0:0:0:
256,192,96131,1,8,0:0:0:0:
256,192,96202,1,8,0:0:0:0:
256,192,96273,1,0,0:0:0:0:
256,192,96415,1,8,0:0:0:0:
256,192,96558,1,0,0:0:0:0:
256,192,96700,1,8,0:0:0:0:
255,192,96771,1,8,0:0:0:0:
256,192,96842,1,0,0:0:0:0:
255,192,96913,1,0,0:0:0:0:
256,192,96984,1,8,0:0:0:0:
256,192,97126,1,0,0:0:0:0:
256,192,97269,1,8,0:0:0:0:
256,192,97411,1,0,0:0:0:0:
256,192,97482,1,0,0:0:0:0:
256,192,97553,1,8,0:0:0:0:
256,192,97624,1,8,0:0:0:0:
256,192,97695,1,0,0:0:0:0:
256,192,97837,1,8,0:0:0:0:
256,192,97979,1,0,0:0:0:0:
256,192,98264,1,0,0:0:0:0:
256,192,98406,1,8,0:0:0:0:
256,192,98477,1,0,0:0:0:0:
256,192,98548,1,0,0:0:0:0:
256,192,98690,1,8,0:0:0:0:
256,191,98832,1,8,0:0:0:0:
256,192,98975,1,0,0:0:0:0:
256,192,99046,1,8,0:0:0:0:
256,191,99117,1,0,0:0:0:0:
256,192,99188,1,0,0:0:0:0:
256,191,99259,1,8,0:0:0:0:
256,192,99401,1,0,0:0:0:0:
256,192,99543,1,8,0:0:0:0:
256,191,99686,1,0,0:0:0:0:
256,191,99757,1,0,0:0:0:0:
256,191,99828,1,8,0:0:0:0:
256,191,99899,1,0,0:0:0:0:
256,191,99970,1,8,0:0:0:0:
256,191,100112,1,0,0:0:0:0:
256,191,100254,1,12,0:0:0:0:
256,191,100539,1,0,0:0:0:0:
256,192,100681,1,8,0:0:0:0:
256,192,100752,1,8,0:0:0:0:
256,191,100823,1,0,0:0:0:0:
256,191,100965,1,8,0:0:0:0:
256,191,101107,1,0,0:0:0:0:
256,191,101250,1,0,0:0:0:0:
256,191,101392,1,12,0:0:0:0:
256,191,101676,1,8,0:0:0:0:
256,192,101818,1,0,0:0:0:0:
256,192,101889,1,0,0:0:0:0:
256,192,101960,1,8,0:0:0:0:
256,192,102103,1,8,0:0:0:0:
256,192,102245,1,0,0:0:0:0:
256,192,102387,1,0,0:0:0:0:
256,192,102529,1,12,0:0:0:0:
255,193,102814,1,0,0:0:0:0:
255,193,102956,1,8,0:0:0:0:
256,192,103027,1,8,0:0:0:0:
256,192,103098,1,8,0:0:0:0:
256,192,103240,1,0,0:0:0:0:
256,193,103382,1,0,0:0:0:0:
256,192,103524,1,8,0:0:0:0:
256,192,103667,1,0,0:0:0:0:
256,192,103738,1,0,0:0:0:0:
256,192,103809,1,8,0:0:0:0:
256,192,103880,1,8,0:0:0:0:
256,192,103951,1,0,0:0:0:0:
256,192,104093,1,8,0:0:0:0:
256,192,104235,1,0,0:0:0:0:
256,192,104378,1,8,0:0:0:0:
256,192,104449,1,0,0:0:0:0:
256,192,104520,1,8,0:0:0:0:
256,192,104591,1,8,0:0:0:0:
256,192,104662,1,0,0:0:0:0:
256,192,104804,1,12,0:0:0:0:
256,192,105088,1,8,0:0:0:0:
256,192,105231,1,0,0:1:0:0:
256,192,105373,1,8,0:1:0:0:
256,192,105515,1,8,0:0:0:0:
256,192,105657,1,0,0:0:0:0:
256,192,105799,1,8,0:0:0:0:
256,192,105870,1,8,0:0:0:0:
256,192,105941,1,0,0:0:0:0:
256,192,106084,1,8,0:0:0:0:
256,192,106226,1,0,0:0:0:0:
256,192,106368,1,8,0:0:0:0:
256,192,106510,1,0,0:0:0:0:
256,192,106581,1,0,0:0:0:0:
256,192,106652,1,8,0:0:0:0:
256,192,106795,1,0,0:0:0:0:
256,192,107079,1,0,0:0:0:0:
256,192,107221,1,8,0:0:0:0:
256,192,107363,1,0,0:0:0:0:
256,191,107505,1,8,0:0:0:0:
256,192,107577,1,8,0:0:0:0:
256,191,107648,1,0,0:0:0:0:
256,191,107790,1,0,0:0:0:0:
256,191,107932,1,8,0:0:0:0:
256,191,108074,1,0,0:0:0:0:
256,191,108145,1,0,0:0:0:0:
256,191,108216,1,8,0:0:0:0:
256,191,108359,1,0,0:0:0:0:
256,191,108501,1,8,0:0:0:0:
256,190,108643,1,0,0:0:0:0:
256,190,108714,1,0,0:0:0:0:
256,190,108785,1,8,0:0:0:0:
256,190,108856,1,8,0:0:0:0:
256,190,108927,1,0,0:0:0:0:
256,190,109069,1,8,0:0:0:0:
256,190,109212,1,0,0:0:0:0:
256,190,109283,1,0,0:0:0:0:
256,190,109354,1,8,0:0:0:0:
256,192,109638,1,0,0:0:0:0:
256,191,109780,1,8,0:0:0:0:
256,192,109923,1,0,0:0:0:0:
256,191,110065,1,0,0:0:0:0:
256,191,110207,1,8,0:0:0:0:
256,191,110349,1,0,0:0:0:0:
256,191,110420,1,8,0:0:0:0:
256,191,110491,1,0,0:0:0:0:
256,191,110633,1,8,0:0:0:0:
256,191,110776,1,8,0:0:0:0:
256,191,110918,1,0,0:0:0:0:
256,191,111060,1,8,0:0:0:0:
256,191,111202,1,0,0:0:0:0:
256,191,111273,1,0,0:0:0:0:
256,191,111344,1,8,0:0:0:0:
256,191,111487,1,0,0:0:0:0:
256,192,111629,1,8,0:0:0:0:
256,192,111913,1,0,0:0:0:0:
256,191,112055,1,8,0:0:0:0:
256,191,112126,1,8,0:0:0:0:
256,191,112197,1,0,0:0:0:0:
256,191,112340,1,8,0:0:0:0:
255,191,112411,1,8,0:0:0:0:
256,191,112482,1,0,0:0:0:0:
256,191,112553,1,0,0:0:0:0:
256,192,112624,1,8,0:0:0:0:
256,191,112766,1,0,0:0:0:0:
256,191,112908,1,8,0:0:0:0:
256,191,112979,1,0,0:0:0:0:
255,191,113050,1,8,0:0:0:0:
255,191,113122,1,8,0:0:0:0:
256,190,113193,1,0,0:0:0:0:
256,190,113335,1,8,0:0:0:0:
256,190,113477,1,0,0:0:0:0:
256,190,113548,1,0,0:0:0:0:
256,190,113619,1,8,0:0:0:0:
256,190,113690,1,8,0:0:0:0:
256,190,113761,1,8,0:0:0:0:
256,190,113904,1,0,0:0:0:0:
256,191,114188,1,8,0:0:0:0:
256,191,114330,1,0,0:0:0:0:
256,191,114472,1,8,0:0:0:0:
255,190,114614,1,8,0:0:0:0:
255,190,114757,1,0,0:0:0:0:
255,190,114899,1,8,0:0:0:0:
255,190,115041,1,0,0:0:0:0:
256,191,115112,1,0,0:0:0:0:
255,190,115183,1,8,0:0:0:0:
255,190,115325,1,0,0:0:0:0:
255,191,115468,1,0,0:0:0:0:
255,191,115610,1,8,0:0:0:0:
255,190,115681,1,0,0:0:0:0:
255,191,115752,1,8,0:0:0:0:
255,190,115823,1,8,0:0:0:0:
255,191,115894,1,0,0:0:0:0:
255,190,116036,1,8,0:0:0:0:
255,191,116178,1,0,0:0:0:0:
256,191,116463,1,0,0:0:0:0:
255,191,116605,1,8,0:0:0:0:
255,190,116747,1,0,0:0:0:0:
255,190,116889,1,8,0:0:0:0:
255,190,116960,1,8,0:0:0:0:
255,190,117032,1,0,0:0:0:0:
255,190,117174,1,8,0:0:0:0:
256,191,117316,1,0,0:0:0:0:
256,191,117411,1,0,0:0:0:0:
256,191,117505,1,8,0:0:0:0:
256,191,117600,1,8,0:0:0:0:
255,191,117885,1,8,0:0:0:0:
256,191,118074,1,0,0:0:0:0:
256,191,118169,1,8,0:0:0:0:
256,191,118264,1,0,0:0:0:0:
256,191,118359,1,0,0:0:0:0:
256,191,118453,1,8,0:0:0:0:
255,191,118738,1,8,0:0:0:0:
256,191,118880,1,0,0:0:0:0:
256,191,119022,1,0,0:0:0:0:
256,191,119164,1,8,0:0:0:0:
255,191,119306,1,0,0:0:0:0:
256,191,119378,1,8,0:0:0:0:
255,191,119449,1,0,0:0:0:0:
255,191,119591,1,8,0:0:0:0:
255,191,119733,1,0,0:0:0:0:
256,191,119804,1,0,0:0:0:0:
256,191,119875,1,8,0:0:0:0:
255,191,120017,1,0,0:0:0:0:
255,191,120160,1,8,0:0:0:0:
256,191,120231,1,8,0:0:0:0:
255,191,120302,1,8,0:0:0:0:
255,191,120444,1,0,0:0:0:0:
256,191,120586,1,0,0:0:0:0:
256,192,120728,1,8,0:0:0:0:
256,191,120799,1,8,0:0:0:0:
256,191,120870,1,8,0:0:0:0:
255,191,120941,1,8,0:0:0:0:
256,192,121013,1,0,0:0:0:0:
256,192,121155,1,8,0:0:0:0:
256,192,121226,1,8,0:0:0:0:
256,191,121297,1,0,0:0:0:0:
256,192,121439,1,0,0:0:0:0:
256,192,121581,1,8,0:0:0:0:
256,192,121652,1,8,0:0:0:0:
256,192,121723,1,8,0:0:0:0:
256,192,121795,1,8,0:0:0:0:
256,192,121866,1,0,0:0:0:0:
256,192,122008,1,8,0:0:0:0:
256,192,122150,1,0,0:0:0:0:
256,192,122292,1,0,0:0:0:0:
256,192,122434,1,8,0:0:0:0:
256,192,122505,1,8,0:0:0:0:
255,191,122648,1,8,0:0:0:0:
255,191,122719,1,8,0:0:0:0:
255,191,122861,1,8,0:0:0:0:
256,191,122932,1,8,0:0:0:0:
256,191,123572,1,0,0:0:0:0:
256,191,123714,1,0,0:0:0:0:
256,191,123785,1,0,0:0:0:0:
256,191,123856,1,8,0:0:0:0:
