osu file format v14

[General]
AudioFilename: audio.mp3
AudioLeadIn: 0
PreviewTime: 86178
Countdown: 0
SampleSet: Normal
StackLeniency: 0.7
Mode: 1
LetterboxInBreaks: 0
WidescreenStoryboard: 1

[Editor]
Bookmarks: 57032
DistanceSpacing: 0.4
BeatDivisor: 4
GridSize: 8
TimelineZoom: 3

[Metadata]
Title:Hisui
TitleUnicode:翡翠
Artist:Trerey-U + NIWASHI
ArtistUnicode:Trerey-U + 庭師
Creator:Boaz
Version:490's Futsuu
Source:BOFU2017
Tags:_vex vexinho antti vixlowo _vix arcpotato 490 hivie mappers' guild mpg fa featured artist electronic instrumental jazz video game THE BMS OF FIGHTERS 2017 -LEGENDA EST A MYTH- ULTIMATE
BeatmapID:3824467
BeatmapSetID:1795383

[Difficulty]
HPDrainRate:7
CircleSize:5
OverallDifficulty:4
ApproachRate:5
SliderMultiplier:1.4
SliderTickRate:1

[Events]
//Background and Video events
0,0,"hisui.jpg",0,0
//Break Periods
//Storyboard Layer 0 (Background)
//Storyboard Layer 1 (Fail)
//Storyboard Layer 2 (Pass)
//Storyboard Layer 3 (Foreground)
//Storyboard Layer 4 (Overlay)
//Storyboard Sound Samples

[TimingPoints]
160,284.360189573459,4,1,0,80,1,0
160,-100,4,1,0,80,0,0
5274,-100,4,1,0,80,0,0
5345,-100,4,1,0,80,0,0
5416,-100,4,1,0,80,0,0
5487,-100,4,1,0,80,0,0
5701,-100,4,1,0,80,0,0
9255,-100,4,1,0,80,0,0
9397,-100,4,1,0,80,0,0
9539,-100,4,1,0,80,0,0
9682,-100,4,1,0,80,0,0
9824,-100,4,1,0,80,0,0
9966,-100,4,1,0,80,0,0
10108,-100,4,1,0,80,0,0
10250,-100,4,1,0,80,0,0
10392,-100,4,1,0,80,0,0
10535,-100,4,1,0,80,0,0
10677,-100,4,1,0,80,0,0
10819,-100,4,1,0,80,0,0
11672,-100,4,1,0,80,0,0
11743,-100,4,1,0,80,0,0
11814,-100,4,1,0,80,0,0
11885,-100,4,1,0,80,0,0
11956,-100,4,1,0,80,0,0
12028,-100,4,1,0,80,0,0
12099,-100,4,1,0,80,0,0
12170,-100,4,1,0,80,0,0
12241,-100,4,1,0,80,0,0
12312,-100,4,1,0,80,0,0
12383,-100,4,1,0,80,0,0
12454,-100,4,1,0,80,0,0
12525,-100,4,1,0,80,0,0
12596,-100,4,1,0,80,0,0
12667,-100,4,1,0,80,0,0
12738,-100,4,1,0,80,0,0
12810,-100,4,1,0,80,0,0
12881,-100,4,1,0,80,0,0
12952,-100,4,1,0,80,0,0
13023,-100,4,1,0,80,0,0
13094,-100,4,1,0,80,0,0
13165,-100,4,1,0,80,0,0
13236,-100,4,1,0,80,0,0
13307,-100,4,1,0,80,0,0
13378,-100,4,1,0,80,0,0
13449,-100,4,1,0,80,0,0
13520,-100,4,1,0,80,0,0
13592,-100,4,1,0,80,0,0
13663,-100,4,1,0,80,0,0
13734,-100,4,1,0,80,0,0
13805,-100,4,1,0,80,0,0
16222,-100,4,1,0,80,0,0
16293,-100,4,1,0,80,0,0
16364,-100,4,1,0,80,0,0
16435,-100,4,1,0,80,0,0
16506,-100,4,1,0,80,0,0
16578,-100,4,1,0,80,0,0
16649,-100,4,1,0,80,0,0
16720,-100,4,1,0,80,0,0
16791,-100,4,1,0,80,0,0
16862,-100,4,1,0,80,0,0
16933,-100,4,1,0,80,0,0
17004,-100,4,1,0,80,0,0
17075,-100,4,1,0,80,0,0
17146,-100,4,1,0,80,0,0
17217,-100,4,1,0,80,0,0
17288,-100,4,1,0,80,0,0
17360,-100,4,1,0,80,0,0
17431,-100,4,1,0,80,0,0
17502,-100,4,1,0,80,0,0
17573,-100,4,1,0,80,0,0
17644,-100,4,1,0,80,0,0
17715,-100,4,1,0,80,0,0
17786,-100,4,1,0,80,0,0
17857,-100,4,1,0,80,0,0
17928,-100,4,1,0,80,0,0
17999,-100,4,1,0,80,0,0
18070,-100,4,1,0,80,0,0
18142,-100,4,1,0,80,0,0
18213,-100,4,1,0,80,0,0
18284,-100,4,1,0,80,0,0
18355,-100,4,1,0,80,0,0
20772,-100,4,1,0,80,0,0
20843,-100,4,1,0,80,0,0
20914,-100,4,1,0,80,0,0
20985,-100,4,1,0,80,0,0
21056,-100,4,1,0,80,0,0
21128,-100,4,1,0,80,0,0
21199,-100,4,1,0,80,0,0
21270,-100,4,1,0,80,0,0
21341,-100,4,1,0,80,0,0
21412,-100,4,1,0,80,0,0
21483,-100,4,1,0,80,0,0
21554,-100,4,1,0,80,0,0
21625,-100,4,1,0,80,0,0
21696,-100,4,1,0,80,0,0
21767,-100,4,1,0,80,0,0
21838,-100,4,1,0,80,0,0
21910,-100,4,1,0,80,0,0
21981,-100,4,1,0,80,0,0
22052,-100,4,1,0,80,0,0
22123,-100,4,1,0,80,0,0
22194,-100,4,1,0,80,0,0
22265,-100,4,1,0,80,0,0
22336,-100,4,1,0,80,0,0
22407,-100,4,1,0,80,0,0
22478,-100,4,1,0,80,0,0
22549,-100,4,1,0,80,0,0
22620,-100,4,1,0,80,0,0
22692,-100,4,1,0,80,0,0
22763,-100,4,1,0,80,0,0
22834,-100,4,1,0,80,0,0
22905,-100,4,1,0,80,0,0
25321,-100,4,1,0,80,0,0
25392,-100,4,1,0,80,0,0
25463,-100,4,1,0,80,0,0
25534,-100,4,1,0,80,0,0
25605,-100,4,1,0,80,0,0
25677,-100,4,1,0,80,0,0
25748,-100,4,1,0,80,0,0
25819,-100,4,1,0,80,0,0
25890,-100,4,1,0,80,0,0
25961,-100,4,1,0,80,0,0
26032,-100,4,1,0,80,0,0
26103,-100,4,1,0,80,0,0
26174,-100,4,1,0,80,0,0
26245,-100,4,1,0,80,0,0
26316,-100,4,1,0,80,0,0
26387,-100,4,1,0,80,0,0
26459,-100,4,1,0,80,0,0
26530,-100,4,1,0,80,0,0
26601,-100,4,1,0,80,0,0
26672,-100,4,1,0,80,0,0
26743,-100,4,1,0,80,0,0
26814,-100,4,1,0,80,0,0
26885,-100,4,1,0,80,0,0
26956,-100,4,1,0,80,0,0
27027,-100,4,1,0,80,0,0
27098,-100,4,1,0,80,0,0
27169,-100,4,1,0,80,0,0
27241,-100,4,1,0,80,0,0
27312,-100,4,1,0,80,0,0
27383,-100,4,1,0,80,0,0
27454,-100,4,1,0,80,0,0
45657,-100,4,1,0,80,0,0
45799,-100,4,1,0,80,0,0
46084,-100,4,1,0,80,0,0
46368,-100,4,1,0,80,0,0
46652,-100,4,1,0,80,0,0
46795,-100,4,1,0,80,0,0
46937,-100,4,1,0,80,0,0
46984,-100,4,1,0,80,0,0
47032,-100,4,1,0,80,0,0
47079,-100,4,1,0,80,0,0
47174,-100,4,1,0,80,0,0
47269,-100,4,1,0,80,0,0
47363,-100,4,1,0,80,0,0
47458,-100,4,1,0,80,0,0
47553,-100,4,1,0,80,0,0
47648,-100,4,1,0,80,0,0
50207,-100,4,1,0,80,0,0
50349,-100,4,1,0,80,0,0
50491,-100,4,1,0,80,0,0
50633,-100,4,1,0,80,0,0
50776,-100,4,1,0,80,0,0
50918,-100,4,1,0,80,0,0
51060,-100,4,1,0,80,0,0
51202,-100,4,1,0,80,0,0
51344,-100,4,1,0,80,0,0
54757,-100,4,1,0,80,0,0
54899,-100,4,1,0,80,0,0
55041,-100,4,1,0,80,0,0
55183,-100,4,1,0,80,0,0
55325,-100,4,1,0,80,0,0
55468,-100,4,1,0,80,0,0
55610,-100,4,1,0,80,0,0
55752,-100,4,1,0,80,0,0
55894,-100,4,1,0,80,0,0
61581,-100,4,1,0,80,0,0
62577,-100,4,1,0,80,0,0
63714,-100,4,1,0,80,0,0
65562,-100,4,1,0,80,0,0
65705,-100,4,1,0,80,0,0
65776,-100,4,1,0,80,0,0
65847,-100,4,1,0,80,0,0
65918,-100,4,1,0,80,0,0
65989,-100,4,1,0,80,0,0
66060,-100,4,1,0,80,0,0
66131,-100,4,1,0,80,0,0
75444,-100,4,1,0,80,0,0
75515,-100,4,1,0,80,0,0
75586,-100,4,1,0,80,0,0
75657,-100,4,1,0,80,0,0
75728,-100,4,1,0,80,0,0
75799,-100,4,1,0,80,0,0
75870,-100,4,1,0,80,0,0
75941,-100,4,1,0,80,0,0
76013,-100,4,1,0,80,0,0
76084,-100,4,1,0,80,0,0
76155,-100,4,1,0,80,0,0
76226,-100,4,1,0,80,0,0
76297,-100,4,1,0,80,0,0
76368,-100,4,1,0,80,0,0
77505,-100,4,1,0,80,0,0
77577,-100,4,1,0,80,0,0
77648,-100,4,1,0,80,0,0
77719,-100,4,1,0,80,0,0
77790,-100,4,1,0,80,0,0
77861,-100,4,1,0,80,0,0
77932,-100,4,1,0,80,0,0
78003,-100,4,1,0,80,0,0
78074,-100,4,1,0,80,0,0
78122,-100,4,1,0,80,0,0
78169,-100,4,1,0,80,0,0
78216,-100,4,1,0,80,0,0
78287,-100,4,1,0,80,0,0
78359,-100,4,1,0,80,0,0
78430,-100,4,1,0,80,0,0
78501,-100,4,1,0,80,0,0
78572,-100,4,1,0,80,0,0
78643,-100,4,1,0,80,0,0
78714,-100,4,1,0,80,0,0
78785,-100,4,1,0,80,0,0
78856,-100,4,1,0,80,0,0
78927,-100,4,1,0,80,0,0
78998,-100,4,1,0,80,0,0
79069,-100,4,1,0,80,0,0
79141,-100,4,1,0,80,0,0
79212,-100,4,1,0,80,0,0
79283,-100,4,1,0,80,0,0
79354,-100,4,1,0,80,0,0
79425,-100,4,1,0,80,0,0
79496,-100,4,1,0,80,0,0
79567,-100,4,1,0,80,0,0
79638,-100,4,1,0,80,0,0
79709,-100,4,1,0,80,0,0
79780,-100,4,1,0,80,0,0
79851,-100,4,1,0,80,0,0
79923,-100,4,1,0,80,0,0
79994,-100,4,1,0,80,0,0
80065,-100,4,1,0,80,0,0
80136,-100,4,1,0,80,0,0
80207,-100,4,1,0,80,0,0
80278,-100,4,1,0,80,0,0
80349,-100,4,1,0,80,0,0
80420,-100,4,1,0,80,0,0
80491,-100,4,1,0,80,0,0
80562,-100,4,1,0,80,0,0
80633,-100,4,1,0,80,0,0
80705,-100,4,1,0,80,0,0
80776,-100,4,1,0,80,0,0
80847,-100,4,1,0,80,0,0
80918,-100,4,1,0,80,0,0
80989,-100,4,1,0,80,0,0
81060,-100,4,1,0,80,0,0
81131,-100,4,1,0,80,0,0
81202,-100,4,1,0,80,0,0
81344,-100,4,1,0,80,0,0
81415,-100,4,1,0,80,0,0
81487,-100,4,1,0,80,0,0
81629,-100,4,1,0,80,0,0
81771,-100,4,1,0,80,0,0
81842,-100,4,1,0,80,0,0
81913,-100,4,1,0,80,0,0
81984,-100,4,1,0,80,0,0
82055,-100,4,1,0,80,0,0
82197,-100,4,1,0,80,0,0
82340,-100,4,1,0,80,0,0
82411,-100,4,1,0,80,0,0
82482,-100,4,1,0,80,0,0
82553,-100,4,1,0,80,0,0
82624,-100,4,1,0,80,0,0
82695,-100,4,1,0,80,0,0
82766,-100,4,1,0,80,0,0
82908,-100,4,1,0,80,0,0
83050,-100,4,1,0,80,0,0
83122,-100,4,1,0,80,0,0
83193,-100,4,1,0,80,0,0
83264,-100,4,1,0,80,0,0
83335,-100,4,1,0,80,0,0
83406,-100,4,1,0,80,0,0
83477,-100,4,1,0,80,0,0
83548,-100,4,1,0,80,0,0
83619,-100,4,1,0,80,0,0
83690,-100,4,1,0,80,0,0
83761,-100,4,1,0,80,0,0
83832,-100,4,1,0,80,0,0
83904,-100,4,1,0,80,0,0
83975,-100,4,1,0,80,0,0
84046,-100,4,1,0,80,0,0
84117,-100,4,1,0,80,0,0
84188,-100,4,1,0,80,0,0
84259,-100,4,1,0,80,0,0
84330,-100,4,1,0,80,0,0
86178,-100,4,1,0,80,0,0
86226,-100,4,1,0,80,0,0
86273,-100,4,1,0,80,0,0
86321,-100,4,1,0,80,0,0
86463,-100,4,1,0,80,0,0
86605,-100,4,1,0,85,0,1
86889,-100,4,1,0,80,0,1
87032,-100,4,1,0,80,0,1
87103,-100,4,1,0,80,0,1
87174,-100,4,1,0,80,0,1
87316,-100,4,1,0,80,0,1
87458,-100,4,1,0,80,0,1
87600,-100,4,1,0,80,0,1
87671,-100,4,1,0,80,0,1
87742,-100,4,1,0,80,0,1
87885,-100,4,1,0,80,0,1
88027,-100,4,1,0,80,0,1
88098,-100,4,1,0,80,0,1
88169,-100,4,1,0,80,0,1
88240,-100,4,1,0,80,0,1
88311,-100,4,1,0,80,0,1
88453,-100,4,1,0,80,0,1
88596,-100,4,1,0,80,0,1
88738,-100,4,1,0,80,0,1
88809,-100,4,1,0,80,0,1
88880,-100,4,1,0,80,0,1
89164,-100,4,1,0,80,0,1
89306,-100,4,1,0,80,0,1
89378,-100,4,1,0,80,0,1
89449,-100,4,1,0,80,0,1
89591,-100,4,1,0,80,0,1
89733,-100,4,1,0,80,0,1
89875,-100,4,1,0,80,0,1
89946,-100,4,1,0,80,0,1
90017,-100,4,1,0,80,0,1
90160,-100,4,1,0,80,0,1
90302,-100,4,1,0,80,0,1
90444,-100,4,1,0,80,0,1
90515,-100,4,1,0,80,0,1
90586,-100,4,1,0,80,0,1
90728,-100,4,1,0,80,0,1
90870,-100,4,1,0,80,0,1
90941,-100,4,1,0,80,0,1
91013,-100,4,1,0,80,0,1
91084,-100,4,1,0,80,0,1
91155,-100,4,1,0,80,0,1
91439,-100,4,1,0,80,0,1
91581,-100,4,1,0,80,0,1
91652,-100,4,1,0,80,0,1
91723,-100,4,1,0,80,0,1
91866,-100,4,1,0,80,0,1
92008,-100,4,1,0,80,0,1
92150,-100,4,1,0,80,0,1
92221,-100,4,1,0,80,0,1
92292,-100,4,1,0,80,0,1
92434,-100,4,1,0,80,0,1
92577,-100,4,1,0,80,0,1
92648,-100,4,1,0,80,0,1
92719,-100,4,1,0,80,0,1
92790,-100,4,1,0,80,0,1
92861,-100,4,1,0,80,0,1
93003,-100,4,1,0,80,0,1
93145,-100,4,1,0,80,0,1
93287,-100,4,1,0,80,0,1
93359,-100,4,1,0,80,0,1
93430,-100,4,1,0,80,0,1
93714,-100,4,1,0,80,0,1
93856,-100,4,1,0,80,0,1
93927,-100,4,1,0,80,0,1
93998,-100,4,1,0,80,0,1
94141,-100,4,1,0,80,0,1
94283,-100,4,1,0,80,0,1
94425,-100,4,1,0,80,0,1
94496,-100,4,1,0,80,0,1
94567,-100,4,1,0,80,0,1
94709,-100,4,1,0,80,0,1
94851,-100,4,1,0,80,0,1
94994,-100,4,1,0,80,0,1
95065,-100,4,1,0,80,0,1
95136,-100,4,1,0,80,0,1
95278,-100,4,1,0,80,0,1
95420,-100,4,1,0,80,0,1
95491,-100,4,1,0,80,0,1
95562,-100,4,1,0,80,0,1
95633,-100,4,1,0,80,0,1
95705,-100,4,1,0,80,0,1
95989,-100,4,1,0,80,0,1
96131,-100,4,1,0,80,0,1
96202,-100,4,1,0,80,0,1
96273,-100,4,1,0,80,0,1
96415,-100,4,1,0,80,0,1
96558,-100,4,1,0,80,0,1
96700,-100,4,1,0,80,0,1
96771,-100,4,1,0,80,0,1
96842,-100,4,1,0,80,0,1
96984,-100,4,1,0,80,0,1
97126,-100,4,1,0,80,0,1
97269,-100,4,1,0,80,0,1
97340,-100,4,1,0,80,0,1
97411,-100,4,1,0,80,0,1
97482,-100,4,1,0,80,0,1
97553,-100,4,1,0,80,0,1
97624,-100,4,1,0,80,0,1
97695,-100,4,1,0,80,0,1
97766,-100,4,1,0,80,0,1
97837,-100,4,1,0,80,0,1
97908,-100,4,1,0,80,0,1
97979,-100,4,1,0,80,0,1
98264,-100,4,1,0,80,0,1
98406,-100,4,1,0,80,0,1
98477,-100,4,1,0,80,0,1
98548,-100,4,1,0,80,0,1
98690,-100,4,1,0,80,0,1
98832,-100,4,1,0,80,0,1
98975,-100,4,1,0,80,0,1
99046,-100,4,1,0,80,0,1
99117,-100,4,1,0,80,0,1
99259,-100,4,1,0,80,0,1
99401,-100,4,1,0,80,0,1
99543,-100,4,1,0,80,0,1
99614,-100,4,1,0,80,0,1
99686,-100,4,1,0,80,0,1
99757,-100,4,1,0,80,0,1
99828,-100,4,1,0,80,0,1
99899,-100,4,1,0,80,0,1
99970,-100,4,1,0,80,0,1
100041,-100,4,1,0,80,0,1
100112,-100,4,1,0,80,0,1
100183,-100,4,1,0,80,0,1
100254,-100,4,1,0,80,0,1
100539,-100,4,1,0,80,0,1
100681,-100,4,1,0,80,0,1
100752,-100,4,1,0,80,0,1
100823,-100,4,1,0,80,0,1
100965,-100,4,1,0,80,0,1
101107,-100,4,1,0,80,0,1
101392,-100,4,1,0,80,0,1
101676,-100,4,1,0,80,0,1
101818,-100,4,1,0,80,0,1
101889,-100,4,1,0,80,0,1
101960,-100,4,1,0,80,0,1
102103,-100,4,1,0,80,0,1
102245,-100,4,1,0,80,0,1
102529,-100,4,1,0,80,0,1
102814,-100,4,1,0,80,0,1
102956,-100,4,1,0,80,0,1
103027,-100,4,1,0,80,0,1
103098,-100,4,1,0,80,0,1
103240,-100,4,1,0,80,0,1
103382,-100,4,1,0,80,0,1
103524,-100,4,1,0,80,0,1
103596,-100,4,1,0,80,0,1
103667,-100,4,1,0,80,0,0
103809,-100,4,1,0,80,0,0
103880,-100,4,1,0,80,0,0
103951,-100,4,1,0,80,0,0
104022,-100,4,1,0,80,0,0
104093,-100,4,1,0,80,0,0
104164,-100,4,1,0,80,0,0
104235,-100,4,1,0,80,0,0
104306,-100,4,1,0,80,0,0
104378,-100,4,1,0,80,0,0
104449,-100,4,1,0,80,0,0
104520,-100,4,1,0,80,0,0
104591,-100,4,1,0,80,0,0
104662,-100,4,1,0,80,0,0
104733,-100,4,1,0,80,0,0
104804,-100,4,1,0,80,0,1
107079,-100,4,1,0,80,0,1
107221,-100,4,1,0,80,0,1
107292,-100,4,1,0,80,0,1
107363,-100,4,1,0,80,0,1
107434,-100,4,1,0,80,0,1
107505,-100,4,1,0,80,0,1
107648,-100,4,1,0,80,0,1
107719,-100,4,1,0,80,0,1
107790,-100,4,1,0,80,0,1
107861,-100,4,1,0,80,0,1
107932,-100,4,1,0,80,0,1
108003,-100,4,1,0,80,0,1
108074,-100,4,1,0,80,0,1
108145,-100,4,1,0,80,0,1
108216,-100,4,1,0,80,0,1
108287,-100,4,1,0,80,0,1
108359,-100,4,1,0,80,0,1
108501,-100,4,1,0,80,0,1
108572,-100,4,1,0,80,0,1
108643,-100,4,1,0,80,0,1
108714,-100,4,1,0,80,0,1
108785,-100,4,1,0,80,0,1
108856,-100,4,1,0,80,0,1
108927,-100,4,1,0,80,0,1
108998,-100,4,1,0,80,0,1
109069,-100,4,1,0,80,0,1
109141,-100,4,1,0,80,0,1
109212,-100,4,1,0,80,0,1
109283,-100,4,1,0,80,0,1
109354,-100,4,1,0,80,0,1
111629,-100,4,1,0,80,0,1
111771,-100,4,1,0,80,0,1
111842,-100,4,1,0,80,0,1
111913,-100,4,1,0,80,0,1
111984,-100,4,1,0,80,0,1
112055,-100,4,1,0,80,0,1
112197,-100,4,1,0,80,0,1
112269,-100,4,1,0,80,0,1
112340,-100,4,1,0,80,0,1
112411,-100,4,1,0,80,0,1
112482,-100,4,1,0,80,0,1
112624,-100,4,1,0,80,0,1
112695,-100,4,1,0,80,0,1
112766,-100,4,1,0,80,0,1
112908,-100,4,1,0,80,0,1
113050,-100,4,1,0,80,0,1
113122,-100,4,1,0,80,0,1
113193,-100,4,1,0,80,0,1
113264,-100,4,1,0,80,0,1
113335,-100,4,1,0,80,0,1
113406,-100,4,1,0,80,0,1
113477,-100,4,1,0,80,0,1
113548,-100,4,1,0,80,0,1
113619,-100,4,1,0,80,0,1
113690,-100,4,1,0,80,0,1
113761,-100,4,1,0,80,0,1
113832,-100,4,1,0,80,0,1
113904,-100,4,1,0,80,0,1
114046,-100,4,1,0,80,0,1
114188,-100,4,1,0,80,0,1
114330,-100,4,1,0,80,0,1
114472,-100,4,1,0,80,0,1
114614,-100,4,1,0,80,0,1
114757,-100,4,1,0,80,0,1
114899,-100,4,1,0,80,0,1
115041,-100,4,1,0,80,0,1
115183,-100,4,1,0,80,0,1
115325,-100,4,1,0,80,0,1
115468,-100,4,1,0,80,0,1
115610,-100,4,1,0,80,0,1
115752,-100,4,1,0,80,0,1
115823,-100,4,1,0,80,0,1
115894,-100,4,1,0,80,0,1
116036,-100,4,1,0,80,0,1
116178,-100,4,1,0,80,0,1
116321,-100,4,1,0,80,0,1
116463,-100,4,1,0,80,0,1
116605,-100,4,1,0,80,0,1
116747,-100,4,1,0,80,0,1
116889,-100,4,1,0,80,0,1
117032,-100,4,1,0,80,0,1
117174,-100,4,1,0,80,0,1
117316,-100,4,1,0,80,0,1
117411,-100,4,1,0,80,0,1
117505,-100,4,1,0,80,0,1
117600,-100,4,1,0,80,0,1
117695,-100,4,1,0,80,0,1
117790,-100,4,1,0,80,0,1
117885,-100,4,1,0,80,0,1
117979,-100,4,1,0,80,0,1
118074,-100,4,1,0,80,0,1
118169,-100,4,1,0,80,0,1
118264,-100,4,1,0,80,0,1
118359,-100,4,1,0,80,0,1
118453,-100,4,1,0,80,0,1
120728,-100,4,1,0,80,0,1
120799,-100,4,1,0,80,0,1
120870,-100,4,1,0,80,0,1
120941,-100,4,1,0,80,0,1
121013,-100,4,1,0,80,0,1
121155,-100,4,1,0,80,0,1
121226,-100,4,1,0,80,0,1
121297,-100,4,1,0,80,0,1
121368,-100,4,1,0,80,0,1
121439,-100,4,1,0,80,0,1
121581,-100,4,1,0,80,0,1
121652,-100,4,1,0,80,0,1
121723,-100,4,1,0,80,0,1
121795,-100,4,1,0,80,0,1
121866,-100,4,1,0,80,0,1
122008,-100,4,1,0,80,0,1
122079,-100,4,1,0,80,0,1
122150,-100,4,1,0,80,0,1
122221,-100,4,1,0,80,0,1
122292,-100,4,1,0,80,0,1
122434,-100,4,1,0,80,0,1
122505,-100,4,1,0,80,0,1
122648,-100,4,1,0,80,0,1
122719,-100,4,1,0,80,0,1
122861,-100,4,1,0,80,0,1
122932,-100,4,1,0,80,0,0
123572,-100,4,1,0,45,0,0

[HitObjects]
214,184,160,5,8,0:0:0:0:
214,184,302,1,8,0:0:0:0:
214,184,444,1,0,0:0:0:0:
214,184,586,1,0,0:0:0:0:
196,166,1297,1,8,0:0:0:0:
196,166,1439,1,8,0:0:0:0:
196,166,1581,1,8,0:0:0:0:
214,143,1723,1,0,0:0:0:0:
214,143,2008,1,0,0:0:0:0:
214,143,2434,1,8,0:0:0:0:
157,142,2577,1,8,0:0:0:0:
157,142,2719,1,0,0:0:0:0:
157,142,2861,1,0,0:0:0:0:
157,142,3145,1,0,0:0:0:0:
157,142,3430,1,0,0:0:0:0:
157,142,3998,1,12,0:0:0:0:
195,140,4425,1,0,0:0:0:0:
176,132,4709,1,8,0:0:0:0:
176,132,4851,1,8,0:0:0:0:
176,132,4994,1,0,0:0:0:0:
176,132,5136,1,0,0:0:0:0:
176,132,5847,1,8,0:0:0:0:
176,132,5989,1,8,0:0:0:0:
176,132,6131,1,8,0:0:0:0:
176,132,6273,1,0,0:0:0:0:
176,132,6558,1,0,0:0:0:0:
176,132,6984,1,8,0:0:0:0:
159,133,7126,1,8,0:0:0:0:
159,133,7269,1,0,0:0:0:0:
159,133,7411,1,0,0:0:0:0:
169,141,7695,1,0,0:0:0:0:
169,141,7979,1,8,0:0:0:0:
169,141,8264,1,8,0:0:0:0:
169,141,8406,1,0,0:0:0:0:
169,141,8548,1,12,0:0:0:0:
169,141,8832,1,8,0:0:0:0:
169,141,8975,1,0,0:0:0:0:
169,141,9259,1,8,0:0:0:0:
169,141,9401,1,8,0:0:0:0:
169,141,9543,1,8,0:0:0:0:
169,141,9686,1,0,0:0:0:0:
169,141,9970,1,8,0:0:0:0:
169,141,10112,1,0,0:0:0:0:
169,141,10397,1,8,0:0:0:0:
169,141,10539,1,8,0:0:0:0:
167,107,10681,1,8,0:0:0:0:
167,107,10823,1,0,0:0:0:0:
148,113,11534,1,0,0:0:0:0:
148,113,11818,1,8,0:0:0:0:
148,113,12245,1,0,0:0:0:0:
148,113,12387,1,8,0:0:0:0:
148,113,12671,1,0,0:0:0:0:
148,113,12956,1,8,0:0:0:0:
148,113,13382,1,8,0:0:0:0:
148,113,13524,1,0,0:0:0:0:
148,113,13809,1,8,0:0:0:0:
148,113,14093,1,0,0:0:0:0:
180,104,14235,1,0,0:0:0:0:
180,104,14520,1,0,0:0:0:0:
180,104,14662,1,8,0:0:0:0:
180,104,14804,1,0,0:0:0:0:
144,108,15231,1,8,0:0:0:0:
144,108,15373,1,8,0:0:0:0:
144,108,15515,1,0,0:0:0:0:
144,108,15657,1,0,0:0:0:0:
144,108,15941,1,8,0:0:0:0:
144,108,16084,1,0,0:0:0:0:
172,115,16368,1,8,0:0:0:0:
158,156,16510,1,0,0:0:0:0:
159,140,17221,1,8,0:0:0:0:
127,129,17505,1,8,0:0:0:0:
127,129,17648,1,0,0:0:0:0:
127,129,17932,1,0,0:0:0:0:
155,135,18074,1,0,0:0:0:0:
155,135,18359,1,8,0:0:0:0:
155,135,18501,1,8,0:0:0:0:
155,135,18643,1,8,0:0:0:0:
155,135,18785,1,0,0:0:0:0:
155,135,19069,1,8,0:0:0:0:
155,135,19212,1,0,0:0:0:0:
155,135,19354,1,8,0:0:0:0:
127,132,19638,1,8,0:0:0:0:
127,132,19780,1,8,0:0:0:0:
155,135,19923,1,0,0:0:0:0:
155,135,20207,1,8,0:0:0:0:
152,130,20491,1,8,0:0:0:0:
152,129,20633,1,0,0:0:0:0:
149,129,20918,1,12,0:0:0:0:
147,128,21486,1,8,0:0:0:0:
161,114,21771,1,0,0:0:0:0:
158,114,22055,1,8,0:0:0:0:
158,114,22197,1,0,0:0:0:0:
158,114,22482,1,8,0:0:0:0:
161,114,22624,1,0,0:0:0:0:
162,120,22908,1,8,0:0:0:0:
162,120,23050,1,0,0:0:0:0:
162,120,23193,1,8,0:0:0:0:
162,120,23335,1,8,0:0:0:0:
184,121,23619,1,0,0:0:0:0:
184,121,23761,1,8,0:0:0:0:
184,121,23904,1,0,0:0:0:0:
184,121,24330,1,0,0:0:0:0:
184,121,24472,1,8,0:0:0:0:
184,121,24614,1,8,0:0:0:0:
184,121,24757,1,0,0:0:0:0:
184,121,25041,1,8,0:0:0:0:
184,121,25183,1,0,0:0:0:0:
184,121,25468,1,8,0:0:0:0:
184,121,26036,1,8,0:0:0:0:
184,121,26321,1,0,0:0:0:0:
184,121,26605,1,8,0:0:0:0:
184,121,26747,1,0,0:0:0:0:
184,121,27032,1,0,0:0:0:0:
184,121,27174,1,8,0:0:0:0:
184,121,27458,1,0,0:0:0:0:
184,121,27742,1,8,0:0:0:0:
184,121,28027,1,0,0:0:0:0:
184,121,28311,1,8,0:0:0:0:
184,121,28596,1,0,0:0:0:0:
179,121,28738,1,0,0:0:0:0:
176,121,28880,1,8,0:0:0:0:
176,121,29022,1,8,0:0:0:0:
161,132,29306,1,8,0:0:0:0:
181,101,29733,1,0,0:0:0:0:
120,127,30017,1,8,0:0:0:0:
136,143,30444,1,0,0:0:0:0:
123,130,30728,1,8,0:0:0:0:
123,130,30870,1,0,0:0:0:0:
120,127,31155,1,8,0:0:0:0:
123,130,31723,1,8,0:0:0:0:
120,127,32008,1,0,0:0:0:0:
123,130,32292,1,8,0:0:0:0:
123,130,32434,1,0,0:0:0:0:
123,130,32719,1,0,0:0:0:0:
120,127,32861,1,8,0:0:0:0:
123,130,33145,1,8,0:0:0:0:
123,130,33287,1,0,0:0:0:0:
123,130,33430,1,8,0:0:0:0:
123,130,33572,1,0,0:0:0:0:
152,107,34141,1,8,0:0:0:0:
123,130,34283,1,0,0:0:0:0:
152,107,34709,1,0,0:0:0:0:
152,107,34851,1,0,0:0:0:0:
152,107,35136,1,0,0:0:0:0:
152,107,35420,1,8,0:0:0:0:
152,107,35705,1,8,0:0:0:0:
152,107,35847,1,0,0:0:0:0:
152,107,36131,1,0,0:0:0:0:
152,107,36273,1,8,0:0:0:0:
152,107,36558,1,8,0:0:0:0:
152,107,36842,1,0,0:0:0:0:
152,107,37269,1,8,0:0:0:0:
152,107,37411,1,0,0:0:0:0:
152,107,37695,1,8,0:0:0:0:
152,107,37979,1,0,0:0:0:0:
152,107,38122,1,8,0:0:0:0:
126,121,38264,1,0,0:0:0:0:
152,107,38832,1,8,0:0:0:0:
147,117,38975,1,8,0:0:0:0:
147,117,39117,1,0,0:0:0:0:
146,105,39259,1,0,0:0:0:0:
143,111,39543,1,8,0:0:0:0:
146,105,39828,1,0,0:0:0:0:
144,111,40112,1,8,0:0:0:0:
157,119,40254,1,0,0:0:0:0:
157,119,40396,1,0,0:0:0:0:
157,119,40681,1,8,0:0:0:0:
147,117,41107,1,8,0:0:0:0:
147,117,41250,1,8,0:0:0:0:
147,117,41392,1,0,0:0:0:0:
147,117,41534,1,0,0:0:0:0:
104,117,41818,1,8,0:0:0:0:
104,117,42103,1,0,0:0:0:0:
104,117,42387,1,8,0:0:0:0:
104,117,42529,1,8,0:0:0:0:
104,117,42671,1,0,0:0:0:0:
120,123,42956,1,8,0:0:0:0:
120,123,43382,1,8,0:0:0:0:
120,123,43524,1,0,0:0:0:0:
120,123,43667,1,8,0:0:0:0:
120,123,43809,1,0,0:0:0:0:
120,123,44093,1,8,0:0:0:0:
114,121,44378,1,0,0:0:0:0:
114,121,44662,1,8,0:0:0:0:
114,121,44804,1,0,0:0:0:0:
114,121,44946,1,0,0:0:0:0:
114,121,45231,1,0,0:0:0:0:
114,121,45657,1,4,0:0:0:0:
114,121,45799,1,4,0:0:0:0:
114,121,46084,1,4,0:0:0:0:
114,121,46368,1,4,0:0:0:0:
114,121,46652,1,4,0:0:0:0:
167,150,47648,5,8,0:0:0:0:
167,150,47790,1,0,0:0:0:0:
223,171,47932,5,8,0:0:0:0:
223,171,48216,1,0,0:0:0:0:
223,171,48501,1,8,0:0:0:0:
223,171,48785,1,0,0:0:0:0:
223,171,49069,1,8,0:0:0:0:
167,148,49354,1,0,0:0:0:0:
223,171,49638,1,8,0:0:0:0:
167,148,49923,1,0,0:0:0:0:
223,171,50207,1,8,0:0:0:0:
120,107,50349,1,0,0:0:0:0:
134,116,50491,1,0,0:0:0:0:
134,116,50633,1,0,0:0:0:0:
134,116,50918,1,8,0:0:0:0:
134,116,51060,1,0,0:0:0:0:
134,116,51202,1,0,0:0:0:0:
167,147,51344,1,8,0:0:0:0:
159,165,52197,1,8,0:0:0:0:
159,165,52340,1,8,0:0:0:0:
159,165,52482,1,0,0:0:0:0:
159,165,52766,1,8,0:0:0:0:
159,165,53050,1,0,0:0:0:0:
159,165,53335,1,8,0:0:0:0:
159,165,53619,1,0,0:0:0:0:
159,165,53904,1,8,0:0:0:0:
159,165,54188,1,0,0:0:0:0:
159,165,54472,1,8,0:0:0:0:
159,165,54757,1,8,0:0:0:0:
159,165,54899,1,8,0:0:0:0:
159,165,55041,1,0,0:0:0:0:
159,165,55183,1,0,0:0:0:0:
159,165,55468,1,8,0:0:0:0:
159,165,55610,1,0,0:0:0:0:
159,165,55752,1,8,0:0:0:0:
159,165,55894,1,8,0:0:0:0:
146,117,56747,1,8,0:0:0:0:
146,117,57032,1,0,0:0:0:0:
154,123,57316,1,0,0:0:0:0:
153,123,57458,1,8,0:0:0:0:
117,123,57742,1,0,0:0:0:0:
154,123,57885,1,8,0:0:0:0:
154,123,58169,1,0,0:0:0:0:
117,123,58311,1,8,0:0:0:0:
154,123,58596,1,8,0:0:0:0:
154,123,58738,1,0,0:0:0:0:
154,123,59306,1,8,0:0:0:0:
154,123,59591,1,0,0:0:0:0:
147,114,59733,1,8,0:0:0:0:
154,123,60017,1,8,0:0:0:0:
154,123,60159,1,8,0:0:0:0:
154,123,60444,1,0,0:0:0:0:
151,115,60586,1,8,0:0:0:0:
154,123,60870,1,8,0:0:0:0:
154,123,61013,1,0,0:0:0:0:
230,157,61581,1,4,0:0:0:0:
230,157,62577,1,4,0:0:0:0:
230,157,63714,1,4,0:0:0:0:
230,157,64141,1,8,0:0:0:0:
230,157,64709,1,8,0:0:0:0:
230,157,64851,1,8,0:0:0:0:
230,157,65278,1,8,0:0:0:0:
230,157,65562,1,8,0:0:0:0:
230,157,65705,1,8,0:0:0:0:
230,157,65847,1,0,0:0:0:0:
176,134,66131,1,4,0:0:0:0:
163,187,66415,1,8,0:0:0:0:
163,187,66558,1,0,0:0:0:0:
199,161,66842,1,0,0:0:0:0:
199,161,66984,1,0,0:0:0:0:
199,161,67269,1,0,0:0:0:0:
199,161,67553,1,8,0:0:0:0:
199,161,67695,1,0,0:0:0:0:
199,161,67979,1,0,0:0:0:0:
199,161,68122,1,8,0:0:0:0:
199,161,68406,1,0,0:0:0:0:
199,161,68690,1,8,0:0:0:0:
199,161,68832,1,0,0:0:0:0:
168,136,69117,1,0,0:0:0:0:
168,136,69259,1,0,0:0:0:0:
168,136,69543,1,0,0:0:0:0:
161,134,69828,1,0,0:0:0:0:
161,134,69970,1,8,0:0:0:0:
168,136,70254,1,0,0:0:0:0:
131,140,70681,1,0,0:0:0:0:
106,133,70965,1,8,0:0:0:0:
168,136,71107,1,0,0:0:0:0:
168,136,71534,1,0,0:0:0:0:
168,136,71818,1,8,0:0:0:0:
168,136,71960,1,0,0:0:0:0:
111,126,72245,1,8,0:0:0:0:
162,135,72387,1,0,0:0:0:0:
162,135,72529,1,0,0:0:0:0:
161,135,72956,1,0,0:0:0:0:
177,108,73240,1,8,0:0:0:0:
131,121,73382,1,0,0:0:0:0:
131,121,73809,1,0,0:0:0:0:
177,108,74093,1,8,0:0:0:0:
131,121,74235,1,0,0:0:0:0:
177,108,74520,1,8,0:0:0:0:
131,121,74662,1,0,0:0:0:0:
131,121,74804,1,0,0:0:0:0:
131,121,74946,1,8,0:0:0:0:
125,121,75231,1,0,0:0:0:0:
125,121,75515,1,12,0:0:0:0:
125,121,76084,1,0,0:0:0:0:
125,121,76368,1,8,0:0:0:0:
125,121,76510,1,0,0:0:0:0:
125,121,76795,1,0,0:0:0:0:
125,121,77079,1,8,0:0:0:0:
125,121,77221,1,8,0:0:0:0:
125,121,77505,1,0,0:0:0:0:
125,121,78074,1,8,0:0:0:0:
125,121,78359,1,8,0:0:0:0:
125,121,78643,1,0,0:0:0:0:
125,121,79212,1,0,0:0:0:0:
125,121,79496,1,0,0:0:0:0:
125,121,79780,1,12,0:0:0:0:
125,121,80349,1,8,0:0:0:0:
125,121,80633,1,8,0:0:0:0:
125,121,80918,1,0,0:0:0:0:
163,107,81202,1,8,0:0:0:0:
159,124,81344,1,0,0:0:0:0:
159,124,81629,1,0,0:0:0:0:
154,106,81771,1,8,0:0:0:0:
154,106,82055,1,0,0:0:0:0:
159,124,82197,1,0,0:0:0:0:
256,192,82340,12,0,83904,0:0:0:0:
126,166,84046,5,8,0:0:0:0:
159,124,84330,5,0,0:0:0:0:
223,124,86178,5,8,0:0:0:0:
223,124,86321,1,0,0:0:0:0:
223,124,86605,1,12,0:0:0:0:
223,124,86889,1,8,0:0:0:0:
223,124,87032,1,0,0:0:0:0:
223,124,87316,1,0,0:0:0:0:
223,124,87600,1,0,0:0:0:0:
223,124,87885,1,8,0:0:0:0:
223,124,88027,1,0,0:0:0:0:
223,124,88311,1,8,0:0:0:0:
223,124,88596,1,8,0:0:0:0:
223,124,88880,1,4,0:0:0:0:
223,124,89164,1,8,0:0:0:0:
223,124,89306,1,0,0:0:0:0:
223,124,89591,1,0,0:0:0:0:
223,124,89875,1,0,0:0:0:0:
191,115,90017,1,0,0:0:0:0:
223,124,90586,1,8,0:0:0:0:
223,124,90728,1,8,0:0:0:0:
223,124,90870,1,0,0:0:0:0:
223,124,91155,1,12,0:0:0:0:
219,128,91439,1,8,0:0:0:0:
219,128,91581,1,0,0:0:0:0:
219,128,91866,1,0,0:0:0:0:
223,137,92150,1,0,0:0:0:0:
125,139,92292,1,0,0:0:0:0:
138,127,92861,1,8,0:0:0:0:
169,120,93145,1,8,0:0:0:0:
169,120,93430,1,4,0:0:0:0:
169,120,93714,1,8,0:0:0:0:
169,120,93856,1,8,0:0:0:0:
169,120,94141,1,0,0:0:0:0:
169,120,94425,1,0,0:0:0:0:
169,120,94567,1,8,0:0:0:0:
169,120,94851,1,8,0:0:0:0:
169,120,95136,1,8,0:0:0:0:
169,120,95278,1,0,0:0:0:0:
169,120,95420,1,8,0:0:0:0:
163,120,95705,1,12,0:0:0:0:
174,116,95989,1,8,0:0:0:0:
174,116,96131,1,0,0:0:0:0:
174,116,96415,1,0,0:0:0:0:
174,116,96700,1,8,0:0:0:0:
207,125,96842,1,0,0:0:0:0:
174,116,97411,1,8,0:0:0:0:
203,118,97553,1,0,0:0:0:0:
174,116,97695,1,0,0:0:0:0:
174,116,97979,1,4,0:0:0:0:
174,116,98264,1,8,0:0:0:0:
174,116,98406,1,0,0:0:0:0:
174,116,98690,1,0,0:0:0:0:
166,114,98975,1,0,0:0:0:0:
166,114,99259,1,0,0:0:0:0:
166,114,99401,1,0,0:0:0:0:
164,114,99686,1,8,0:0:0:0:
166,114,99828,1,8,0:0:0:0:
166,114,99970,1,8,0:0:0:0:
166,114,100254,1,12,0:0:0:0:
164,114,100539,1,8,0:0:0:0:
166,114,100681,1,0,0:0:0:0:
166,114,100965,1,0,0:0:0:0:
203,118,101392,1,12,0:0:0:0:
203,118,101676,1,8,0:0:0:0:
203,118,101818,1,0,0:0:0:0:
163,102,102103,1,0,0:0:0:0:
173,102,102529,1,12,0:0:0:0:
173,102,102814,1,8,0:0:0:0:
173,102,102956,1,0,0:0:0:0:
173,102,103240,1,0,0:0:0:0:
173,102,103524,1,0,0:0:0:0:
173,102,103667,1,8,0:0:0:0:
182,102,104235,1,0,0:0:0:0:
181,106,104520,1,0,0:0:0:0:
182,102,104804,1,8,0:0:0:0:
182,102,104946,1,8,0:0:0:0:
182,102,105088,1,0,0:0:0:0:
182,102,105231,1,8,0:0:0:0:
181,106,105515,1,8,0:0:0:0:
182,102,105657,1,0,0:0:0:0:
182,102,105941,1,0,0:0:0:0:
181,106,106510,1,8,0:0:0:0:
182,102,106795,1,0,0:0:0:0:
181,106,107079,1,8,0:0:0:0:
174,107,107221,1,0,0:0:0:0:
174,107,107363,1,0,0:0:0:0:
173,107,107505,1,8,0:0:0:0:
173,107,107790,1,8,0:0:0:0:
173,107,107932,1,8,0:0:0:0:
174,107,108216,1,0,0:0:0:0:
173,107,108785,1,8,0:0:0:0:
174,107,109069,1,8,0:0:0:0:
173,107,109354,1,8,0:0:0:0:
173,107,109496,1,8,0:0:0:0:
173,107,109638,1,8,0:0:0:0:
173,107,109780,1,0,0:0:0:0:
174,107,110065,1,8,0:0:0:0:
173,107,110207,1,0,0:0:0:0:
173,107,110491,1,0,0:0:0:0:
174,107,111060,1,8,0:0:0:0:
173,107,111344,1,0,0:0:0:0:
168,109,111629,1,8,0:0:0:0:
168,109,111771,1,0,0:0:0:0:
168,109,111913,1,8,0:0:0:0:
168,109,112055,1,0,0:0:0:0:
162,117,112340,1,8,0:0:0:0:
162,117,112482,1,0,0:0:0:0:
161,102,112766,1,0,0:0:0:0:
161,102,113335,1,8,0:0:0:0:
161,102,113619,1,0,0:0:0:0:
161,102,113904,1,8,0:0:0:0:
161,102,114046,1,0,0:0:0:0:
161,102,114188,1,0,0:0:0:0:
161,102,114330,1,8,0:0:0:0:
161,102,114614,1,8,0:0:0:0:
161,102,114757,1,0,0:0:0:0:
161,102,115041,1,0,0:0:0:0:
154,102,115610,1,8,0:0:0:0:
154,102,115894,1,0,0:0:0:0:
154,102,116178,1,8,0:0:0:0:
154,102,116321,1,8,0:0:0:0:
154,102,116463,1,0,0:0:0:0:
154,102,116605,1,8,0:0:0:0:
154,102,116889,1,8,0:0:0:0:
154,102,117032,1,0,0:0:0:0:
154,102,117316,1,4,0:0:0:0:
154,102,117885,1,4,0:0:0:0:
154,102,118453,1,8,0:0:0:0:
154,102,118596,1,0,0:0:0:0:
154,102,118738,1,0,0:0:0:0:
154,102,118880,1,8,0:0:0:0:
154,102,119164,1,8,0:0:0:0:
154,102,119306,1,0,0:0:0:0:
154,102,119591,1,0,0:0:0:0:
154,102,120159,1,8,0:0:0:0:
154,102,120444,1,0,0:0:0:0:
154,102,120728,1,8,0:0:0:0:
154,102,120870,1,0,0:0:0:0:
154,102,121155,1,0,0:0:0:0:
147,89,121297,1,0,0:0:0:0:
147,89,121581,1,8,0:0:0:0:
132,77,121723,1,8,0:0:0:0:
134,78,122008,1,8,0:0:0:0:
132,77,122150,1,0,0:0:0:0:
132,81,122434,1,0,0:0:0:0:
131,81,122648,1,0,0:0:0:0:
131,82,122861,1,0,0:0:0:0:
233,124,123572,2,0,L|375:119,1,140
