osu file format v14

[General]
AudioFilename: audio.mp3
AudioLeadIn: 0
PreviewTime: 151432
Countdown: 1
SampleSet: Normal
StackLeniency: 0.2
Mode: 0
LetterboxInBreaks: 0
WidescreenStoryboard: 1

[Editor]
Bookmarks: 160,21978,23432,40887,58341,78705,81614,101978,104887,128160,151432,163069,174705,196523,197978,221250,244523
DistanceSpacing: 1.8
BeatDivisor: 4
GridSize: 8
TimelineZoom: 2.000001

[Metadata]
Title:For+
TitleUnicode:For+
Artist:TreowX
ArtistUnicode:TreowX
Creator:Sonix
Version:Clinquant
Source:
Tags:
BeatmapID:1553631
BeatmapSetID:736035

[Difficulty]
HPDrainRate:4
CircleSize:3.8
OverallDifficulty:9
ApproachRate:9.2
SliderMultiplier:2.1
SliderTickRate:1

[Events]
//Background and Video events
0,0,"background.png",0,0
//Break Periods
2,152269,162499
2,165995,174135
//Storyboard Layer 0 (Background)
//Storyboard Layer 1 (Fail)
//Storyboard Layer 2 (Pass)
//Storyboard Layer 3 (Foreground)
//Storyboard Sound Samples

[TimingPoints]
160,363.636363636364,4,1,0,15,1,0
21978,-50,4,1,0,25,0,0
23432,-83.3333333333333,4,1,0,40,0,0
24887,-55.5555555555556,4,1,0,40,0,0
26341,-83.3333333333333,4,1,0,40,0,0
27796,-55.5555555555556,4,1,0,40,0,0
29250,-83.3333333333333,4,1,0,40,0,0
30705,-55.5555555555556,4,1,0,40,0,0
32160,-83.3333333333333,4,1,0,40,0,0
33614,-55.5555555555556,4,1,0,40,0,0
35069,-76.9230769230769,4,1,0,40,0,0
36523,-52.6315789473684,4,1,0,40,0,0
37978,-76.9230769230769,4,1,0,40,0,0
39432,-52.6315789473684,4,1,0,40,0,0
40887,-76.9230769230769,4,1,0,40,0,0
42341,-52.6315789473684,4,1,0,40,0,0
43796,-76.9230769230769,4,1,0,40,0,0
45250,-52.6315789473684,4,1,0,40,0,0
46705,-76.9230769230769,4,1,0,40,0,0
48160,-52.6315789473684,4,1,0,40,0,0
49614,-76.9230769230769,4,1,0,40,0,0
51069,-52.6315789473684,4,1,0,40,0,0
52523,-76.9230769230769,4,1,0,40,0,0
53978,-52.6315789473684,4,1,0,40,0,0
55432,-76.9230769230769,4,1,0,40,0,0
56887,-52.6315789473684,4,1,0,40,0,0
57614,-100,4,1,0,40,0,0
58341,-100,4,1,0,40,0,0
58523,-100,4,1,0,15,0,0
59069,-100,4,1,0,40,0,0
59250,-100,4,1,0,15,0,0
59796,-62.5,4,1,0,40,0,0
59978,-62.5,4,1,0,15,0,0
60069,-62.5,4,1,0,40,0,0
60250,-62.5,4,1,0,15,0,0
60341,-62.5,4,1,0,40,0,0
61250,-100,4,1,0,40,0,0
61432,-100,4,1,0,15,0,0
61978,-100,4,1,0,40,0,0
62160,-100,4,1,0,15,0,0
62705,-62.5,4,1,0,40,0,0
62887,-62.5,4,1,0,15,0,0
62978,-62.5,4,1,0,40,0,0
63160,-62.5,4,1,0,15,0,0
63432,-62.5,4,1,0,40,0,0
64160,-100,4,1,0,40,0,0
64341,-100,4,1,0,15,0,0
64887,-100,4,1,0,40,0,0
65069,-100,4,1,0,15,0,0
65614,-62.5,4,1,0,40,0,0
65796,-62.5,4,1,0,15,0,0
65887,-62.5,4,1,0,40,0,0
66069,-62.5,4,1,0,15,0,0
66160,-62.5,4,1,0,40,0,0
66523,-62.5,4,1,0,15,0,0
66705,-62.5,4,1,0,40,0,0
66887,-62.5,4,1,0,15,0,0
67069,-100,4,1,0,40,0,0
67250,-100,4,1,0,15,0,0
67796,-100,4,1,0,40,0,0
67978,-100,4,1,0,15,0,0
68523,-62.5,4,1,0,40,0,0
68705,-62.5,4,1,0,15,0,0
68796,-62.5,4,1,0,40,0,0
68978,-62.5,4,1,0,15,0,0
69069,-62.5,4,1,0,40,0,0
69432,-62.5,4,1,0,15,0,0
69614,-62.5,4,1,0,40,0,0
69796,-62.5,4,1,0,15,0,0
69978,-100,4,1,0,40,0,0
70160,-100,4,1,0,15,0,0
70705,-100,4,1,0,40,0,0
70887,-100,4,1,0,15,0,0
71432,-62.5,4,1,0,40,0,0
71614,-62.5,4,1,0,15,0,0
71705,-62.5,4,1,0,40,0,0
71887,-62.5,4,1,0,15,0,0
71978,-62.5,4,1,0,40,0,0
72705,-62.5,4,1,0,15,0,0
72887,-100,4,1,0,40,0,0
73069,-100,4,1,0,15,0,0
73614,-100,4,1,0,40,0,0
73796,-100,4,1,0,15,0,0
74341,-62.5,4,1,0,40,0,0
74523,-62.5,4,1,0,15,0,0
74614,-62.5,4,1,0,40,0,0
74796,-62.5,4,1,0,15,0,0
75069,-62.5,4,1,0,40,0,0
75432,-62.5,4,1,0,15,0,0
75796,-100,4,1,0,40,0,0
75978,-100,4,1,0,15,0,0
76523,-100,4,1,0,40,0,0
76705,-100,4,1,0,15,0,0
77250,-62.5,4,1,0,40,0,0
77432,-62.5,4,1,0,15,0,0
77523,-62.5,4,1,0,40,0,0
77705,-62.5,4,1,0,15,0,0
77796,-62.5,4,1,0,40,0,0
78160,-62.5,4,1,0,15,0,0
78341,-62.5,4,1,0,40,0,0
78523,-62.5,4,1,0,15,0,0
78705,-100,4,1,0,40,0,0
81614,-83.3333333333333,4,1,0,40,0,0
81796,-83.3333333333333,4,1,0,15,0,0
82160,-83.3333333333333,4,1,0,40,0,0
82341,-83.3333333333333,4,1,0,15,0,0
82432,-83.3333333333333,4,1,0,40,0,0
82614,-83.3333333333333,4,1,0,15,0,0
82705,-83.3333333333333,4,1,0,40,0,0
82887,-83.3333333333333,4,1,0,15,0,0
83069,-83.3333333333333,4,1,0,40,0,0
83250,-83.3333333333333,4,1,0,15,0,0
83614,-83.3333333333333,4,1,0,40,0,0
83796,-83.3333333333333,4,1,0,15,0,0
83887,-83.3333333333333,4,1,0,40,0,0
84069,-83.3333333333333,4,1,0,15,0,0
84160,-83.3333333333333,4,1,0,40,0,0
84341,-83.3333333333333,4,1,0,15,0,0
84523,-83.3333333333333,4,1,0,40,0,0
84705,-83.3333333333333,4,1,0,15,0,0
85069,-83.3333333333333,4,1,0,40,0,0
85250,-83.3333333333333,4,1,0,15,0,0
85341,-83.3333333333333,4,1,0,40,0,0
85523,-83.3333333333333,4,1,0,15,0,0
85614,-83.3333333333333,4,1,0,40,0,0
85796,-83.3333333333333,4,1,0,15,0,0
85978,-83.3333333333333,4,1,0,40,0,0
86160,-83.3333333333333,4,1,0,15,0,0
86523,-83.3333333333333,4,1,0,40,0,0
87614,-83.3333333333333,4,1,0,15,0,0
87978,-83.3333333333333,4,1,0,40,0,0
88160,-83.3333333333333,4,1,0,15,0,0
88250,-83.3333333333333,4,1,0,40,0,0
88432,-83.3333333333333,4,1,0,15,0,0
88523,-83.3333333333333,4,1,0,40,0,0
88705,-83.3333333333333,4,1,0,15,0,0
88887,-83.3333333333333,4,1,0,40,0,0
89069,-83.3333333333333,4,1,0,15,0,0
89432,-83.3333333333333,4,1,0,40,0,0
89614,-83.3333333333333,4,1,0,15,0,0
89705,-83.3333333333333,4,1,0,40,0,0
89887,-83.3333333333333,4,1,0,15,0,0
89978,-83.3333333333333,4,1,0,40,0,0
90160,-83.3333333333333,4,1,0,15,0,0
90341,-83.3333333333333,4,1,0,40,0,0
90523,-83.3333333333333,4,1,0,15,0,0
90887,-83.3333333333333,4,1,0,40,0,0
91069,-83.3333333333333,4,1,0,15,0,0
91160,-83.3333333333333,4,1,0,40,0,0
91341,-83.3333333333333,4,1,0,15,0,0
91432,-83.3333333333333,4,1,0,40,0,0
91614,-83.3333333333333,4,1,0,15,0,0
91796,-83.3333333333333,4,1,0,40,0,0
91978,-83.3333333333333,4,1,0,15,0,0
92341,-83.3333333333333,4,1,0,40,0,0
93523,-83.3333333333333,4,1,0,15,0,0
93796,-83.3333333333333,4,1,0,40,0,0
93978,-83.3333333333333,4,1,0,15,0,0
94069,-83.3333333333333,4,1,0,40,0,0
94250,-83.3333333333333,4,1,0,15,0,0
94341,-83.3333333333333,4,1,0,40,0,0
94523,-83.3333333333333,4,1,0,15,0,0
94705,-83.3333333333333,4,1,0,40,0,0
94887,-83.3333333333333,4,1,0,15,0,0
95250,-83.3333333333333,4,1,0,40,0,0
95432,-83.3333333333333,4,1,0,15,0,0
95523,-83.3333333333333,4,1,0,40,0,0
95705,-83.3333333333333,4,1,0,15,0,0
95796,-83.3333333333333,4,1,0,40,0,0
95978,-83.3333333333333,4,1,0,15,0,0
96160,-83.3333333333333,4,1,0,40,0,0
96341,-83.3333333333333,4,1,0,15,0,0
96705,-83.3333333333333,4,1,0,40,0,0
96887,-83.3333333333333,4,1,0,15,0,0
96978,-83.3333333333333,4,1,0,40,0,0
97160,-83.3333333333333,4,1,0,15,0,0
97250,-83.3333333333333,4,1,0,40,0,0
97432,-83.3333333333333,4,1,0,15,0,0
97614,-83.3333333333333,4,1,0,40,0,0
97796,-83.3333333333333,4,1,0,15,0,0
98160,-83.3333333333333,4,1,0,40,0,0
98341,-83.3333333333333,4,1,0,15,0,0
98432,-83.3333333333333,4,1,0,40,0,0
99250,-83.3333333333333,4,1,0,15,0,0
99614,-83.3333333333333,4,1,0,40,0,0
99796,-83.3333333333333,4,1,0,15,0,0
99887,-83.3333333333333,4,1,0,40,0,0
100069,-83.3333333333333,4,1,0,15,0,0
100160,-83.3333333333333,4,1,0,40,0,0
100341,-83.3333333333333,4,1,0,15,0,0
100523,-83.3333333333333,4,1,0,40,0,0
100705,-83.3333333333333,4,1,0,15,0,0
101069,-83.3333333333333,4,1,0,40,0,0
101250,-83.3333333333333,4,1,0,15,0,0
101341,-83.3333333333333,4,1,0,40,0,0
101523,-83.3333333333333,4,1,0,15,0,0
101614,-83.3333333333333,4,1,0,40,0,0
101796,-83.3333333333333,4,1,0,15,0,0
101978,-83.3333333333333,4,1,0,40,0,0
104887,-133.333333333333,4,1,0,40,0,0
105523,-100,4,1,0,40,0,0
110160,-125,4,1,0,40,0,0
110341,-166.666666666667,4,1,0,40,0,0
110523,-100,4,1,0,40,0,0
110705,-133.333333333333,4,1,0,40,0,0
111341,-100,4,1,0,40,0,0
116523,-133.333333333333,4,1,0,40,0,0
117160,-100,4,1,0,40,0,0
122341,-133.333333333333,4,1,0,40,0,0
122978,-100,4,1,0,40,0,0
128160,-83.3333333333333,4,1,0,40,0,0
150887,-100,4,1,0,40,0,0
151069,-80,4,1,0,40,0,0
151250,-66.6666666666667,4,1,0,40,0,0
151432,-100,4,1,0,40,0,0
197978,-100,4,1,0,15,0,1
221250,-100,4,1,0,15,0,0

[Colours]
Combo1 : 83,199,242
Combo2 : 200,107,250
SliderTrackOverride : 240,215,221
SliderBorder : 196,148,200

[HitObjects]
367,332,160,6,0,P|413:326|429:319,1,52.5,0|0,3:0|0:0,0:0:0:0:
509,273,341,1,0,3:0:0:0:
504,288,432,1,0,0:0:0:0:
422,221,523,1,0,0:0:0:0:
427,236,614,1,0,0:0:0:0:
509,169,705,1,0,0:0:0:0:
504,184,796,1,0,0:0:0:0:
399,103,887,6,0,P|370:95|335:95,1,52.5,8|0,3:0|0:0,0:0:0:0:
257,151,1069,1,2,0:0:0:0:
271,158,1160,1,0,0:0:0:0:
323,247,1250,1,0,0:0:0:0:
309,254,1341,1,0,0:0:0:0:
257,343,1432,1,0,0:0:0:0:
271,350,1523,1,0,0:0:0:0:
134,373,1614,6,0,P|108:362|81:337,1,52.5,0|0,3:0|0:0,0:0:0:0:
0,342,1796,2,0,P|6:314|26:283,1,52.5,0|8,3:0|3:0,0:0:0:0:
175,285,1978,2,0,P|201:274|228:249,1,52.5,0|8,0:0|3:0,0:0:0:0:
309,254,2160,2,0,P|303:226|283:195,1,52.5,0|0,3:0|0:0,0:0:0:0:
152,130,2341,2,0,P|126:141|99:166,1,52.5,8|0,0:0|0:0,0:0:0:0:
19,161,2523,2,0,P|25:189|45:220,1,52.5
204,130,2705,2,0,P|126:141|99:166,1,105
0,342,3069,6,0,P|6:314|26:283,1,52.5,2|0,3:0|0:0,0:0:0:0:
117,242,3250,1,0,3:0:0:0:
131,247,3341,1,0,0:0:0:0:
155,349,3432,1,0,0:0:0:0:
166,339,3523,1,0,0:0:0:0:
266,369,3614,1,0,0:0:0:0:
263,355,3705,1,0,0:0:0:0:
309,254,3796,6,0,P|303:226|283:195,1,52.5,8|0,3:0|0:0,0:0:0:0:
204,130,3978,1,8,3:0:0:0:
207,144,4069,1,0,0:0:0:0:
107,114,4160,1,0,0:0:0:0:
96,125,4251,1,0,0:0:0:0:
72,22,4342,1,8,0:0:0:0:
56,26,4433,1,0,0:0:0:0:
212,0,4523,6,0,L|270:0,1,52.5,0|0,3:0|0:0,0:0:0:0:
326,72,4705,2,0,L|384:72,1,52.5,0|8,3:0|3:0,0:0:0:0:
492,144,4887,2,0,L|440:144,1,52.5,0|8,0:0|3:0,0:0:0:0:
378,216,5069,2,0,L|320:216,1,52.5,0|0,3:0|0:0,0:0:0:0:
325,216,5432,6,0,L|378:216,1,52.5
492,144,5614,2,0,L|440:144,1,52.5
378,72,5796,2,0,L|326:72,1,52.5
212,0,5978,6,0,L|270:0,1,52.5,0|0,3:0|0:0,0:0:0:0:
221,97,6160,1,0,3:0:0:0:
215,111,6250,1,0,0:0:0:0:
301,170,6341,1,0,0:0:0:0:
307,184,6431,1,0,0:0:0:0:
221,243,6524,1,0,0:0:0:0:
215,257,6614,1,0,0:0:0:0:
336,313,6705,6,0,P|367:308|398:288,1,52.5,8|0,3:0|0:0,0:0:0:0:
459,221,6887,1,0,0:0:0:0:
465,235,6977,1,0,0:0:0:0:
512,139,7069,1,0,0:0:0:0:
506,153,7160,1,0,0:0:0:0:
456,61,7250,1,8,3:0:0:0:
441,53,7341,1,0,0:0:0:0:
426,47,7432,6,0,P|390:38|363:38,1,52.5,4|0,3:0|0:0,0:0:0:0:
348,167,7614,2,0,P|373:140|387:116,1,52.5,0|8,3:0|3:0,0:0:0:0:
283,39,7796,2,0,P|293:74|306:98,1,52.5,0|8,0:0|3:0,0:0:0:0:
330,216,7978,2,0,P|341:192|348:167,1,52.5,0|0,3:0|0:0,0:0:0:0:
219,132,8160,6,0,P|192:134|167:141,1,52.5,2|0,3:0|0:0,0:0:0:0:
85,244,8341,2,0,P|66:225|50:204,1,52.5,2|0,3:0|0:0,0:0:0:0:
214,264,8523,2,0,P|208:290|197:314,1,52.5,0|0,3:0|0:0,0:0:0:0:
167,141,8705,2,0,P|192:133|218:131,1,52.5,0|0,3:0|0:0,0:0:0:0:
378,300,8887,6,0,P|352:307|326:309,1,52.5,4|0,3:0|0:0,0:0:0:0:
235,363,9069,1,0,3:0:0:0:
220,356,9160,1,0,0:0:0:0:
118,376,9250,1,0,0:0:0:0:
111,361,9341,1,0,0:0:0:0:
20,310,9432,1,0,0:0:0:0:
24,294,9523,1,0,0:0:0:0:
115,150,9614,6,0,P|140:142|166:140,1,52.5,8|0,3:0|0:0,0:0:0:0:
264,185,9796,1,0,0:0:0:0:
248,187,9887,1,0,0:0:0:0:
245,78,9978,1,0,0:0:0:0:
260,82,10069,1,0,0:0:0:0:
332,3,10160,1,8,3:0:0:0:
339,16,10251,1,0,0:0:0:0:
412,118,10341,6,0,L|475:118,1,52.5,4|0,3:0|0:0,0:0:0:0:
405,206,10523,2,0,L|342:206,1,52.5,2|0,0:0|0:0,0:0:0:0:
412,294,10705,2,0,L|475:294,1,52.5
464,118,11069,6,0,L|412:118,1,52.5,2|0,0:0|0:0,0:0:0:0:
352,206,11251,2,0,L|405:206,1,52.5
464,294,11433,2,0,L|412:294,1,52.5
352,382,11614,2,0,L|405:382,1,52.5
275,250,11796,6,0,P|262:208|264:187,1,52.5,4|0,3:0|0:0,0:0:0:0:
297,100,11978,1,0,0:0:0:0:
312,104,12069,1,0,3:0:0:0:
410,66,12160,1,0,0:0:0:0:
395,70,12251,1,0,3:0:0:0:
327,0,12341,1,0,0:0:0:0:
323,15,12432,1,0,3:0:0:0:
395,188,12523,6,0,P|397:214|407:238,1,52.5,8|0,3:0|0:0,0:0:0:0:
500,289,12705,1,0,0:0:0:0:
501,305,12796,1,0,0:0:0:0:
400,334,12887,1,0,0:0:0:0:
399,350,12978,1,0,0:0:0:0:
320,280,13069,1,8,3:0:0:0:
309,292,13160,1,0,0:0:0:0:
293,187,13250,6,0,P|261:180|221:182,1,52.5,0|0,3:0|0:0,0:0:0:0:
121,254,13432,2,0,P|108:284|103:324,1,52.5
221,182,13614,2,0,P|189:191|156:213,1,52.5
103,324,13796,2,0,P|107:356|122:393,1,52.5,0|0,3:0|0:0,0:0:0:0:
255,325,13978,1,8,3:0:0:0:
100,183,14160,1,0,0:0:0:0:
55,384,14341,1,2,0:0:0:0:
255,325,14523,1,0,0:0:0:0:
100,183,14705,6,0,P|90:149|91:121,1,52.5,0|0,3:0|0:0,0:0:0:0:
156,49,14887,1,0,3:0:0:0:
170,44,14978,1,0,0:0:0:0:
256,104,15069,1,0,0:0:0:0:
253,118,15160,1,0,0:0:0:0:
200,207,15250,1,0,0:0:0:0:
203,221,15341,1,0,0:0:0:0:
255,325,15432,6,0,P|253:351|244:375,1,52.5,8|0,3:0|0:0,0:0:0:0:
150,323,15614,1,0,0:0:0:0:
147,337,15705,1,0,0:0:0:0:
64,271,15796,1,0,0:0:0:0:
53,280,15887,1,0,0:0:0:0:
31,175,15978,1,8,3:0:0:0:
17,175,16069,1,0,0:0:0:0:
53,48,16160,6,0,L|118:48,1,52.5,2|0,3:0|0:0,0:0:0:0:
142,146,16341,2,0,L|198:113,1,52.5,2|0,3:0|0:0,0:0:0:0:
268,186,16523,2,0,L|300:129,1,52.5,0|0,3:0|0:0,0:0:0:0:
397,157,16705,2,0,L|397:92,1,52.5,0|0,3:0|0:0,0:0:0:0:
53,48,17069,6,0,L|118:48,1,52.5
142,146,17250,2,0,L|198:113,1,52.5
268,186,17432,2,0,L|300:129,1,52.5,0|0,3:0|0:0,0:0:0:0:
397,157,17614,6,0,P|434:152|456:155,1,52.5,0|0,3:0|0:0,0:0:0:0:
504,244,17796,1,0,0:0:0:0:
511,229,17887,1,0,0:0:0:0:
410,259,17978,1,0,0:0:0:0:
403,244,18069,1,0,0:0:0:0:
462,330,18160,1,0,0:0:0:0:
469,315,18251,1,0,0:0:0:0:
350,369,18341,6,0,P|323:370|298:365,1,52.5,8|0,3:0|0:0,0:0:0:0:
261,265,18523,1,0,0:0:0:0:
256,249,18614,1,0,0:0:0:0:
321,166,18705,1,0,0:0:0:0:
326,150,18796,1,0,0:0:0:0:
261,67,18887,1,8,3:0:0:0:
256,51,18978,1,0,0:0:0:0:
378,2,19069,6,0,P|405:1|430:6,1,52.5,0|0,3:0|0:0,0:0:0:0:
500,117,19250,2,0,P|473:118|448:113,1,52.5,0|0,3:0|0:0,0:0:0:0:
372,8,19432,2,0,P|399:4|424:7,1,52.5,0|0,3:0|0:0,0:0:0:0:
505,110,19614,2,0,P|478:114|453:111,1,52.5,0|0,3:0|0:0,0:0:0:0:
251,35,19796,6,0,L|266:88,1,52.5,8|0,3:0|0:0,0:0:0:0:
134,61,19978,2,0,L|173:99,1,52.5,0|0,3:0|0:0,0:0:0:0:
45,142,20160,2,0,L|98:155,1,52.5,0|0,3:0|0:0,0:0:0:0:
8,256,20341,2,0,L|61:240,1,52.5,0|0,3:0|0:0,0:0:0:0:
207,358,20523,5,0,0:0:0:0:
392,321,20705,1,0,0:0:0:0:
356,136,20887,1,0,0:0:0:0:
170,172,21069,1,0,0:0:0:0:
170,321,21250,5,0,0:0:0:0:
206,135,21432,1,0,0:0:0:0:
391,171,21614,1,0,0:0:0:0:
356,357,21796,1,0,0:0:0:0:
170,172,21978,6,0,P|156:198|152:283,1,105
207,358,22160,2,0,P|233:372|318:376,1,105
392,321,22341,2,0,P|406:295|410:210,1,105
355,135,22523,2,0,P|329:121|244:117,1,105
149,272,22705,6,0,P|149:219|169:172,1,105
254,114,22887,2,0,P|307:114|354:134,1,105
412,220,23069,2,0,P|412:273|392:320,1,105
307,378,23250,2,0,P|254:378|207:358,1,105
21,297,23432,5,0,3:0:0:0:
280,246,23614,1,8,3:0:0:0:
126,70,23796,2,0,L|102:198,1,125.999996154785
382,158,24160,1,4,3:0:0:0:
254,114,24341,1,0,0:0:0:0:
280,246,24523,1,0,0:0:0:0:
491,77,24705,1,0,0:0:0:0:
491,77,24796,1,0,0:0:0:0:
491,77,24887,6,0,P|511:113|516:174,1,94.499997116089,0|2,3:0|3:0,0:0:0:0:
306,378,25069,1,2,3:0:0:0:
310,375,25160,2,0,P|399:332|496:350,1,188.999994232178,0|0,3:0|0:0,0:0:0:0:
402,300,25432,1,0,0:0:0:0:
359,233,25523,1,0,0:0:0:0:
382,158,25614,1,4,3:0:0:0:
382,158,25978,5,0,0:0:0:0:
405,83,26069,1,0,0:0:0:0:
362,16,26160,2,0,P|310:-4|254:5,1,94.499997116089,0|0,3:0|0:0,0:0:0:0:
40,147,26341,5,0,3:0:0:0:
299,96,26523,1,8,3:0:0:0:
206,303,26705,2,0,L|182:179,1,125.999996154785
441,230,27069,1,4,3:0:0:0:
352,320,27250,1,0,3:0:0:0:
382,158,27432,2,0,L|406:34,1,125.999996154785
299,96,27705,1,0,3:0:0:0:
296,99,27796,6,0,P|204:108|104:49,1,188.999994232178,0|0,3:0|0:0,0:0:0:0:
205,108,28069,2,0,P|258:183|257:299,1,188.999994232178,0|0,3:0|2:0,2:0:0:0:
176,313,28341,1,0,0:0:0:0:
264,277,28432,1,0,0:0:0:0:
357,289,28523,1,4,3:0:0:0:
357,289,28887,5,0,0:0:0:0:
264,277,28978,1,0,0:0:0:0:
176,313,29069,2,0,P|113:329|70:324,1,94.499997116089,0|0,3:0|0:0,0:0:0:0:
0,259,29250,6,0,L|-18:119,1,125.999996154785,0|8,3:0|3:0,0:0:0:0:
157,55,29614,2,0,L|140:179,1,125.999996154785
38,19,29978,1,4,3:0:0:0:
130,252,30160,1,0,0:0:0:0:
266,122,30341,2,0,P|329:106|390:113,1,125.999996154785
481,80,30614,1,0,0:0:0:0:
479,84,30705,6,0,P|466:173|524:267,1,188.999994232178,0|0,3:0|0:0,0:0:0:0:
466,171,30978,2,0,P|398:117|288:114,1,188.999994232178,0|0,3:0|0:0,0:0:0:0:
186,128,31250,2,0,P|138:128|94:113,1,94.499997116089
339,253,31432,1,4,3:0:0:0:
339,253,31796,5,0,0:0:0:0:
345,235,31887,1,0,0:0:0:0:
247,301,31978,1,0,3:0:0:0:
241,283,32069,1,0,0:0:0:0:
367,370,32160,6,0,L|519:339,1,125.999996154785,0|8,3:0|3:0,0:0:0:0:
457,159,32523,2,0,L|305:128,1,125.999996154785
457,251,32887,1,4,3:0:0:0:
410,28,33069,1,0,0:0:0:0:
210,108,33250,2,0,L|362:139,1,125.999996154785
151,0,33523,1,0,0:0:0:0:
147,3,33614,6,0,P|103:48|112:183,1,188.999994232178,0|0,3:0|0:0,0:0:0:0:
158,245,33887,1,0,3:0:0:0:
189,334,33978,6,0,P|149:339|117:330,1,62.9999980773926
247,279,34099,6,0,P|225:312|197:331,1,62.9999980773926
241,197,34220,6,0,P|252:235|249:268,1,62.9999980773926
336,313,34341,6,0,B|361:315|396:327|424:347|424:347|442:321|475:302|501:297,1,188.999994232178,4|0,3:0|0:0,0:0:0:0:
418,79,34705,2,0,L|407:186,1,94.499997116089
405,201,34887,1,0,3:0:0:0:
102,168,35069,6,0,P|87:103|112:35,1,136.499993751526,4|0,3:0|0:0,0:0:0:0:
321,50,35341,2,0,P|272:95|200:107,1,136.499993751526
222,0,35614,1,0,0:0:0:0:
220,221,35796,2,0,B|219:285|219:285|213:298|213:298|212:359,1,136.499993751526,8|0,3:0|0:0,0:0:0:0:
102,168,36160,2,0,P|153:211|220:221,1,136.499993751526
425,155,36432,1,0,0:0:0:0:
420,156,36523,6,0,P|345:224|352:344,1,199.499994672775,0|0,3:0|0:0,0:0:0:0:
460,277,36796,1,0,3:0:0:0:
321,50,36978,1,0,0:0:0:0:
231,53,37069,1,0,0:0:0:0:
150,93,37160,1,0,0:0:0:0:
102,168,37250,1,8,3:0:0:0:
95,258,37614,5,0,0:0:0:0:
102,168,37705,1,0,0:0:0:0:
150,93,37795,1,0,3:0:0:0:
231,53,37886,1,0,0:0:0:0:
321,50,37978,6,0,P|399:54|461:24,1,136.499993751526,0|0,3:0|0:0,0:0:0:0:
373,147,38250,2,0,P|369:225|399:287,1,136.499993751526
505,193,38523,1,0,0:0:0:0:
227,248,38705,2,0,B|166:248|166:248|156:258|156:258|90:258,1,136.499993751526,8|0,3:0|0:0,0:0:0:0:
231,53,39069,2,0,P|273:113|277:189,1,136.499993751526
19,186,39341,1,0,0:0:0:0:
19,181,39432,6,0,P|47:74|132:26,1,199.499994672775,0|0,3:0|0:0,0:0:0:0:
149,157,39705,1,0,3:0:0:0:
19,334,39887,1,0,0:0:0:0:
102,366,39978,1,0,0:0:0:0:
191,366,40069,1,0,0:0:0:0:
274,334,40160,1,8,3:0:0:0:
274,334,40523,6,0,P|317:312|396:313,1,99.7499973363877
417,313,40705,1,0,3:0:0:0:
279,174,40887,6,0,P|287:107|327:52,1,136.499993751526,0|0,3:0|0:0,0:0:0:0:
465,191,41160,2,0,P|456:257|416:312,1,136.499993751526
279,174,41432,1,0,0:0:0:0:
142,321,41614,2,0,B|200:321|200:321|216:334|216:334|289:334,1,136.499993751526,8|0,3:0|0:0,0:0:0:0:
46,244,41978,2,0,P|17:315|38:390,1,136.499993751526
144,132,42250,1,0,0:0:0:0:
133,132,42341,6,0,L|19:132,1,99.7499973363877,0|0,3:0|0:0,0:0:0:0:
232,33,42523,1,0,0:0:0:0:
240,41,42614,2,0,P|270:93|276:156,1,99.7499973363877,0|0,3:0|0:0,0:0:0:0:
278,338,42796,1,0,0:0:0:0:
269,331,42887,2,0,P|239:279|233:216,1,99.7499973363877
368,241,43069,1,8,3:0:0:0:
368,241,43432,6,0,P|420:255|471:248,1,99.7499973363877
512,233,43614,1,0,3:0:0:0:
325,9,43796,6,0,P|289:58|278:145,1,136.499993751526,0|0,3:0|0:0,0:0:0:0:
227,253,44160,2,0,P|263:204|274:117,1,136.499993751526
120,140,44523,1,8,3:0:0:0:
432,122,44705,1,0,0:0:0:0:
325,9,44887,2,0,P|289:58|278:145,1,136.499993751526
168,286,45160,1,0,0:0:0:0:
173,285,45250,6,0,P|263:204|274:117,1,199.499994672775,0|0,3:0|0:0,0:0:0:0:
193,48,45523,1,0,3:0:0:0:
94,27,45614,6,0,P|146:25|179:39,1,66.4999982242585
26,73,45735,6,0,P|63:37|98:26,1,66.4999982242585
8,148,45856,6,0,P|13:96|33:66,1,66.4999982242585
120,140,45978,5,8,3:0:0:0:
26,294,46160,2,0,L|131:287,1,99.7499973363877
173,285,46341,1,4,3:0:0:0:
432,122,46705,6,0,P|373:86|291:81,1,136.499993751526,0|0,3:0|0:0,0:0:0:0:
348,315,46978,2,0,P|408:281|454:213,1,136.499993751526
222,145,47250,1,0,0:0:0:0:
447,227,47432,1,8,3:0:0:0:
417,17,47614,1,0,0:0:0:0:
222,145,47796,2,0,P|154:137|97:101,1,136.499993751526
188,236,48069,1,0,0:0:0:0:
189,245,48160,6,0,P|192:303|182:351,1,99.7499973363877,0|0,3:0|0:0,0:0:0:0:
6,250,48341,1,0,0:0:0:0:
4,240,48432,2,0,P|0:190|8:141,1,99.7499973363877,0|0,3:0|0:0,0:0:0:0:
202,0,48614,1,0,0:0:0:0:
286,31,48705,1,0,0:0:0:0:
339,103,48796,1,0,0:0:0:0:
358,190,48887,1,8,3:0:0:0:
358,190,49250,6,0,P|379:271|396:291,1,99.7499973363877
425,315,49432,1,0,3:0:0:0:
286,369,49614,6,0,L|133:356,1,136.499993751526,0|0,3:0|0:0,0:0:0:0:
85,167,49887,2,0,L|238:180,1,136.499993751526
11,233,50160,1,0,0:0:0:0:
7,229,50250,1,0,0:0:0:0:
4,224,50341,2,0,P|-15:157|23:91,1,136.499993751526,8|0,3:0|0:0,0:0:0:0:
221,178,50705,2,0,P|249:117|229:53,1,136.499993751526
46,6,50978,1,0,0:0:0:0:
44,6,51069,6,0,P|100:44|234:51,1,199.499994672775,0|0,3:0|0:0,0:0:0:0:
323,23,51341,1,0,3:0:0:0:
221,178,51523,1,0,0:0:0:0:
207,266,51614,1,0,0:0:0:0:
250,344,51705,1,0,0:0:0:0:
334,373,51796,1,8,3:0:0:0:
421,354,52160,5,0,0:0:0:0:
334,373,52250,1,0,0:0:0:0:
250,344,52341,1,0,3:0:0:0:
207,266,52432,1,0,0:0:0:0:
221,178,52523,6,0,P|234:100|204:29,1,136.499993751526,0|0,3:0|0:0,0:0:0:0:
0,55,52796,2,0,P|61:105|137:114,1,136.499993751526
103,0,53069,1,0,0:0:0:0:
85,210,53250,2,0,L|71:350,1,136.499993751526,8|0,3:0|0:0,0:0:0:0:
0,168,53614,1,0,0:0:0:0:
207,266,53796,1,0,0:0:0:0:
219,271,53887,1,0,0:0:0:0:
232,276,53978,6,0,P|309:278|404:201,1,199.499994672775,0|0,3:0|0:0,0:0:0:0:
275,141,54250,1,0,3:0:0:0:
491,64,54432,1,0,0:0:0:0:
492,81,54523,2,0,L|496:184,1,99.7499973363877
497,228,54705,1,8,3:0:0:0:
207,266,55069,1,0,0:0:0:0:
219,271,55160,1,0,0:0:0:0:
232,276,55250,2,0,P|309:278|353:258,1,99.7499973363877,0|0,3:0|0:0,0:0:0:0:
179,36,55432,6,0,P|136:104|133:162,1,136.499993751526,0|0,3:0|0:0,0:0:0:0:
413,110,55796,2,0,P|375:38|326:7,1,136.499993751526
329,270,56160,2,0,L|462:240,1,136.499993751526,8|0,3:0|0:0,0:0:0:0:
265,187,56523,2,0,L|118:155,1,136.499993751526
4,333,56796,1,0,0:0:0:0:
8,336,56887,6,0,P|106:360|233:251,1,249.374993340969,0|0,3:0|0:0,0:0:0:0:
179,36,57250,5,0,3:0:0:0:
131,157,57372,5,0,3:0:0:0:
260,139,57493,5,0,3:0:0:0:
50,54,57614,6,0,B|41:84|28:102|5:117|5:117|15:146|15:146|10:162|8:176|15:197,1,157.5,4|0,3:0|0:0,0:0:0:0:
26,233,57978,1,0,3:0:0:0:
277,353,58341,6,0,P|305:361|336:362,1,52.5,0|0,3:0|0:0,0:0:0:0:
428,376,58523,1,0,0:0:0:0:
451,367,58614,1,0,0:0:0:0:
473,353,58705,1,0,0:0:0:0:
490,333,58796,1,0,0:0:0:0:
500,308,58887,1,0,0:0:0:0:
503,282,58978,1,0,0:0:0:0:
501,255,59069,6,0,L|493:203,1,52.5,8|0,3:0|0:0,0:0:0:0:
428,125,59250,1,0,0:0:0:0:
402,131,59341,1,0,0:0:0:0:
375,131,59432,1,0,0:0:0:0:
349,125,59523,1,0,0:0:0:0:
325,113,59614,1,0,0:0:0:0:
302,98,59705,1,0,0:0:0:0:
278,86,59796,6,0,P|233:67|178:65,1,84,0|0,3:0|0:0,0:0:0:0:
133,259,59978,1,0,0:0:0:0:
145,255,60069,2,0,P|183:225|213:178,1,84,0|0,3:0|0:0,0:0:0:0:
86,136,60250,1,0,0:0:0:0:
20,331,60341,1,8,3:0:0:0:
20,331,61250,6,0,P|56:323|86:326,1,52.5,0|0,3:0|0:0,0:0:0:0:
169,346,61432,1,0,0:0:0:0:
194,352,61523,1,0,0:0:0:0:
220,355,61614,1,0,0:0:0:0:
246,353,61705,1,0,0:0:0:0:
271,346,61796,1,0,0:0:0:0:
295,336,61887,1,0,0:0:0:0:
318,324,61978,6,0,P|357:313|390:314,1,52.5,8|0,3:0|0:0,0:0:0:0:
465,340,62160,1,0,0:0:0:0:
451,317,62250,1,0,0:0:0:0:
443,291,62341,1,0,0:0:0:0:
439,264,62432,1,0,0:0:0:0:
442,237,62523,1,0,0:0:0:0:
450,212,62614,1,0,0:0:0:0:
465,188,62705,6,0,P|480:147|480:92,1,84,0|0,3:0|0:0,0:0:0:0:
271,51,62887,1,0,0:0:0:0:
276,63,62978,2,0,P|304:96|351:123,1,84,0|0,3:0|0:0,0:0:0:0:
126,61,63160,1,0,0:0:0:0:
52,73,63250,1,0,0:0:0:0:
0,128,63341,1,0,0:0:0:0:
0,203,63432,1,8,3:0:0:0:
103,168,63978,5,0,0:0:0:0:
116,165,64069,1,0,0:0:0:0:
128,163,64160,2,0,P|172:163|196:171,1,52.5,0|0,3:0|0:0,0:0:0:0:
279,162,64341,1,0,0:0:0:0:
269,186,64432,1,0,0:0:0:0:
262,211,64523,1,0,0:0:0:0:
258,237,64614,1,0,0:0:0:0:
257,263,64705,1,0,0:0:0:0:
260,289,64796,1,0,0:0:0:0:
266,314,64887,6,0,P|271:353|268:374,1,52.5,8|0,3:0|0:0,0:0:0:0:
171,343,65069,1,0,0:0:0:0:
144,343,65160,1,0,0:0:0:0:
119,351,65250,1,0,0:0:0:0:
93,356,65341,1,0,0:0:0:0:
66,357,65432,1,0,0:0:0:0:
41,347,65523,1,0,0:0:0:0:
21,336,65614,6,0,P|-6:304|-18:250,1,84,0|0,3:0|0:0,0:0:0:0:
129,163,65796,1,0,0:0:0:0:
129,176,65887,2,0,P|117:215|90:247,1,84,0|0,3:0|0:0,0:0:0:0:
75,73,66069,1,0,0:0:0:0:
86,67,66160,2,0,P|125:57|166:65,1,84
249,155,66341,2,0,P|290:162|330:153,1,84,8|0,3:0|0:0,0:0:0:0:
479,105,66523,1,0,0:0:0:0:
477,121,66614,1,0,0:0:0:0:
475,137,66705,2,0,L|468:226,1,84
366,256,66887,1,0,0:0:0:0:
368,272,66978,1,0,0:0:0:0:
370,288,67069,6,0,L|376:355,1,52.5,0|0,3:0|0:0,0:0:0:0:
280,308,67250,1,0,0:0:0:0:
254,303,67341,1,0,0:0:0:0:
227,302,67432,1,0,0:0:0:0:
201,306,67523,1,0,0:0:0:0:
176,314,67614,1,0,0:0:0:0:
153,328,67705,1,0,0:0:0:0:
128,338,67796,6,0,P|92:342|67:336,1,52.5,8|0,3:0|0:0,0:0:0:0:
0,272,67978,1,0,0:0:0:0:
4,247,68069,1,0,0:0:0:0:
8,221,68160,1,0,0:0:0:0:
12,195,68250,1,0,0:0:0:0:
16,169,68341,1,0,0:0:0:0:
20,143,68432,1,0,0:0:0:0:
24,118,68523,6,0,L|37:34,1,84,0|0,3:0|0:0,0:0:0:0:
158,109,68705,1,0,0:0:0:0:
162,84,68796,2,0,L|175:0,1,84,0|0,3:0|0:0,0:0:0:0:
296,75,68978,1,0,0:0:0:0:
328,83,69069,2,0,L|338:133,1,42
361,81,69160,2,0,L|371:31,1,42
393,75,69250,2,0,P|449:68|487:77,1,84,8|0,3:0|0:0,0:0:0:0:
435,188,69432,1,0,0:0:0:0:
433,204,69523,1,0,0:0:0:0:
431,220,69614,2,0,P|436:286|454:321,1,84
364,374,69796,1,0,0:0:0:0:
347,373,69887,1,0,0:0:0:0:
332,371,69978,6,0,L|261:365,1,52.5,0|0,3:0|0:0,0:0:0:0:
195,311,70160,1,0,0:0:0:0:
188,285,70250,1,0,0:0:0:0:
185,258,70341,1,0,0:0:0:0:
187,231,70432,1,0,0:0:0:0:
195,206,70523,1,0,0:0:0:0:
207,183,70614,1,0,0:0:0:0:
221,161,70705,6,0,P|236:107|232:73,1,52.5,8|0,3:0|0:0,0:0:0:0:
179,27,70887,1,0,0:0:0:0:
154,17,70978,1,0,0:0:0:0:
128,12,71069,1,0,0:0:0:0:
101,12,71160,1,0,0:0:0:0:
75,17,71250,1,0,0:0:0:0:
51,29,71341,1,0,0:0:0:0:
33,49,71432,6,0,P|7:99|5:141,1,84,0|0,3:0|0:0,0:0:0:0:
104,307,71614,1,0,0:0:0:0:
105,294,71705,2,0,P|97:252|75:217,1,84,0|0,3:0|0:0,0:0:0:0:
0,291,71887,1,0,0:0:0:0:
203,322,71978,1,8,3:0:0:0:
304,182,72523,6,0,P|282:217|274:258,1,84
293,352,72705,1,0,0:0:0:0:
319,349,72796,1,0,0:0:0:0:
345,347,72887,6,0,L|409:342,1,52.5,0|0,3:0|0:0,0:0:0:0:
474,287,73069,1,0,0:0:0:0:
463,262,73160,1,0,0:0:0:0:
455,237,73250,1,0,0:0:0:0:
454,210,73341,1,0,0:0:0:0:
455,183,73432,1,0,0:0:0:0:
462,157,73523,1,0,0:0:0:0:
470,132,73614,6,0,P|475:97|472:70,1,52.5,8|0,3:0|0:0,0:0:0:0:
400,10,73796,1,0,0:0:0:0:
373,9,73887,1,0,0:0:0:0:
346,9,73978,1,0,0:0:0:0:
319,8,74069,1,0,0:0:0:0:
292,8,74160,1,0,0:0:0:0:
266,7,74250,1,0,0:0:0:0:
240,7,74341,6,0,P|195:14|150:37,1,84,0|0,3:0|0:0,0:0:0:0:
286,230,74523,1,0,0:0:0:0:
291,218,74614,2,0,P|307:175|310:125,1,84,0|0,3:0|0:0,0:0:0:0:
83,157,74796,1,0,0:0:0:0:
57,228,74887,1,0,0:0:0:0:
69,302,74978,1,0,0:0:0:0:
119,358,75069,1,8,3:0:0:0:
83,157,75432,5,0,0:0:0:0:
57,228,75523,1,0,0:0:0:0:
69,302,75614,1,0,0:0:0:0:
119,358,75705,1,0,0:0:0:0:
205,377,75796,6,0,L|258:374,1,52.5,0|0,3:0|0:0,0:0:0:0:
353,343,75978,1,0,0:0:0:0:
356,316,76069,1,0,0:0:0:0:
359,289,76160,1,0,0:0:0:0:
362,263,76250,1,0,0:0:0:0:
365,236,76341,1,0,0:0:0:0:
368,209,76432,1,0,0:0:0:0:
371,182,76523,6,0,L|378:129,1,52.5,8|0,3:0|0:0,0:0:0:0:
451,63,76705,1,0,0:0:0:0:
430,46,76796,1,0,0:0:0:0:
406,34,76887,1,0,0:0:0:0:
379,30,76978,1,0,0:0:0:0:
352,33,77069,1,0,0:0:0:0:
327,43,77160,1,0,0:0:0:0:
303,57,77250,6,0,P|261:68|194:54,1,84,0|0,3:0|0:0,0:0:0:0:
56,0,77432,1,0,0:0:0:0:
55,12,77523,2,0,L|46:97,1,84,0|0,3:0|0:0,0:0:0:0:
230,159,77705,1,0,0:0:0:0:
229,147,77796,2,0,L|220:62,1,84,0|0,3:0|0:0,0:0:0:0:
46,95,77978,2,0,L|37:180,1,84,8|0,3:0|0:0,0:0:0:0:
0,346,78160,1,0,0:0:0:0:
24,343,78250,1,0,0:0:0:0:
48,339,78341,2,0,L|173:325,1,84,0|0,3:0|0:0,0:0:0:0:
199,232,78523,1,0,0:0:0:0:
223,235,78614,1,0,0:0:0:0:
247,239,78705,6,0,L|345:250,2,52.5,0|0|0,3:0|0:0|0:0,0:0:0:0:
426,159,78978,2,0,L|367:238,2,52.5,0|0|0,3:0|0:0|0:0,0:0:0:0:
406,355,79250,2,0,L|366:264,2,52.5,0|0|0,3:0|0:0|0:0,0:0:0:0:
257,153,79523,2,0,P|296:123|362:110,1,105,0|0,3:0|0:0,0:0:0:0:
327,384,79796,2,0,P|281:365|237:314,1,105,8|0,3:0|0:0,0:0:0:0:
201,257,80069,1,0,0:0:0:0:
129,224,80160,6,0,L|76:218,2,52.5,0|0|0,3:0|0:0|0:0,0:0:0:0:
257,153,80432,2,0,L|310:147,2,52.5,0|0|0,3:0|0:0|0:0,0:0:0:0:
129,82,80705,1,0,3:0:0:0:
185,27,80796,1,0,0:0:0:0:
262,11,80887,1,0,0:0:0:0:
338,29,80978,2,0,P|389:35|439:20,1,105,0|0,3:0|0:0,0:0:0:0:
512,113,81250,2,0,L|517:227,1,105,8|0,3:0|0:0,0:0:0:0:
392,191,81523,1,0,0:0:0:0:
391,208,81614,6,0,L|388:279,1,62.9999980773926,4|0,3:0|0:0,0:0:0:0:
308,362,81796,1,0,0:0:0:0:
277,368,81887,1,0,0:0:0:0:
245,367,81978,1,0,0:0:0:0:
214,359,82069,1,0,0:0:0:0:
184,346,82160,6,0,P|149:336|114:336,1,62.9999980773926,0|0,3:0|0:0,0:0:0:0:
10,291,82341,1,0,0:0:0:0:
7,259,82432,2,0,L|1:197,1,62.9999980773926
103,131,82614,1,0,3:0:0:0:
106,99,82705,2,0,L|112:37,1,62.9999980773926,8|0,3:0|0:0,0:0:0:0:
256,103,82887,1,0,0:0:0:0:
286,109,82978,1,0,0:0:0:0:
317,108,83069,6,0,P|361:101|385:87,1,62.9999980773926,0|0,3:0|0:0,0:0:0:0:
483,38,83250,1,0,0:0:0:0:
469,66,83341,1,0,0:0:0:0:
462,96,83432,1,0,0:0:0:0:
461,127,83523,1,0,0:0:0:0:
464,158,83614,6,0,L|471:222,1,62.9999980773926,0|0,3:0|0:0,0:0:0:0:
409,325,83796,1,0,0:0:0:0:
377,328,83887,2,0,L|307:337,1,62.9999980773926
243,193,84069,1,0,3:0:0:0:
275,196,84160,2,0,L|345:205,1,62.9999980773926,8|0,3:0|0:0,0:0:0:0:
155,254,84341,1,0,3:0:0:0:
137,180,84432,1,0,3:0:0:0:
173,113,84523,6,0,P|182:76|180:35,1,62.9999980773926,0|0,3:0|0:0,0:0:0:0:
73,0,84705,1,0,0:0:0:0:
42,8,84796,1,0,0:0:0:0:
19,29,84887,1,0,0:0:0:0:
3,56,84978,1,0,0:0:0:0:
0,87,85069,6,0,P|1:118|9:148,1,62.9999980773926,0|0,3:0|0:0,0:0:0:0:
82,233,85250,1,0,0:0:0:0:
50,235,85341,2,0,L|-26:240,1,62.9999980773926
120,327,85523,1,0,3:0:0:0:
152,329,85614,2,0,L|228:334,1,62.9999980773926,8|0,3:0|0:0,0:0:0:0:
307,255,85796,1,0,0:0:0:0:
337,248,85887,1,0,0:0:0:0:
368,248,85978,6,0,P|407:254|446:273,1,62.9999980773926,0|0,3:0|0:0,0:0:0:0:
363,160,86160,1,0,0:0:0:0:
355,129,86250,1,0,0:0:0:0:
358,97,86341,1,0,0:0:0:0:
370,67,86432,1,0,0:0:0:0:
391,43,86523,6,0,P|416:25|459:15,2,62.9999980773926,0|0|0,3:0|0:0|0:0,0:0:0:0:
239,92,86796,2,0,P|164:81|122:29,1,125.999996154785,0|0,3:0|0:0,0:0:0:0:
213,0,87069,1,8,3:0:0:0:
47,94,87250,1,0,3:0:0:0:
4,156,87341,1,0,3:0:0:0:
0,231,87432,6,0,P|4:273|20:310,1,62.9999980773926,0|0,3:0|0:0,0:0:0:0:
99,375,87614,1,0,0:0:0:0:
130,379,87705,1,0,0:0:0:0:
161,374,87796,1,0,0:0:0:0:
191,365,87887,1,0,0:0:0:0:
220,354,87978,6,0,P|262:341|298:343,1,62.9999980773926,0|0,3:0|0:0,0:0:0:0:
424,271,88160,1,0,0:0:0:0:
425,302,88250,2,0,L|429:368,1,62.9999980773926
324,244,88432,1,0,3:0:0:0:
325,213,88522,2,0,L|329:147,1,62.9999980773926,8|0,3:0|0:0,0:0:0:0:
225,186,88705,1,0,0:0:0:0:
194,179,88796,1,0,0:0:0:0:
167,161,88887,6,0,P|141:132|129:102,1,62.9999980773926,0|0,3:0|0:0,0:0:0:0:
200,10,89069,1,0,0:0:0:0:
230,3,89160,1,0,0:0:0:0:
261,0,89250,1,0,0:0:0:0:
292,4,89341,1,0,0:0:0:0:
322,12,89432,6,0,P|361:20|392:17,1,62.9999980773926,0|0,3:0|0:0,0:0:0:0:
486,82,89614,1,0,0:0:0:0:
482,113,89705,2,0,L|474:188,1,62.9999980773926
356,150,89887,1,0,3:0:0:0:
360,181,89978,2,0,L|368:256,1,62.9999980773926,8|0,3:0|0:0,0:0:0:0:
451,329,90160,1,0,3:0:0:0:
383,360,90250,1,0,3:0:0:0:
308,346,90341,6,0,P|272:335|239:335,1,62.9999980773926,0|0,3:0|0:0,0:0:0:0:
131,372,90523,1,0,0:0:0:0:
99,375,90614,1,0,0:0:0:0:
67,371,90705,1,0,0:0:0:0:
38,356,90796,1,0,0:0:0:0:
19,330,90887,6,0,P|8:298|7:266,1,62.9999980773926,0|0,3:0|0:0,0:0:0:0:
158,219,91069,1,0,0:0:0:0:
144,248,91160,2,0,P|121:273|94:290,1,62.9999980773926
127,131,91341,1,0,3:0:0:0:
159,128,91432,2,0,P|192:134|220:149,1,62.9999980773926,8|0,3:0|0:0,0:0:0:0:
66,201,91614,1,0,0:0:0:0:
45,177,91705,1,0,0:0:0:0:
34,146,91796,6,0,P|35:111|55:73,1,62.9999980773926,0|0,3:0|0:0,0:0:0:0:
137,6,91978,1,0,0:0:0:0:
168,0,92069,1,0,0:0:0:0:
199,0,92160,1,0,0:0:0:0:
229,6,92250,1,0,0:0:0:0:
258,15,92341,6,0,P|296:26|391:3,1,125.999996154785,0|0,3:0|0:0,0:0:0:0:
319,27,92614,2,0,P|290:54|262:148,1,125.999996154785,0|0,3:0|0:0,0:0:0:0:
331,241,92887,2,0,P|359:213|387:119,1,125.999996154785,8|0,3:0|3:0,0:0:0:0:
479,251,93160,1,0,3:0:0:0:
452,236,93250,6,0,P|414:225|319:248,1,125.999996154785,4|0,3:0|0:0,0:0:0:0:
303,257,93523,1,0,0:0:0:0:
274,269,93614,1,0,0:0:0:0:
242,274,93705,1,0,0:0:0:0:
210,273,93796,6,0,P|165:265|135:248,1,62.9999980773926,0|0,3:0|0:0,0:0:0:0:
48,191,93978,1,0,0:0:0:0:
44,222,94069,2,0,L|33:300,1,62.9999980773926
138,164,94250,1,0,3:0:0:0:
142,133,94341,2,0,L|153:55,1,62.9999980773926,8|0,3:0|0:0,0:0:0:0:
232,106,94523,1,0,0:0:0:0:
262,113,94614,1,0,0:0:0:0:
293,115,94705,6,0,P|339:108|366:93,1,62.9999980773926,0|0,3:0|0:0,0:0:0:0:
454,15,94887,1,0,0:0:0:0:
472,40,94978,1,0,0:0:0:0:
482,69,95069,1,0,0:0:0:0:
485,101,95160,1,0,0:0:0:0:
479,131,95250,6,0,P|473:172|475:197,1,62.9999980773926,0|0,3:0|0:0,0:0:0:0:
510,309,95432,1,0,0:0:0:0:
478,311,95523,2,0,L|416:315,1,62.9999980773926
355,209,95705,1,0,3:0:0:0:
323,207,95796,2,0,L|261:203,1,62.9999980773926,8|0,3:0|0:0,0:0:0:0:
150,328,95978,1,0,3:0:0:0:
217,361,96069,1,0,3:0:0:0:
291,346,96160,6,0,P|324:305|330:275,1,62.9999980773926,0|0,3:0|0:0,0:0:0:0:
260,202,96341,1,0,0:0:0:0:
251,171,96432,1,0,0:0:0:0:
252,139,96523,1,0,0:0:0:0:
263,109,96614,1,0,0:0:0:0:
282,84,96705,6,0,P|291:48|290:13,1,62.9999980773926,0|0,3:0|0:0,0:0:0:0:
133,1,96887,1,0,0:0:0:0:
114,26,96978,2,0,P|105:62|106:97,1,62.9999980773926,0|0,3:0|0:0,0:0:0:0:
0,127,97160,1,0,3:0:0:0:
12,156,97250,2,0,P|38:181|69:198,1,62.9999980773926,8|0,3:0|0:0,0:0:0:0:
42,305,97433,1,0,0:0:0:0:
73,309,97523,1,0,0:0:0:0:
104,305,97614,6,0,L|179:296,1,62.9999980773926,0|0,3:0|0:0,0:0:0:0:
274,229,97796,1,0,0:0:0:0:
304,221,97887,1,0,0:0:0:0:
335,222,97978,1,0,0:0:0:0:
365,230,98069,1,0,0:0:0:0:
393,243,98160,6,0,P|434:251|471:247,1,62.9999980773926,0|0,3:0|0:0,0:0:0:0:
429,66,98341,1,0,0:0:0:0:
430,97,98432,2,0,L|433:163,2,62.9999980773926,0|0|0,3:0|0:0|0:0,0:0:0:0:
326,34,98705,2,0,P|285:26|248:30,1,62.9999980773926,8|0,3:0|0:0,0:0:0:0:
121,98,98887,2,0,P|162:90|199:94,1,62.9999980773926,0|0,3:0|0:0,0:0:0:0:
166,211,99069,6,0,P|125:219|88:215,1,62.9999980773926,0|0,3:0|0:0,0:0:0:0:
2,281,99250,1,0,0:0:0:0:
22,304,99341,1,0,0:0:0:0:
48,321,99432,1,0,0:0:0:0:
77,331,99523,1,0,0:0:0:0:
108,335,99614,6,0,P|149:327|186:331,1,62.9999980773926,0|0,3:0|0:0,0:0:0:0:
282,373,99796,1,0,0:0:0:0:
313,370,99887,2,0,L|383:364,1,62.9999980773926
349,230,100069,1,0,3:0:0:0:
318,227,100160,2,0,L|248:221,1,62.9999980773926,8|0,3:0|0:0,0:0:0:0:
478,274,100341,1,0,0:0:0:0:
485,243,100432,1,0,0:0:0:0:
485,211,100523,6,0,P|475:175|452:142,1,62.9999980773926,0|0,3:0|0:0,0:0:0:0:
368,75,100705,1,0,0:0:0:0:
336,78,100796,1,0,0:0:0:0:
305,81,100887,1,0,0:0:0:0:
274,83,100978,1,0,0:0:0:0:
242,87,101069,6,0,L|152:95,1,62.9999980773926,0|0,3:0|0:0,0:0:0:0:
68,46,101250,1,0,0:0:0:0:
64,77,101341,2,0,L|53:159,1,62.9999980773926
151,267,101523,1,0,0:0:0:0:
147,236,101614,2,0,L|136:154,1,62.9999980773926
80,355,101796,1,0,0:0:0:0:
151,379,101887,1,0,0:0:0:0:
222,354,101978,6,0,P|293:334|355:342,1,125.999996154785
462,203,102250,6,0,B|455:224|459:246|468:264|468:264|444:289|444:289|453:318,1,125.999996154785
354,233,102523,6,0,P|355:167|396:116,1,125.999996154785
248,248,102796,6,0,L|113:232,1,125.999996154785
49,147,103069,6,0,P|113:120|171:131,1,125.999996154785
94,342,103341,5,0,0:0:0:0:
85,340,103432,2,0,P|29:298|10:242,1,125.999996154785
49,147,103705,6,0,P|110:155|167:129,1,125.999996154785
312,2,103978,5,0,0:0:0:0:
363,81,104069,1,0,0:0:0:0:
303,154,104160,1,0,0:0:0:0:
354,233,104250,1,0,0:0:0:0:
363,81,104523,5,0,0:0:0:0:
303,154,104614,1,0,0:0:0:0:
354,233,104705,1,0,0:0:0:0:
446,210,104796,1,0,0:0:0:0:
451,115,104887,6,0,B|459:98|460:75|455:58|455:58|471:32|471:32|471:-4,1,118.125004506111
179,69,105523,5,0,0:0:0:0:
194,70,105614,2,0,L|259:76,1,52.5
100,0,105796,1,0,0:0:0:0:
90,12,105887,1,0,0:0:0:0:
83,26,105978,2,0,P|74:85|89:126,2,105
193,228,106432,2,0,L|198:176,2,52.5
19,296,106887,5,0,0:0:0:0:
222,367,107069,2,0,P|190:373|164:369,1,52.5
283,282,107250,2,0,P|315:276|341:280,1,52.5
415,358,107432,1,0,0:0:0:0:
436,328,107523,1,0,0:0:0:0:
447,293,107614,1,0,0:0:0:0:
445,256,107705,1,0,0:0:0:0:
438,219,107796,6,0,P|430:168|450:104,1,105
457,95,108069,1,0,0:0:0:0:
271,0,108432,5,0,0:0:0:0:
273,14,108523,2,0,L|284:98,1,52.5
154,46,108705,1,0,0:0:0:0:
151,61,108796,1,0,0:0:0:0:
149,75,108887,2,0,L|131:182,2,105
297,222,109341,2,0,L|291:170,2,52.5
113,281,109796,5,0,0:0:0:0:
414,219,109978,2,0,P|406:262|394:288,1,52.5
353,119,110160,2,0,P|384:105|401:103,1,42
297,222,110341,2,0,P|277:210|268:200,1,31.4999990386963
309,339,110523,1,0,0:0:0:0:
241,67,110705,6,0,B|214:53|214:53|186:53|186:53|169:42|143:37|122:42,1,118.125004506111
113,281,111341,5,0,0:0:0:0:
116,265,111432,2,0,L|124:212,1,52.5
166,371,111614,1,0,0:0:0:0:
151,377,111705,1,0,0:0:0:0:
135,380,111796,2,0,P|71:374|36:348,2,105
0,183,112250,2,0,L|7:234,1,52.5
10,250,112431,1,0,0:0:0:0:
280,131,112705,5,0,0:0:0:0:
123,68,112887,2,0,P|152:60|183:62,1,52.5
197,228,113069,2,0,P|178:210|165:188,1,52.5
280,131,113250,1,0,0:0:0:0:
295,126,113341,1,0,0:0:0:0:
310,124,113432,1,0,0:0:0:0:
325,124,113523,1,0,0:0:0:0:
340,126,113614,6,0,P|407:130|459:113,1,105
467,109,113887,1,0,0:0:0:0:
512,282,114250,5,0,0:0:0:0:
496,280,114341,2,0,L|425:270,1,52.5
369,352,114523,1,0,0:0:0:0:
357,341,114614,1,0,0:0:0:0:
347,328,114705,2,0,P|333:262|349:215,2,105
164,303,115160,2,0,L|215:310,1,52.5
231,312,115341,1,0,0:0:0:0:
206,126,115614,5,0,0:0:0:0:
57,168,115796,2,0,P|69:202|84:221,1,52.5
96,18,115978,2,0,P|60:11|36:14,1,52.5
206,126,116160,2,0,P|229:98|238:76,1,52.5
172,212,116341,1,0,0:0:0:0:
311,23,116523,6,0,B|341:27|341:27|368:13|368:13|388:21|405:22|431:18,1,118.125004506111
398,231,117160,5,0,0:0:0:0:
395,214,117250,2,0,L|386:162,1,52.5
335,331,117432,1,0,0:0:0:0:
348,338,117523,1,0,0:0:0:0:
362,344,117614,2,0,P|425:347|464:331,2,105
211,201,118069,2,0,L|202:252,1,52.5
199,269,118249,1,0,0:0:0:0:
235,83,118523,5,0,0:0:0:0:
149,349,118705,2,0,P|179:361|207:363,1,52.5
336,248,118887,2,0,P|310:251|286:262,1,52.5
105,273,119069,1,0,0:0:0:0:
95,260,119160,1,0,0:0:0:0:
89,245,119250,1,0,0:0:0:0:
86,229,119341,1,0,0:0:0:0:
86,213,119432,6,0,P|95:156|128:108,1,105
139,99,119705,1,0,0:0:0:0:
3,3,120069,5,0,0:0:0:0:
4,18,120160,2,0,L|9:80,1,52.5
92,15,120341,1,0,0:0:0:0:
105,9,120432,1,0,0:0:0:0:
121,5,120523,2,0,P|177:11|217:44,2,105
233,133,120978,2,0,L|287:129,2,52.5
294,0,121432,5,0,0:0:0:0:
139,99,121614,2,0,P|132:131|134:157,1,52.5
326,160,121796,2,0,P|301:137|278:126,1,52.5
179,291,121978,2,0,P|210:281|231:266,1,52.5
215,183,122160,1,0,0:0:0:0:
331,368,122341,6,0,B|361:373|361:373|387:361|387:361|406:366|427:366|448:359,1,118.125004506111
419,165,122978,5,0,0:0:0:0:
418,180,123069,2,0,L|415:232,1,52.5
377,82,123250,1,0,0:0:0:0:
392,77,123341,1,0,0:0:0:0:
407,75,123432,2,0,P|463:86|500:124,2,105
233,133,123887,2,0,L|230:81,1,52.5
229,66,124068,1,0,0:0:0:0:
206,268,124341,5,0,0:0:0:0:
10,206,124523,2,0,P|39:200|71:203,1,52.5
101,375,124705,2,0,P|81:352|67:323,1,52.5
206,268,124887,1,0,0:0:0:0:
221,265,124978,1,0,0:0:0:0:
236,266,125069,1,0,0:0:0:0:
251,268,125160,1,0,0:0:0:0:
266,271,125250,6,0,P|324:277|370:265,1,105
393,256,125523,1,0,0:0:0:0:
229,66,125887,5,0,0:0:0:0:
230,81,125978,2,0,L|233:133,1,52.5
66,172,126160,1,0,0:0:0:0:
63,186,126250,1,0,0:0:0:0:
61,201,126341,2,0,L|43:319,2,105
266,271,126796,2,0,P|295:277|325:277,2,52.5
129,98,127250,5,0,0:0:0:0:
193,374,127432,1,0,0:0:0:0:
401,181,127614,2,0,B|387:232|387:232|406:274|406:274|397:294|396:311|402:331|402:331|416:320|432:313|450:311,1,210
347,86,128160,6,0,P|283:59|200:79,1,125.999996154785
140,283,128523,2,0,L|273:270,1,125.999996154785
185,168,128796,1,0,0:0:0:0:
58,189,128887,2,0,P|22:240|16:302,1,125.999996154785
185,168,129250,2,0,L|166:103,1,62.9999980773926
72,100,129432,2,0,L|91:35,1,62.9999980773926
364,25,129614,6,0,L|346:85,1,62.9999980773926
298,236,129796,1,0,0:0:0:0:
313,225,129887,2,0,P|380:207|446:227,1,125.999996154785
378,333,130160,1,0,0:0:0:0:
488,107,130341,1,0,0:0:0:0:
253,353,130523,2,0,P|186:371|120:351,1,125.999996154785
61,293,130796,1,0,0:0:0:0:
60,274,130887,1,0,0:0:0:0:
59,255,130978,1,0,0:0:0:0:
58,236,131069,5,0,0:0:0:0:
3,370,131250,1,0,0:0:0:0:
188,245,131432,2,0,L|206:95,1,125.999996154785
142,7,131705,1,0,0:0:0:0:
22,48,131796,2,0,P|54:101|110:131,1,125.999996154785
353,33,132160,2,0,L|273:21,1,62.9999980773926
203,119,132341,2,0,L|283:107,1,62.9999980773926
467,210,132523,6,0,L|387:198,1,62.9999980773926
221,287,132705,1,0,0:0:0:0:
236,277,132796,2,0,P|302:261|369:282,1,125.999996154785
165,357,133069,2,0,P|141:327|133:300,1,62.9999980773926
203,119,133250,1,0,0:0:0:0:
297,376,133432,1,0,0:0:0:0:
77,235,133614,1,0,0:0:0:0:
93,225,133705,1,0,0:0:0:0:
111,219,133796,1,0,0:0:0:0:
129,216,133887,1,0,0:0:0:0:
147,217,133978,5,0,0:0:0:0:
44,317,134160,1,0,0:0:0:0:
96,121,134341,2,0,P|89:47|55:10,1,125.999996154785
0,93,134614,1,0,0:0:0:0:
203,119,134705,2,0,L|330:135,1,125.999996154785
147,217,135069,2,0,P|128:256|125:281,1,62.9999980773926
267,345,135250,2,0,P|260:314|245:286,1,62.9999980773926
203,119,135432,6,0,P|210:88|225:60,1,62.9999980773926
471,152,135614,1,0,0:0:0:0:
453,150,135705,2,0,L|327:134,1,125.999996154785
444,31,135978,1,0,0:0:0:0:
335,225,136160,2,0,P|349:287|395:339,1,125.999996154785
510,292,136432,1,0,0:0:0:0:
511,312,136523,2,0,L|519:375,2,62.9999980773926
327,134,136887,6,0,L|201:118,1,125.999996154785
136,343,137250,2,0,L|262:327,1,125.999996154785
179,226,137523,1,0,0:0:0:0:
52,247,137614,2,0,P|16:298|10:360,1,125.999996154785
97,126,137978,2,0,L|21:116,1,62.9999980773926
141,46,138160,2,0,L|217:36,1,62.9999980773926
327,134,138341,6,0,L|251:124,1,62.9999980773926
400,36,138523,1,0,0:0:0:0:
413,48,138614,2,0,P|448:124|440:177,1,125.999996154785
376,283,138887,2,0,L|452:273,1,62.9999980773926
327,134,139069,1,0,0:0:0:0:
296,360,139250,1,0,0:0:0:0:
115,220,139432,1,0,0:0:0:0:
96,218,139523,1,0,0:0:0:0:
77,220,139614,1,0,0:0:0:0:
58,225,139705,1,0,0:0:0:0:
42,236,139796,5,0,0:0:0:0:
101,321,139978,1,0,0:0:0:0:
129,119,140160,2,0,P|121:47|84:-2,1,125.999996154785
1,97,140432,1,0,0:0:0:0:
115,220,140523,2,0,L|250:210,1,125.999996154785
407,34,140887,6,0,L|344:29,1,62.9999980773926
229,112,141069,2,0,L|292:108,1,62.9999980773926
321,322,141250,6,0,L|258:317,1,62.9999980773926
0,300,141432,1,0,0:0:0:0:
19,301,141523,2,0,L|154:311,1,125.999996154785
229,112,141796,1,0,0:0:0:0:
321,322,141978,1,0,0:0:0:0:
122,173,142160,2,0,P|104:113|120:50,1,125.999996154785
199,3,142432,1,0,0:0:0:0:
217,3,142523,1,0,0:0:0:0:
235,3,142614,1,0,0:0:0:0:
253,3,142705,5,0,0:0:0:0:
229,112,142887,1,0,0:0:0:0:
387,98,143069,2,0,L|531:87,1,125.999996154785
420,2,143341,1,0,0:0:0:0:
355,189,143432,2,0,P|354:264|386:314,1,125.999996154785
512,233,143796,2,0,P|481:228|436:234,1,62.9999980773926
442,384,143978,2,0,P|461:359|479:317,1,62.9999980773926
261,285,144160,6,0,P|229:287|198:282,1,62.9999980773926
63,223,144341,1,0,0:0:0:0:
77,235,144432,2,0,P|105:290|100:352,1,125.999996154785
0,180,144705,2,0,P|22:160|63:147,1,62.9999980773926
232,193,144887,1,0,0:0:0:0:
0,311,145069,1,0,0:0:0:0:
226,109,145250,1,0,0:0:0:0:
244,109,145341,1,0,0:0:0:0:
262,113,145432,1,0,0:0:0:0:
278,122,145523,1,0,0:0:0:0:
292,134,145614,5,0,0:0:0:0:
295,31,145796,1,0,0:0:0:0:
232,193,145978,2,0,P|226:282|245:322,1,125.999996154785
346,246,146250,1,0,0:0:0:0:
114,230,146341,2,0,L|-23:221,1,125.999996154785
232,193,146705,2,0,P|239:153|233:122,1,62.9999980773926
131,129,146887,2,0,P|127:97|134:67,1,62.9999980773926
330,14,147069,6,0,P|333:45|326:75,1,62.9999980773926
217,204,147250,1,0,0:0:0:0:
232,193,147341,2,0,P|303:181|362:204,1,125.999996154785
287,307,147614,1,0,0:0:0:0:
233,81,147796,1,0,0:0:0:0:
46,289,147978,2,0,P|105:306|166:293,1,125.999996154785
111,179,148251,1,0,0:0:0:0:
109,160,148341,1,0,0:0:0:0:
107,141,148432,1,0,0:0:0:0:
106,122,148523,5,0,0:0:0:0:
0,195,148705,1,0,0:0:0:0:
166,293,148887,2,0,L|326:282,1,125.999996154785
396,211,149160,1,0,0:0:0:0:
343,98,149250,2,0,P|289:147|273:204,1,125.999996154785
509,249,149614,2,0,P|515:205|512:186,1,62.9999980773926
448,104,149796,2,0,P|445:72|451:41,1,62.9999980773926
273,196,149978,6,0,P|241:198|210:192,1,62.9999980773926
133,100,150160,1,0,0:0:0:0:
119,112,150250,1,0,0:0:0:0:
109,127,150341,2,0,P|92:219|109:260,1,125.999996154785
210,192,150614,1,0,0:0:0:0:
2,299,150705,1,0,0:0:0:0:
299,248,150887,6,0,P|314:209|311:174,1,52.5
410,153,151069,2,0,P|384:117|352:105,1,65.625
403,16,151250,2,0,P|350:9|313:23,1,78.7500030040742
419,252,151432,6,0,P|450:245|476:228,1,52.5
512,139,151614,1,0,0:0:0:0:
506,124,151705,1,0,0:0:0:0:
402,106,151796,1,0,0:0:0:0:
408,91,151887,1,0,0:0:0:0:
504,50,151978,1,0,0:0:0:0:
498,38,152069,1,0,0:0:0:0:
358,123,163069,6,0,P|342:168|344:189,1,52.5,0|0,3:0|0:0,0:0:0:0:
253,218,163250,2,0,P|283:254|303:263,1,52.5,0|0,3:0|0:0,0:0:0:0:
490,269,163432,2,0,P|416:252|373:265,1,105,8|0,3:0|0:0,0:0:0:0:
322,369,163796,1,0,0:0:0:0:
331,356,163887,1,0,0:0:0:0:
338,341,163978,1,0,3:0:0:0:
494,260,164160,2,0,P|420:243|377:256,1,105,8|0,3:0|0:0,0:0:0:0:
258,323,164523,6,0,L|196:318,1,52.5,0|0,3:0|0:0,0:0:0:0:
116,375,164705,2,0,L|54:370,1,52.5,0|0,3:0|0:0,0:0:0:0:
0,267,164887,6,0,L|62:272,1,52.5,8|0,3:0|0:0,0:0:0:0:
142,215,165069,2,0,L|204:220,1,52.5,0|0,3:0|0:0,0:0:0:0:
48,171,165250,5,8,3:0:0:0:
46,144,165341,1,8,3:0:0:0:
44,117,165432,2,0,L|36:12,2,105,0|8|0,3:0|3:0|3:0,0:0:0:0:
84,166,174705,6,0,L|92:280,1,105
177,207,174978,2,0,L|169:93,1,105
73,27,175250,2,0,L|78:100,1,52.5
183,294,175432,1,0,0:0:0:0:
350,42,175614,5,0,0:0:0:0:
246,24,175796,1,0,0:0:0:0:
283,122,175978,1,0,0:0:0:0:
467,228,176160,6,0,L|382:226,1,52.5
377,328,176341,1,0,0:0:0:0:
350,328,176432,2,0,L|265:326,1,52.5
139,344,176614,1,0,0:0:0:0:
80,269,176705,1,0,0:0:0:0:
67,175,176796,1,0,0:0:0:0:
104,88,176887,2,0,P|150:57|229:51,1,105
350,158,177250,6,0,P|314:167|291:162,1,52.5
318,71,177432,2,0,P|354:62|377:67,1,52.5
