osu file format v14

[General]
AudioFilename: audio.mp3
AudioLeadIn: 0
PreviewTime: 87705
Countdown: 1
SampleSet: Soft
StackLeniency: 0.7
Mode: 0
LetterboxInBreaks: 0
WidescreenStoryboard: 0

[Editor]
DistanceSpacing: 1.2
BeatDivisor: 4
GridSize: 4
TimelineZoom: 2.899999

[Metadata]
Title:Blindness (feat. Hatsune Miku & Megurine Ruka)
TitleUnicode:Blindness (feat. 初音ミク&巡音ルカ)
Artist:Treow
ArtistUnicode:Treow
Creator:Breezy033
Version:Shitsumei
Source:
Tags:Treow Blindness Vocaloid Hatsune Miku Megurine Ruka ElektLyze+ELECTROCUTICA
BeatmapID:1864004
BeatmapSetID:891631

[Difficulty]
HPDrainRate:6
CircleSize:4
OverallDifficulty:8.5
ApproachRate:9.7
SliderMultiplier:2.1
SliderTickRate:1

[Events]
//Background and Video events
0,0,"287470-katana-anime_girls-Vocaloid-Hatsune_Miku.jpg",0,0
//Break Periods
//Storyboard Layer 0 (Background)
//Storyboard Layer 1 (Fail)
//Storyboard Layer 2 (Pass)
//Storyboard Layer 3 (Foreground)
//Storyboard Sound Samples

[TimingPoints]
848,285.714285714286,6,2,1,40,1,0
848,-133.333333333333,6,2,1,40,0,0
21419,-500,6,2,1,40,0,0
29800,-133.333333333333,6,2,2,40,0,0
35133,-133.333333333333,6,2,2,40,0,0
50990,-100,6,2,2,55,0,0
67133,-133.333333333333,6,2,2,40,0,0
77419,-250,6,2,2,40,0,0
79990,-133.333333333333,6,2,2,40,0,0
82562,-1000,6,2,2,40,0,0
85133,-100,6,2,2,70,0,0
85562,-100,6,2,2,65,0,0
85990,-100,6,2,2,60,0,0
86419,-100,6,2,2,55,0,0
86848,-100,6,2,2,50,0,0
87133,-100,6,2,2,45,0,0
87419,-100,6,2,2,40,0,0
87705,-100,6,2,2,70,0,1
95705,-80,6,2,2,70,0,1
95990,-66.6666666666667,6,2,2,70,0,1
96276,-100,6,2,2,70,0,1
101133,-133.333333333333,6,2,1,40,0,0
101419,-133.333333333333,6,2,2,70,0,1
101848,-133.333333333333,6,2,1,70,0,1
102276,-133.333333333333,6,2,2,70,0,1
102705,-133.333333333333,6,2,1,70,0,1
102990,-133.333333333333,6,2,2,70,0,1
103562,-133.333333333333,6,2,1,70,0,1
103990,-133.333333333333,6,2,2,70,0,1
104133,-133.333333333333,6,2,1,70,0,1
104419,-133.333333333333,6,2,2,70,0,1
105133,-133.333333333333,6,2,1,70,0,1
105705,-133.333333333333,6,2,2,70,0,1
106276,-133.333333333333,6,2,1,70,0,1
106562,-133.333333333333,6,2,2,70,0,1
106990,-133.333333333333,6,2,1,70,0,1
107419,-133.333333333333,6,2,2,70,0,1
107562,-133.333333333333,6,2,1,70,0,1
107848,-133.333333333333,6,2,2,70,0,1
111133,-133.333333333333,6,2,1,70,0,1
111705,-133.333333333333,6,2,2,70,0,0
203419,-133.333333333333,6,2,1,40,0,1
205133,-133.333333333333,6,2,1,40,0,0
272848,-133.333333333333,6,2,1,40,0,1
286276,-133.333333333333,6,2,1,40,0,0
286562,-133.333333333333,6,2,1,40,0,1
296848,-133.333333333333,6,2,1,40,0,0

[HitObjects]
52,101,848,6,0,L|215:118,1,157.500006008148,4|0,0:0|0:0,0:0:0:0:
263,197,1419,2,0,P|312:191|334:167,1,78.7500030040742
357,74,1705,2,0,P|402:71|441:117,1,78.7500030040742,2|0,0:0|0:0,0:0:0:0:
466,270,1990,2,0,L|334:281,1,118.125004506111
330,299,2276,5,0,0:0:0:0:
176,330,2562,2,0,B|131:258|178:213|178:205|234:175|179:79,1,236.250009012223,4|0,0:0|0:0,0:0:0:0:
286,64,3133,2,0,L|293:150,1,78.7500030040742
296,227,3419,1,2,0:0:0:0:
44,97,3705,5,0,0:0:0:0:
122,163,3848,1,0,0:0:0:0:
223,163,3990,2,0,P|231:113|190:33,1,118.125004506111
163,26,4276,6,0,L|349:44,1,157.500006008148,4|0,0:0|0:0,0:0:0:0:
427,64,4848,5,0,0:0:0:0:
393,161,4991,1,0,0:0:0:0:
318,216,5133,2,0,P|367:277|447:226,1,157.500006008148,2|0,0:0|0:0,0:0:0:0:
393,161,5562,5,0,0:0:0:0:
321,87,5705,2,0,L|237:93,1,78.7500030040742
121,257,5990,5,4,0:0:0:0:
248,171,6133,1,0,0:0:0:0:
262,340,6276,1,0,0:0:0:0:
94,229,6419,5,2,0:0:0:0:
262,154,6562,1,0,0:0:0:0:
243,357,6705,1,0,0:0:0:0:
70,194,6848,5,4,0:0:0:0:
283,140,6991,1,0,0:0:0:0:
219,375,7134,1,0,0:0:0:0:
61,155,7276,5,2,0:0:0:0:
303,138,7419,1,0,0:0:0:0:
188,380,7562,1,0,0:0:0:0:
67,120,7705,6,0,B|142:150|220:99|220:99|156:158,1,236.250009012223,4|0,0:0|0:0,0:0:0:0:
53,218,8276,2,0,L|132:225,1,78.7500030040742,2|0,0:0|0:0,0:0:0:0:
234,261,8562,1,0,0:0:0:0:
56,250,8705,6,0,L|134:237,1,78.7500030040742,2|0,0:0|0:0,0:0:0:0:
233,215,8990,1,0,0:0:0:0:
57,325,9133,6,0,L|136:332,1,78.7500030040742
247,336,9419,2,0,B|267:291|235:249|235:249|202:211|225:166,1,157.500006008148,4|0,0:0|0:0,0:0:0:0:
236,95,9848,1,0,0:0:0:0:
316,44,9990,2,0,L|326:139,1,78.7500030040742
411,188,10276,5,2,0:0:0:0:
237,246,10419,1,2,0:0:0:0:
397,171,10562,1,0,0:0:0:0:
302,326,10705,1,2,0:0:0:0:
387,146,10848,2,0,P|336:133|296:108,1,78.7500030040742,2|0,0:0|0:0,0:0:0:0:
326,30,11133,6,0,P|255:42|247:140,1,157.500006008148,4|0,0:0|0:0,0:0:0:0:
356,181,11562,1,0,0:0:0:0:
356,181,11705,2,0,L|264:190,1,78.7500030040742
178,202,11990,2,0,B|208:258|208:258|301:283,1,157.500006008148,4|0,0:0|0:0,0:0:0:0:
392,255,12419,1,2,0:0:0:0:
289,127,12562,1,0,0:0:0:0:
419,234,12705,1,0,0:0:0:0:
260,145,12848,5,4,0:0:0:0:
262,31,12990,1,0,0:0:0:0:
123,136,13133,1,0,0:0:0:0:
191,35,13276,5,8,0:0:0:0:
131,231,13419,1,0,0:0:0:0:
300,128,13562,1,0,0:0:0:0:
185,122,13705,5,4,0:0:0:0:
295,255,13848,1,0,0:0:0:0:
388,92,13990,1,0,0:0:0:0:
244,172,14133,5,8,0:0:0:0:
312,31,14276,1,0,0:0:0:0:
415,235,14419,1,0,0:0:0:0:
243,102,14562,2,0,B|193:73|163:102|163:102|131:53|131:53|90:95|36:85,1,236.250009012223,2|0,0:0|0:0,0:0:0:0:
61,170,15133,5,8,0:0:0:0:
68,200,15205,1,8,0:0:0:0:
75,230,15276,1,8,0:0:0:0:
82,260,15348,1,8,0:0:0:0:
89,290,15419,1,8,0:0:0:0:
100,316,15490,5,8,0:0:0:0:
130,319,15562,1,8,0:0:0:0:
161,323,15633,1,8,0:0:0:0:
191,327,15705,1,8,0:0:0:0:
222,330,15776,1,8,0:0:0:0:
250,332,15848,1,8,0:0:0:0:
324,295,15990,5,4,0:0:0:0:
408,198,16276,2,0,B|332:145|289:178|284:178|242:215|175:151,1,236.250009012223,2|0,0:0|0:0,0:0:0:0:
96,169,16848,2,0,P|167:67|258:108,1,236.250009012223,8|0,0:0|0:0,0:0:0:0:
248,198,17419,1,8,0:0:0:0:
369,108,17562,1,2,0:0:0:0:
266,222,17705,2,0,L|352:214,1,78.7500030040742
410,87,17990,2,0,B|333:129|256:77|251:77|186:48|100:135,1,315.000012016297,8|0,0:0|0:0,0:0:0:0:
48,220,18705,1,2,0:0:0:0:
48,220,18848,2,0,L|210:190,1,157.500006008148,8|0,0:0|0:0,0:0:0:0:
315,119,19276,5,2,0:0:0:0:
264,280,19419,1,0,0:0:0:0:
174,95,19562,1,0,0:0:0:0:
239,312,19705,5,4,0:0:0:0:
424,248,19848,1,0,0:0:0:0:
267,151,19990,1,0,0:0:0:0:
377,115,20133,5,2,0:0:0:0:
265,253,20276,1,0,0:0:0:0:
221,85,20419,1,0,0:0:0:0:
404,211,20562,2,0,B|413:259|383:299|341:294|341:294|332:364|260:352,1,236.250009012223,8|0,0:0|0:0,0:0:0:0:
179,324,21133,5,0,0:0:0:0:
133,240,21276,1,0,0:0:0:0:
167,151,21419,6,0,L|252:118,1,84,4|0,0:0|0:0,0:0:0:0:
343,88,22562,1,0,0:0:0:0:
345,225,22990,5,0,0:0:0:0:
345,225,23062,1,0,0:0:0:0:
345,225,23133,2,0,L|264:260,1,84,2|0,0:0|0:0,0:0:0:0:
180,306,24276,1,0,0:0:0:0:
276,334,24848,6,0,L|368:326,1,84,2|0,0:0|0:0,0:0:0:0:
454,315,25990,1,0,0:0:0:0:
354,208,26562,6,0,L|265:199,1,84,2|0,0:0|0:0,0:0:0:0:
163,192,27705,1,0,0:0:0:0:
69,173,28276,5,8,0:0:0:0:
125,34,28467,1,0,0:0:0:0:
267,214,28657,1,0,0:0:0:0:
201,108,28848,5,2,0:0:0:0:
200,321,29038,1,0,0:0:0:0:
371,188,29228,1,0,0:0:0:0:
281,256,29419,5,8,0:0:0:0:
374,66,29609,1,0,0:0:0:0:
442,296,29800,2,0,P|403:328|351:333,1,105.000004005432
320,141,30181,5,2,0:0:0:0:
158,314,30371,1,0,0:0:0:0:
160,104,30562,5,8,0:0:0:0:
259,330,30752,1,0,0:0:0:0:
31,262,30943,1,0,0:0:0:0:
202,174,31133,2,0,B|244:148|286:175|286:175|315:114|381:141,1,196.875007510186,2|0,0:0|0:0,0:0:0:0:
452,156,31705,5,0,0:0:0:0:
405,238,32276,1,0,0:0:0:0:
338,305,32848,1,0,0:0:0:0:
245,287,33348,1,0,0:0:0:0:
233,284,33419,1,2,0:0:0:0:
90,130,35133,6,0,P|140:86|229:98,1,157.500006008148,2|0,0:0|0:0,0:0:0:0:
173,173,35562,1,0,0:0:0:0:
379,51,36133,5,0,0:0:0:0:
379,51,36276,2,0,P|367:121|327:207,1,157.500006008148
251,235,36705,2,0,P|272:277|376:264,1,157.500006008148
456,238,37133,6,0,P|445:325|366:367,1,157.500006008148,2|0,0:0|0:0,0:0:0:0:
296,362,37562,1,0,0:0:0:0:
64,276,38133,5,0,0:0:0:0:
64,276,38276,2,0,L|212:264,1,118.125004506111
222,241,38562,1,0,0:0:0:0:
222,241,38705,2,0,L|65:197,1,157.500006008148
0,167,39133,6,0,P|51:110|147:113,1,157.500006008148,2|0,2:0|2:0,2:0:0:0:
197,149,39562,1,0,0:0:0:0:
306,174,40133,5,0,0:0:0:0:
245,227,40276,2,0,L|253:310,1,78.7500030040742
264,322,40562,1,0,0:0:0:0:
352,347,40705,2,0,L|358:266,1,78.7500030040742
479,171,40990,5,0,0:0:0:0:
479,171,41133,2,0,L|316:141,1,157.500006008148
279,141,41562,2,0,L|435:86,1,157.500006008148
452,74,41990,2,0,L|380:222,1,157.500006008148
269,290,42419,5,0,0:0:0:0:
279,188,42562,1,0,0:0:0:0:
155,238,42705,1,0,0:0:0:0:
252,119,42848,1,0,0:0:0:0:
101,96,42990,1,0,0:0:0:0:
251,40,43133,2,0,P|329:36|396:74,1,157.500006008148,2|0,0:0|0:0,0:0:0:0:
431,146,43562,1,0,0:0:0:0:
355,225,43990,5,0,0:0:0:0:
270,276,44133,1,0,0:0:0:0:
362,333,44276,1,0,0:0:0:0:
234,357,44419,1,0,0:0:0:0:
234,357,44562,6,0,L|142:348,1,78.7500030040742
71,272,44848,2,0,L|163:263,1,78.7500030040742
244,205,45133,2,0,P|174:154|105:163,1,157.500006008148,2|0,0:0|0:0,0:0:0:0:
45,204,45562,1,0,0:0:0:0:
45,204,45848,5,0,0:0:0:0:
100,105,45990,1,0,0:0:0:0:
175,237,46133,1,0,0:0:0:0:
31,80,46276,1,0,0:0:0:0:
244,126,46419,1,0,0:0:0:0:
244,126,46562,6,0,L|307:177,1,78.7500030040742
253,246,46848,2,0,L|318:290,1,78.7500030040742
290,376,47133,2,0,P|371:370|395:276,1,157.500006008148,2|0,0:0|0:0,0:0:0:0:
348,240,47562,5,0,0:0:0:0:
452,184,47705,1,0,0:0:0:0:
452,184,48133,5,0,0:0:0:0:
348,128,48276,1,0,0:0:0:0:
348,128,48562,5,0,0:0:0:0:
244,184,48705,1,2,0:0:0:0:
244,184,48990,5,0,0:0:0:0:
200,279,49133,2,0,P|138:217|163:134,1,157.500006008148
178,65,49562,2,0,P|240:127|215:210,1,157.500006008148
150,251,49990,2,0,L|268:274,1,118.125004506111
284,290,50276,5,0,0:0:0:0:
371,253,50419,1,0,0:0:0:0:
410,166,50562,1,0,0:0:0:0:
386,74,50705,1,0,0:0:0:0:
295,45,50848,1,0,0:0:0:0:
222,126,50990,5,0,0:0:0:0:
226,146,51062,1,0,0:0:0:0:
234,165,51133,2,0,P|281:172|341:159,1,105,2|0,0:0|0:0,0:0:0:0:
377,84,51419,2,0,P|416:130|422:182,1,105
279,245,51705,2,0,L|384:268,1,105
467,333,51990,5,0,0:0:0:0:
360,384,52133,1,0,0:0:0:0:
263,331,52276,2,0,P|197:314|147:325,1,105
49,256,52562,5,0,0:0:0:0:
234,162,52705,1,0,0:0:0:0:
52,102,52848,1,0,0:0:0:0:
166,295,52990,1,0,0:0:0:0:
303,195,53133,6,0,B|349:158|366:68|366:68|363:149,1,210,4|0,0:0|0:0,0:0:0:0:
412,229,53562,1,0,0:0:0:0:
439,205,53705,1,0,0:0:0:0:
492,293,53848,1,0,0:0:0:0:
508,318,53990,1,0,0:0:0:0:
412,229,54133,5,0,0:0:0:0:
329,144,54276,2,0,P|296:227|386:330,1,210
405,107,54705,5,0,0:0:0:0:
298,364,54848,1,0,0:0:0:0:
487,259,54990,1,0,0:0:0:0:
378,84,55133,6,0,L|265:91,1,105,2|0,0:0|0:0,0:0:0:0:
125,180,55419,2,0,L|229:187,1,105
347,169,55705,2,0,P|315:287|211:343,1,210
165,293,56133,5,0,0:0:0:0:
388,358,56276,2,0,P|424:312|440:240,1,105
398,132,56562,1,0,0:0:0:0:
262,197,56705,2,0,P|337:239|360:234,1,105
460,145,56990,1,0,0:0:0:0:
361,56,57133,2,0,P|298:46|263:64,1,105
213,154,57419,5,0,0:0:0:0:
132,230,57562,2,0,P|87:199|81:125,1,105
163,76,57848,1,0,0:0:0:0:
240,192,57990,2,0,P|287:164|269:23,1,210
233,104,58419,5,0,0:0:0:0:
386,219,58562,1,0,0:0:0:0:
206,303,58705,1,0,0:0:0:0:
385,353,58848,6,0,P|439:300|434:252,1,105
328,188,59133,1,2,0:0:0:0:
464,68,59276,1,0,0:0:0:0:
236,17,59419,2,0,P|172:66|156:199,1,210
229,247,59848,5,0,0:0:0:0:
328,61,59990,1,0,0:0:0:0:
74,84,60133,1,0,0:0:0:0:
244,268,60276,6,0,L|366:279,1,105
448,234,60562,5,0,0:0:0:0:
188,325,60705,1,0,0:0:0:0:
273,146,60848,1,0,0:0:0:0:
356,231,60990,5,0,0:0:0:0:
254,48,61133,2,0,P|189:58|158:98,1,105
110,181,61419,1,0,0:0:0:0:
195,313,61562,6,0,P|300:274|304:175,1,210
219,178,61990,2,0,P|281:101|396:162,1,210
406,222,62419,1,0,0:0:0:0:
318,271,62562,2,0,L|190:344,1,105
122,279,62848,5,0,0:0:0:0:
276,171,62990,1,0,0:0:0:0:
80,111,63133,1,2,0:0:0:0:
176,23,63324,5,0,0:0:0:0:
327,56,63514,1,0,0:0:0:0:
316,190,63848,5,0,0:0:0:0:
462,104,63990,1,0,0:0:0:0:
374,333,64133,1,0,0:0:0:0:
223,228,64276,2,0,P|215:180|247:120,1,105
333,98,64562,5,0,0:0:0:0:
118,195,64705,1,0,0:0:0:0:
409,120,64848,6,0,P|407:158|315:205,1,105
259,221,65133,2,0,P|302:297|427:278,1,210
477,209,65562,1,0,0:0:0:0:
453,222,66133,5,0,0:0:0:0:
270,163,66419,5,0,0:0:0:0:
363,54,66562,1,0,0:0:0:0:
266,294,66705,1,0,0:0:0:0:
200,58,66848,1,0,0:0:0:0:
248,288,66990,1,0,0:0:0:0:
323,43,67133,6,0,B|394:114|354:181|354:189|344:271|432:321,1,315.000012016297,2|0,0:0|0:0,0:0:0:0:
300,347,67990,1,0,0:0:0:0:
235,285,68276,2,0,L|140:289,1,78.7500030040742
108,356,68562,2,0,P|75:313|115:217,1,157.500006008148
205,196,69133,1,0,0:0:0:0:
312,215,69419,1,0,0:0:0:0:
420,167,69705,2,0,P|397:105|169:77,1,315.000012016297,2|0,0:0|0:0,0:0:0:0:
67,204,70562,5,0,0:0:0:0:
117,296,71133,1,0,0:0:0:0:
204,221,71419,2,0,P|249:186|348:193,1,157.500006008148
403,243,71848,1,0,0:0:0:0:
381,316,71990,2,0,L|202:287,1,157.500006008148,0|2,0:0|0:0,0:0:0:0:
109,149,73133,1,0,0:0:0:0:
203,95,73419,6,0,P|286:80|356:137,1,157.500006008148
392,196,73990,1,0,0:0:0:0:
391,236,74276,2,0,P|344:270|243:240,1,157.500006008148
49,182,74848,6,0,L|206:119,1,157.500006008148
231,130,75276,2,0,L|141:282,1,157.500006008148
113,329,75705,1,0,0:0:0:0:
113,329,76276,5,0,0:0:0:0:
277,264,76562,1,0,0:0:0:0:
113,329,76848,1,0,0:0:0:0:
127,220,76990,1,0,0:0:0:0:
198,136,77133,1,0,0:0:0:0:
307,125,77276,1,0,0:0:0:0:
385,202,77419,2,0,P|392:281|327:332,1,168,2|0,0:0|0:0,0:0:0:0:
196,296,78276,5,0,0:0:0:0:
321,230,78562,1,0,0:0:0:0:
366,95,78848,1,0,0:0:0:0:
251,12,79133,1,0,0:0:0:0:
136,95,79419,1,0,0:0:0:0:
131,236,79705,1,0,0:0:0:0:
250,315,79990,6,0,P|304:252|308:171,1,157.500006008148
203,91,80419,2,0,P|148:153|144:234,1,157.500006008148
233,198,80848,1,0,0:0:0:0:
233,198,81419,5,0,0:0:0:0:
360,163,81705,1,0,0:0:0:0:
300,35,81990,2,0,L|214:44,1,78.7500030040742
151,78,82276,2,0,L|148:180,1,78.7500030040742
145,233,82562,2,0,B|196:258|223:230|227:230|257:200|308:226,1,168,2|0,0:0|0:0,0:0:0:0:
392,290,85133,5,0,0:0:0:0:
462,141,85562,5,0,0:0:0:0:
336,45,85990,5,0,0:0:0:0:
211,77,86419,5,0,0:0:0:0:
138,146,86848,5,0,0:0:0:0:
131,235,87133,5,0,0:0:0:0:
188,290,87419,5,0,0:0:0:0:
303,163,87705,6,0,P|359:166|412:294,1,210,2|0,0:0|0:0,0:0:0:0:
256,347,88133,1,0,0:0:0:0:
467,104,88276,1,0,0:0:0:0:
146,156,88419,1,0,0:0:0:0:
360,331,88562,6,0,P|409:312|435:252,1,105,2|0,0:0|0:0,0:0:0:0:
249,234,88848,2,0,L|361:264,1,105
244,151,89133,2,0,P|194:170|168:229,1,105
77,331,89419,6,0,L|66:224,1,105,2|0,0:0|0:0,0:0:0:0:
170,86,89705,5,0,0:0:0:0:
81,212,89848,1,0,0:0:0:0:
18,50,89990,1,0,0:0:0:0:
189,281,90133,1,0,0:0:0:0:
291,176,90276,6,0,L|276:60,1,105,2|0,0:0|0:0,0:0:0:0:
177,174,90562,5,0,0:0:0:0:
434,77,90705,1,0,0:0:0:0:
359,240,90848,6,0,P|229:268|215:261,1,105
149,327,91133,2,0,B|121:256|160:225|160:217|202:179|163:119,1,210,2|0,0:0|0:0,0:0:0:0:
258,44,91562,2,0,L|287:150,1,105,0|0,3:0|3:0,3:0:0:0:
324,261,91848,5,0,0:0:0:0:
148,210,91990,1,2,0:0:0:0:
419,135,92133,1,0,0:0:0:0:
204,301,92276,5,0,0:0:0:0:
429,348,92419,1,0,0:0:0:0:
182,179,92562,1,0,0:0:0:0:
465,130,92705,1,0,0:0:0:0:
314,39,92848,6,0,L|188:47,1,105,2|0,0:0|0:0,0:0:0:0:
108,110,93133,2,0,P|174:172|297:137,1,210
425,67,93562,5,0,0:0:0:0:
425,67,93705,2,0,L|404:204,1,105,2|0,0:0|0:0,0:0:0:0:
362,282,93990,5,0,0:0:0:0:
203,302,94133,1,0,0:0:0:0:
367,301,94276,1,0,0:0:0:0:
192,143,94419,1,0,0:0:0:0:
67,269,94562,6,0,P|160:328|256:309,1,210,2|0,0:0|0:0,0:0:0:0:
255,213,94990,2,0,P|329:249|347:288,1,105
393,345,95276,1,0,0:0:0:0:
471,222,95419,6,0,L|372:167,1,105,2|0,0:0|0:0,0:0:0:0:
463,95,95705,6,0,L|333:86,1,131.25
332,3,95990,6,0,L|186:61,1,157.500006008148
84,117,96276,6,0,L|305:223,1,210,2|0,0:0|0:0,0:0:0:0:
388,194,96705,2,0,P|359:295|270:313,1,157.5
285,308,96990,5,0,0:0:0:0:
88,269,97133,6,0,L|211:203,1,105,2|0,0:0|0:0,0:0:0:0:
230,79,97419,5,0,0:0:0:0:
294,216,97562,1,0,0:0:0:0:
387,77,97705,2,0,L|425:201,1,105
497,297,97990,6,0,P|440:327|284:292,1,210,2|0,0:0|0:0,0:0:0:0:
289,202,98419,2,0,P|211:241|196:279,1,105
409,210,98705,1,0,0:0:0:0:
328,82,98848,2,0,P|243:102|220:136,1,105,2|0,0:0|0:0,0:0:0:0:
200,234,99133,5,0,0:0:0:0:
378,187,99276,1,0,0:0:0:0:
238,60,99419,2,0,P|165:110|125:183,1,157.5
128,217,99705,2,0,L|245:198,1,105,2|0,0:0|0:0,0:0:0:0:
335,246,99990,5,0,0:0:0:0:
161,330,100133,2,0,L|279:319,1,105
410,324,100419,5,0,0:0:0:0:
410,324,100562,2,0,L|437:216,1,105,2|0,0:0|0:0,0:0:0:0:
378,157,100848,5,0,0:0:0:0:
454,55,100990,1,0,0:0:0:0:
307,111,101133,1,0,0:0:0:0:
268,19,101276,1,0,0:0:0:0:
191,123,101419,2,0,L|196:211,1,78.7500030040742,2|0,0:0|0:0,0:0:0:0:
259,277,101705,5,0,0:0:0:0:
351,205,101848,1,2,0:0:0:0:
370,162,101919,1,2,0:0:0:0:
367,115,101990,1,2,0:0:0:0:
347,71,102062,1,2,0:0:0:0:
313,38,102133,1,2,0:0:0:0:
190,66,102276,6,0,L|162:168,1,78.7500030040742,2|0,0:0|0:0,0:0:0:0:
136,273,102562,1,0,0:0:0:0:
395,179,102705,1,2,0:0:0:0:
395,179,102776,1,2,0:0:0:0:
395,179,102848,1,2,0:0:0:0:
206,74,102990,1,0,0:0:0:0:
348,34,103133,6,0,P|386:45|429:95,1,78.7500030040742,2|0,0:0|0:0,0:0:0:0:
395,179,103419,1,0,0:0:0:0:
293,268,103562,1,2,0:0:0:0:
310,311,103633,1,2,0:0:0:0:
347,340,103705,1,2,0:0:0:0:
391,355,103776,1,2,0:0:0:0:
437,344,103848,1,2,0:0:0:0:
395,179,103990,5,2,0:0:0:0:
276,64,104133,1,2,0:0:0:0:
233,43,104205,1,2,0:0:0:0:
186,41,104276,1,2,0:0:0:0:
77,133,104419,5,0,0:0:0:0:
288,98,104562,1,0,0:0:0:0:
79,237,104705,1,0,0:0:0:0:
250,287,104848,2,0,L|331:307,1,78.7500030040742,2|0,0:0|0:0,0:0:0:0:
403,220,105133,5,2,0:0:0:0:
374,182,105204,1,2,0:0:0:0:
338,152,105275,1,2,0:0:0:0:
295,132,105347,1,2,0:0:0:0:
249,124,105418,1,2,0:0:0:0:
202,127,105490,1,2,0:0:0:0:
159,149,105562,1,2,0:0:0:0:
100,223,105705,5,2,0:0:0:0:
192,47,105848,1,0,0:0:0:0:
63,212,105990,1,0,0:0:0:0:
231,51,106133,1,0,0:0:0:0:
177,256,106276,5,2,0:0:0:0:
188,291,106348,1,2,0:0:0:0:
206,313,106419,1,2,0:0:0:0:
348,242,106562,1,2,0:0:0:0:
221,86,106705,2,0,P|182:103|158:136,1,78.7500030040742
91,245,106990,5,2,0:0:0:0:
69,202,107062,1,2,0:0:0:0:
59,155,107133,1,2,0:0:0:0:
61,107,107205,1,2,0:0:0:0:
75,62,107276,1,2,0:0:0:0:
178,125,107419,1,2,0:0:0:0:
246,215,107562,5,2,0:0:0:0:
285,241,107633,1,2,0:0:0:0:
332,241,107705,1,2,0:0:0:0:
408,157,107848,1,0,0:0:0:0:
298,73,107990,5,0,0:0:0:0:
165,90,108133,1,0,0:0:0:0:
68,182,108276,2,0,P|79:233|135:298,1,118.125004506111,2|0,0:0|0:0,0:0:0:0:
154,297,108562,5,0,0:0:0:0:
239,223,108705,2,0,P|296:205|395:246,1,157.500006008148
429,317,109133,6,0,P|471:278|476:225,1,78.7500030040742,2|0,0:0|0:0,0:0:0:0:
445,123,109419,2,0,L|344:141,1,78.7500030040742
310,63,109705,6,0,L|227:122,1,78.7500030040742
91,175,109990,6,0,L|197:207,1,78.7500030040742,2|0,0:0|0:0,0:0:0:0:
259,226,110276,5,0,0:0:0:0:
259,226,110419,2,0,L|347:202,1,78.7500030040742
420,118,110705,1,0,0:0:0:0:
323,45,110848,2,0,L|254:84,1,78.7500030040742,2|0,0:0|0:0,0:0:0:0:
123,185,111133,5,2,0:0:0:0:
102,227,111205,1,2,0:0:0:0:
101,273,111276,1,2,0:0:0:0:
112,319,111348,1,2,0:0:0:0:
143,353,111419,2,0,L|269:333,1,118.125004506111,2|0,0:0|0:0,0:0:0:0:
344,226,111705,1,2,0:0:0:0:
