osu file format v14

[General]
AudioFilename: (Tren-D) - (Candy Boy).mp3
AudioLeadIn: 0
PreviewTime: 15101
Countdown: 0
SampleSet: Soft
StackLeniency: 0.7
Mode: 0
LetterboxInBreaks: 0
WidescreenStoryboard: 1

[Editor]
Bookmarks: 9702,21303
DistanceSpacing: 1
BeatDivisor: 8
GridSize: 4
TimelineZoom: 2

[Metadata]
Title:Candy Boy
TitleUnicode:캔디보이
Artist:Tren-D
ArtistUnicode:트랜디
Creator:[Ivashka]
Version:Hard
Source:
Tags:
BeatmapID:1304762
BeatmapSetID:540236

[Difficulty]
HPDrainRate:5
CircleSize:4
OverallDifficulty:6
ApproachRate:8
SliderMultiplier:2
SliderTickRate:2

[Events]
//Background and Video events
0,0,"TREN-D_group_photo_2015.png",0,0
//Break Periods
//Storyboard Layer 0 (Background)
//Storyboard Layer 1 (Fail)
//Storyboard Layer 2 (Pass)
//Storyboard Layer 3 (Foreground)
//Storyboard Layer 4 (Overlay)
//Storyboard Sound Samples

[TimingPoints]
235,468.75,4,2,0,65,1,0
29297,-66.6666666666667,4,2,0,65,0,0
30235,-100,4,2,0,65,0,0
60235,-100,4,2,0,65,0,1
75235,-100,4,2,0,65,0,0
123985,-100,4,2,0,65,0,1
138985,-100,4,2,0,65,0,0
153985,-100,4,2,0,65,0,1
168985,-100,4,2,0,65,0,0

[Colours]
Combo1 : 168,156,231
Combo2 : 209,187,112
Combo3 : 175,147,146

[HitObjects]
88,56,7735,6,0,P|164:76|204:96,1,100
189,88,8203,2,0,L|293:124,1,100
355,200,8672,1,0,0:0:0:0:
272,257,8906,2,0,B|196:257|176:257,2,50
355,200,9375,2,0,L|431:196,2,50
244,208,9844,5,0,0:0:0:0:
244,208,10078,1,0,0:0:0:0:
161,148,10313,1,0,0:0:0:0:
161,148,10547,1,0,0:0:0:0:
290,106,11016,2,0,P|306:114|288:223,1,150
198,237,11485,6,0,P|202:305|318:361,1,200
398,304,12188,1,0,0:0:0:0:
398,304,12422,2,0,P|368:265|320:265,1,100
234,314,12891,1,0,0:0:0:0:
234,314,13125,1,0,0:0:0:0:
256,192,13360,12,0,15000,0:0:0:0:
96,144,15235,6,0,P|148:92|216:100,1,100
248,116,15703,1,0,0:0:0:0:
252,120,15938,1,0,0:0:0:0:
237,213,16172,2,0,P|213:265|141:265,1,100
125,215,16641,2,0,P|61:223|17:179,1,100
59,105,17110,5,0,0:0:0:0:
182,110,17344,1,0,0:0:0:0:
182,110,17461,1,0,0:0:0:0:
182,110,17578,1,0,0:0:0:0:
258,175,17813,1,0,0:0:0:0:
258,175,18047,2,0,L|379:175,2,100
136,177,18750,1,0,0:0:0:0:
136,177,18985,6,0,B|128:129|128:129|160:61,1,100
170,57,19336,2,0,P|211:39|261:62,1,100
293,87,19688,2,0,P|297:124|258:180,1,100
203,219,20156,1,0,0:0:0:0:
203,219,20391,2,0,B|167:243|139:239|139:239|140:289,1,100
215,320,20860,6,0,P|215:344|227:368,2,50
303,273,21328,2,0,P|307:253|311:209,2,50
366,334,21797,1,0,0:0:0:0:
370,338,22031,1,0,0:0:0:0:
370,338,22266,2,0,B|434:350|434:350|482:350|490:370,1,100
363,239,22735,6,0,P|384:219|367:153,1,100
313,84,23086,2,0,B|284:101|272:129|272:129|292:141|292:177,1,100
344,237,23438,1,0,0:0:0:0:
412,198,23672,1,0,0:0:0:0:
395,115,23906,1,0,0:0:0:0:
313,84,24199,2,0,P|312:136|299:177,1,75
256,238,24610,5,0,0:0:0:0:
180,192,24844,2,0,P|172:156|164:136,2,50
256,238,25313,2,0,B|307:234|307:234|361:241,1,100
436,238,25781,2,0,B|452:282|448:294|440:314|420:342|404:374,1,100
353,230,26250,1,0,0:0:0:0:
353,230,26367,1,0,0:0:0:0:
353,226,26485,6,0,B|329:202|341:170|341:170|369:126,1,100
383,95,26836,2,0,P|352:77|291:98,1,100
266,160,27188,1,0,0:0:0:0:
266,160,27422,2,0,P|270:196|206:192,1,100
174,141,27891,2,0,P|158:86|170:29,1,100
266,50,28360,6,0,B|345:24|345:28|368:38,1,100
415,96,28711,1,0,0:0:0:0:
415,96,28828,2,0,P|356:133|307:147,1,100
238,193,29297,1,0,0:0:0:0:
238,193,29766,1,0,0:0:0:0:
196,60,30235,6,0,P|128:76|96:108,1,100
72,188,30703,2,0,P|156:188|168:172,1,100
264,184,31172,2,0,P|292:204|280:264,1,100
208,304,31641,1,0,0:0:0:0:
140,248,31875,1,0,0:0:0:0:
140,146,32110,6,0,P|161:116|222:104,1,100
285,61,32578,2,0,P|308:89|283:160,1,100
276,162,32930,2,0,P|260:188|296:253,1,100
378,285,33516,5,0,0:0:0:0:
378,285,33750,1,0,0:0:0:0:
374,165,33985,2,0,L|372:57,1,100
278,12,34453,2,0,L|281:132,1,100
263,179,34922,5,0,0:0:0:0:
181,220,35156,1,0,0:0:0:0:
208,301,35391,1,0,0:0:0:0:
208,301,35625,2,0,P|275:310|314:302,2,100
124,223,36328,6,0,P|64:227|20:219,1,100
0,136,36797,2,0,P|48:116|112:116,1,100
203,122,37266,5,0,0:0:0:0:
203,122,37500,1,0,0:0:0:0:
203,122,37735,2,0,B|266:111|266:111|307:124,1,100
318,211,38203,2,0,L|318:331,2,100
218,181,39141,6,0,P|170:153|142:117,1,100
121,49,39610,2,0,P|156:40|213:88,1,100
214,211,40078,1,0,0:0:0:0:
176,314,40313,1,0,0:0:0:0:
172,318,40547,2,0,P|116:318|66:304,1,100
62,202,41016,5,0,0:0:0:0:
68,100,41250,1,0,0:0:0:0:
187,101,41485,5,0,0:0:0:0:
187,101,41719,1,0,0:0:0:0:
286,102,41953,1,0,0:0:0:0:
286,102,42188,1,0,0:0:0:0:
404,88,42422,2,0,P|432:136|416:192,1,100
352,224,42891,1,0,0:0:0:0:
279,174,43125,2,0,L|209:96,2,100
355,247,43828,1,0,0:0:0:0:
429,189,44063,2,0,P|421:141|409:125,1,50
345,83,44297,5,0,0:0:0:0:
345,83,44531,1,0,0:0:0:0:
250,145,44766,1,0,0:0:0:0:
250,145,45000,1,0,0:0:0:0:
311,266,45469,5,0,0:0:0:0:
311,266,45703,2,0,P|351:278|419:274,1,100
478,173,46172,2,0,B|406:169|406:169|370:177,1,100
407,260,46641,1,0,0:0:0:0:
407,260,46875,2,0,P|371:300|287:324,1,100
224,300,47344,1,0,0:0:0:0:
164,248,47578,1,0,0:0:0:0:
224,201,47813,1,0,0:0:0:0:
224,201,48047,6,0,B|292:165|300:169|300:169|336:165,1,100
349,133,48399,2,0,B|389:129|389:129|381:141|445:153,1,100
461,242,48750,1,0,0:0:0:0:
461,242,48985,1,0,0:0:0:0:
365,293,49219,5,0,0:0:0:0:
365,293,49453,2,0,P|306:312|258:292,1,100
182,262,49922,2,0,P|210:234|286:218,1,100
357,199,50274,1,0,0:0:0:0:
357,199,50391,2,0,B|349:167|349:167|281:123,1,100
204,94,50860,6,0,L|112:138,1,100
100,236,51328,2,0,L|192:188,1,100
210,92,51797,2,0,P|252:114|274:163,1,100
236,247,52266,2,0,P|342:238|381:150,1,200
373,56,52969,2,0,P|304:79|284:119,1,100
262,186,53438,1,0,0:0:0:0:
351,248,53672,1,0,0:0:0:0:
262,186,53906,2,0,L|174:186,2,50
395,187,54375,6,0,P|395:147|395:83,1,100
322,42,54844,1,0,0:0:0:0:
250,70,55078,1,0,0:0:0:0:
234,140,55313,1,0,0:0:0:0:
298,201,55547,2,0,P|338:189|406:213,1,100
477,276,56016,2,0,B|429:288|429:288|361:280,1,100
303,236,56485,5,0,0:0:0:0:
202,235,56719,1,0,0:0:0:0:
202,143,56953,1,0,0:0:0:0:
110,143,57188,1,0,0:0:0:0:
19,139,57422,2,0,B|19:87|19:87|67:27,1,100
148,40,57891,1,0,0:0:0:0:
148,40,58125,2,0,P|180:72|172:144,1,100
81,195,58477,5,0,0:0:0:0:
81,195,58594,2,0,L|33:231,2,50
176,172,59063,1,0,0:0:0:0:
176,172,59297,6,0,B|224:144|224:144|256:96,1,100
281,18,59766,2,0,B|329:62|329:62|353:98,1,100
248,107,60235,6,0,P|204:167|204:207,1,100
294,297,60703,1,0,0:0:0:0:
315,217,60938,1,0,0:0:0:0:
216,212,61172,2,0,L|248:104,1,100
315,217,61641,2,0,L|387:133,1,100
428,48,62110,6,0,P|412:24|320:12,1,100
288,116,62578,1,0,0:0:0:0:
248,36,62813,1,0,0:0:0:0:
288,116,63047,2,0,B|308:164|308:164|280:208,1,100
204,264,63516,2,0,B|184:216|184:216|212:172,1,100
316,144,63985,5,0,0:0:0:0:
384,88,64219,1,0,0:0:0:0:
312,36,64453,1,0,0:0:0:0:
232,56,64688,1,0,0:0:0:0:
232,56,64922,2,0,B|172:60|172:60|120:68,1,100
40,148,65391,1,0,0:0:0:0:
108,220,65625,2,0,P|168:264|240:280,2,150
144,112,66563,5,0,0:0:0:0:
144,112,66797,2,0,B|180:88|180:88|252:80,2,100
140,184,67500,1,0,0:0:0:0:
188,240,67735,6,0,P|240:280|280:280,1,100
320,208,68203,2,0,P|320:148|292:112,1,100
240,60,68672,1,0,0:0:0:0:
240,60,68906,1,0,0:0:0:0:
156,112,69141,1,0,0:0:0:0:
156,112,69375,1,0,0:0:0:0:
172,196,69610,6,0,P|192:232|268:240,1,100
332,196,70078,2,0,B|388:192|388:192|424:148,1,100
464,76,70547,1,0,0:0:0:0:
464,76,70781,1,0,0:0:0:0:
376,56,71016,2,0,P|332:44|264:68,1,100
204,144,71485,5,0,0:0:0:0:
176,236,71719,2,0,P|160:272|204:328,1,100
288,288,72188,2,0,P|332:324|388:316,1,100
452,248,72656,1,0,0:0:0:0:
452,248,72891,1,0,0:0:0:0:
484,152,73125,6,0,B|476:104|476:104|420:68,1,100
380,68,73594,1,0,0:0:0:0:
296,132,73828,1,0,0:0:0:0:
368,212,74063,1,0,0:0:0:0:
368,212,74297,2,0,P|396:264|368:292,2,100
256,192,75235,12,0,76641,0:0:0:0:
444,336,77110,6,0,L|444:224,1,100
440,136,77578,2,0,P|424:88|388:36,2,100
444,232,78281,1,0,0:0:0:0:
444,232,78516,2,0,P|396:256|324:208,1,100
264,184,78985,6,0,L|268:56,1,100
264,72,79336,2,0,B|204:100|204:100|168:136,1,100
136,200,79688,1,0,0:0:0:0:
136,200,79922,2,0,L|136:328,1,100
240,248,80391,2,0,L|240:132,1,100
232,56,80860,6,0,B|168:40|168:40|120:48,1,100
56,40,81328,1,0,0:0:0:0:
56,40,81563,1,0,0:0:0:0:
48,120,81797,2,0,L|68:232,1,100
180,272,82266,1,0,0:0:0:0:
180,188,82500,1,0,0:0:0:0:
240,120,82735,2,0,P|264:96|348:80,1,100
436,72,83203,6,0,P|464:92|476:172,2,100
348,56,83906,2,0,P|296:40|244:24,1,100
152,20,84375,1,0,0:0:0:0:
124,124,84610,6,0,B|184:132|184:132|228:124,1,100
304,72,85078,2,0,P|356:112|384:156,1,100
408,212,85547,1,0,0:0:0:0:
408,212,85781,1,0,0:0:0:0:
340,272,86016,2,0,L|256:208,1,100
176,148,86485,6,0,L|176:32,1,100
284,16,86953,1,0,0:0:0:0:
284,16,87188,1,0,0:0:0:0:
384,56,87422,2,0,P|448:116|440:164,1,100
420,184,87891,2,0,P|376:196|316:160,1,100
240,124,88360,5,0,0:0:0:0:
240,124,88594,1,0,0:0:0:0:
152,116,88828,2,0,L|52:116,1,100
68,216,89297,2,0,P|44:256|72:312,1,100
164,320,89766,1,0,0:0:0:0:
240,252,90000,2,0,L|236:148,1,100
232,68,90469,5,0,0:0:0:0:
144,72,90703,2,0,P|112:112|128:168,1,100
120,248,91172,1,0,0:0:0:0:
220,280,91406,1,0,0:0:0:0:
120,240,91641,2,0,B|112:164|112:164|168:152,1,100
256,192,92110,12,0,93516,0:0:0:0:
212,96,93985,6,0,L|328:72,2,100
140,116,94688,1,0,0:0:0:0:
212,96,94922,2,0,L|328:72,2,100
132,112,95625,1,0,0:0:0:0:
100,192,95860,2,0,P|132:232|184:216,1,100
232,168,96328,2,0,B|280:144|280:144|324:184,1,100
320,176,96680,2,0,P|364:212|388:156,1,100
384,68,97266,5,0,0:0:0:0:
384,68,97500,1,0,0:0:0:0:
268,64,97735,2,0,L|156:88,1,100
108,124,98203,2,0,L|124:228,1,100
136,296,98672,1,0,0:0:0:0:
200,320,98906,1,0,0:0:0:0:
248,264,99141,1,0,0:0:0:0:
320,256,99375,2,0,P|368:260|412:224,2,100
208,248,100078,6,0,L|204:128,1,100
204,72,100547,1,0,0:0:0:0:
280,64,100781,1,0,0:0:0:0:
328,128,101016,1,0,0:0:0:0:
328,128,101250,1,0,0:0:0:0:
232,188,101485,5,0,0:0:0:0:
196,288,101953,2,0,P|264:308|296:292,1,100
352,248,102422,1,0,0:0:0:0:
360,132,102891,5,0,0:0:0:0:
288,84,103125,1,0,0:0:0:0:
204,68,103360,2,0,P|144:88|108:128,1,100
100,216,103828,1,0,0:0:0:0:
100,216,104063,2,0,B|148:252|148:252|216:236,1,100
284,200,104766,6,0,L|284:88,1,100
200,104,105235,1,0,0:0:0:0:
140,36,105469,1,0,0:0:0:0:
84,96,105703,1,0,0:0:0:0:
144,168,105938,1,0,0:0:0:0:
144,168,106172,2,0,P|112:208|112:264,2,100
256,64,106875,2,0,P|316:96|288:212,1,200
212,264,107578,6,0,L|144:184,1,100
120,104,108047,2,0,L|248:100,1,100
328,112,108516,2,0,P|376:92|424:112,2,100
216,116,109219,5,0,0:0:0:0:
216,116,109453,2,0,B|168:148|168:148|132:200,1,100
168,296,109922,2,0,P|216:300|272:296,1,100
352,248,110391,1,0,0:0:0:0:
392,180,110625,6,0,B|392:116|392:116|384:68,1,100
268,108,111094,1,0,0:0:0:0:
180,100,111328,1,0,0:0:0:0:
272,112,111563,2,0,P|304:60|268:0,1,100
212,24,112031,2,0,L|100:28,1,100
44,104,112500,2,0,L|8:148,2,50
148,35,112969,5,0,0:0:0:0:
148,35,113203,2,0,P|200:75|208:120,1,100
236,196,113672,1,0,0:0:0:0:
168,248,113906,2,0,L|120:264,2,50
244,192,114375,6,0,B|252:128|252:128|220:84,1,100
160,76,115078,1,0,0:0:0:0:
220,184,115547,1,0,0:0:0:0:
112,180,116016,2,0,L|116:64,1,100
216,32,116485,5,0,0:0:0:0:
312,52,116719,2,0,P|360:92|396:124,2,100
232,52,117422,2,0,P|172:56|124:80,1,100
144,144,117774,1,0,0:0:0:0:
148,152,117891,2,0,L|204:244,1,100
320,252,118360,6,0,B|388:240|388:240|396:208,1,100
408,144,118828,1,0,0:0:0:0:
408,144,119063,1,0,0:0:0:0:
328,104,119297,2,0,P|260:112|224:128,1,100
164,160,119766,1,0,0:0:0:0:
80,240,120235,6,0,L|76:340,1,100
204,328,120703,2,0,P|216:300|220:216,1,100
276,156,121172,1,0,0:0:0:0:
344,120,121406,1,0,0:0:0:0:
416,144,121641,1,0,0:0:0:0:
416,144,121875,2,0,B|448:196|448:196|448:244,1,100
392,308,122344,5,0,0:0:0:0:
392,308,122578,1,0,0:0:0:0:
348,200,122813,2,0,P|344:140|316:140,1,100
256,164,123281,2,0,P|216:124|256:96,1,100
376,76,123750,1,0,0:0:0:0:
376,76,123985,6,0,B|396:124|396:124|344:164,1,100
208,168,124453,1,0,0:0:0:0:
280,184,124688,1,0,0:0:0:0:
208,168,124922,2,0,P|220:108|232:48,2,100
196,264,125625,5,0,0:0:0:0:
196,264,125742,1,0,0:0:0:0:
204,268,125860,2,0,B|280:296|280:296|332:268,1,100
384,228,126328,2,0,L|380:128,1,100
288,108,126797,1,0,0:0:0:0:
288,108,127031,1,0,0:0:0:0:
288,108,127266,2,0,B|244:152|244:152|240:192,1,100
248,280,127735,5,0,0:0:0:0:
168,280,127969,1,0,0:0:0:0:
80,284,128203,1,0,0:0:0:0:
80,284,128438,1,0,0:0:0:0:
168,280,128672,2,0,P|228:304|260:272,1,100
312,220,129141,1,0,0:0:0:0:
364,152,129375,2,0,L|472:64,2,100
288,200,130078,1,0,0:0:0:0:
288,200,130313,5,0,0:0:0:0:
216,264,130547,2,0,B|164:280|164:280|108:276,1,100
152,180,131016,2,0,B|208:164|208:164|264:176,1,100
360,96,131485,6,0,P|420:136|396:168,1,100
352,224,131953,2,0,L|240:224,1,100
160,212,132422,1,0,0:0:0:0:
160,212,132656,1,0,0:0:0:0:
128,124,132891,1,0,0:0:0:0:
220,108,133125,2,0,L|269:104,1,50
316,108,133360,2,0,B|376:100|376:100|416:104,1,100
480,176,133828,5,0,0:0:0:0:
480,248,134063,1,0,0:0:0:0:
480,248,134297,2,0,P|440:240|392:228,1,75
320,152,134766,1,0,0:0:0:0:
320,152,134883,1,0,0:0:0:0:
316,152,135000,2,0,B|320:76|320:76|312:48,1,100
192,68,135469,5,0,0:0:0:0:
112,132,135703,2,0,P|88:212|96:236,2,100
200,120,136406,2,0,P|272:124|296:84,1,100
256,40,136875,2,0,P|200:16|156:40,1,100
88,72,137344,6,0,P|40:136|72:176,2,100
176,60,138047,1,0,0:0:0:0:
244,96,138281,1,0,0:0:0:0:
252,172,138516,1,0,0:0:0:0:
480,116,138985,6,0,P|488:160|480:220,1,100
420,280,139453,1,0,0:0:0:0:
336,256,139688,2,0,L|268:160,2,100
396,304,140391,1,0,0:0:0:0:
472,264,140625,2,0,B|448:196|448:196|416:180,1,100
360,120,141094,2,0,P|304:88|256:84,1,100
168,168,141563,2,0,B|212:196|212:196|268:200,2,100
100,88,142266,5,0,0:0:0:0:
100,88,142500,1,0,0:0:0:0:
196,104,142735,2,0,P|204:164|192:224,1,100
124,292,143203,2,0,L|260:292,1,100
328,240,143672,2,0,L|328:120,1,100
240,84,144141,1,0,0:0:0:0:
336,76,144375,6,0,B|408:64|408:64|452:68,1,100
488,176,144844,1,0,0:0:0:0:
488,176,145078,2,0,L|388:176,1,100
296,176,145547,5,0,0:0:0:0:
296,176,145781,1,0,0:0:0:0:
200,124,146016,1,0,0:0:0:0:
288,64,146250,1,0,0:0:0:0:
296,176,146485,6,0,B|352:152|352:152|408:136,1,100
496,192,146953,2,0,L|404:236,1,100
328,264,147422,2,0,L|328:368,1,100
276,180,147891,1,0,0:0:0:0:
276,180,148125,2,0,B|340:160|340:160|340:160|392:156,1,100
232,104,148594,2,0,B|172:92|172:92|132:80,2,100
324,156,149297,2,0,B|344:204|344:204|292:252,1,100
224,188,149766,1,0,0:0:0:0:
256,192,150000,12,0,152813,0:0:0:0:
124,116,153047,5,0,0:0:0:0:
124,116,153281,1,0,0:0:0:0:
176,204,153516,1,0,0:0:0:0:
176,204,153750,1,0,0:0:0:0:
256,272,153985,6,0,P|312:264|316:216,1,100
260,176,154453,2,0,P|244:144|316:124,1,100
388,108,154922,2,0,L|492:108,2,100
272,108,155625,5,0,0:0:0:0:
272,108,155742,1,0,0:0:0:0:
272,108,155860,2,0,B|208:96|208:96|160:112,1,100
132,188,156328,2,0,P|112:228|140:292,1,100
216,264,156797,1,0,0:0:0:0:
216,264,157031,1,0,0:0:0:0:
304,276,157266,2,0,P|324:236|296:172,1,100
240,112,157735,6,0,B|156:112|156:112|140:112,1,100
120,112,158203,1,0,0:0:0:0:
88,200,158438,2,0,P|68:236|88:300,2,100
196,144,159141,1,0,0:0:0:0:
196,144,159375,2,0,P|212:100|204:32,1,100
96,68,159844,2,0,L|32:100,2,50
208,80,160313,5,0,0:0:0:0:
208,84,160547,2,0,L|208:188,2,100
328,64,161250,5,0,0:0:0:0:
328,64,161367,1,0,0:0:0:0:
328,64,161485,2,0,L|332:168,1,100
392,244,161953,1,0,0:0:0:0:
392,244,162188,1,0,0:0:0:0:
332,312,162422,2,0,L|224:264,1,100
136,240,162891,2,0,L|212:152,1,100
160,68,163360,6,0,P|120:96|76:152,1,100
120,240,163828,1,0,0:0:0:0:
120,240,164063,1,0,0:0:0:0:
208,236,164297,2,0,P|260:232|320:196,1,100
264,104,164766,2,0,P|224:64|124:152,1,200
152,228,165469,5,0,0:0:0:0:
160,232,165703,2,0,B|228:252|228:252|264:256,1,100
344,184,166172,2,0,B|300:168|300:168|232:148,1,100
152,120,166641,1,0,0:0:0:0:
80,168,166875,6,0,P|64:216|80:272,1,100
160,296,167344,2,0,L|284:296,2,100
72,228,168047,2,0,P|72:176|84:120,2,100
192,304,168985,6,0,L|292:276,1,100
360,208,169453,2,0,L|260:164,1,100
252,72,169922,2,0,L|364:116,2,100
140,92,170860,6,0,P|112:148|152:156,1,100
188,168,171211,2,0,L|304:164,1,100
340,172,171563,2,0,P|380:188|360:252,1,100
300,256,172031,1,0,0:0:0:0:
300,256,172266,2,0,P|292:288|240:336,1,100
136,304,172735,5,0,0:0:0:0:
144,212,172969,1,0,0:0:0:0:
144,212,173203,2,0,L|80:212,2,50
240,148,173672,2,0,P|296:148|340:152,1,100
388,236,174141,2,0,P|332:236|288:232,1,100
160,240,174610,5,0,0:0:0:0:
160,240,174727,1,0,0:0:0:0:
160,240,174844,1,0,0:0:0:0:
152,144,175078,2,0,P|148:84|200:52,1,100
272,36,175547,2,0,P|288:76|272:140,2,100
224,208,176250,1,0,0:0:0:0:
224,208,176485,6,0,B|136:208|136:208|112:208,1,100
84,144,176953,2,0,P|72:84|128:60,1,100
180,72,177422,1,0,0:0:0:0:
224,160,177656,1,0,0:0:0:0:
224,160,177891,2,0,B|292:152|292:152|328:160,1,100
416,164,178360,6,0,P|420:104|396:56,1,100
312,64,178828,2,0,L|196:64,1,100
140,112,179297,2,0,P|116:152|148:196,2,100
232,72,180000,5,0,0:0:0:0:
232,72,180117,1,0,0:0:0:0:
232,72,180235,2,0,L|356:72,1,100
396,136,180586,1,0,0:0:0:0:
396,136,180703,2,0,L|272:136,1,100
188,140,181172,5,0,0:0:0:0:
256,56,181406,1,0,0:0:0:0:
188,140,181641,2,0,P|172:164|168:252,1,100
272,268,182110,6,0,L|380:268,1,100
452,188,182578,2,0,L|352:188,1,100
252,200,183047,2,0,B|220:144|220:144|260:84,1,100
328,116,183516,2,0,P|328:56|256:40,1,100
256,192,183985,12,0,185860,0:0:0:0:
