osu file format v14

[General]
AudioFilename: 10 Arena02_RingOfDestiny_Part2_152bpm.mp3
AudioLeadIn: 0
PreviewTime: 6505
Countdown: 0
SampleSet: Normal
StackLeniency: 0.1
Mode: 0
LetterboxInBreaks: 0
WidescreenStoryboard: 1

[Editor]
Bookmarks: 190,6505,19137,31768,44400,57032,69663,82295
DistanceSpacing: 1.1
BeatDivisor: 4
GridSize: 4
TimelineZoom: 1.5

[Metadata]
Title:Ring of Destiny Part 2
TitleUnicode:Ring of Destiny Part 2
Artist:Traz Damji
ArtistUnicode:Traz Damji
Creator:Chupalika
Version:Dan
Source:Puzzle Fighter
Tags:Arena Street Fighter Capcom
BeatmapID:1690726
BeatmapSetID:805447

[Difficulty]
HPDrainRate:4
CircleSize:4
OverallDifficulty:9.2
ApproachRate:9.6
SliderMultiplier:2
SliderTickRate:1

[Events]
//Background and Video events
0,0,"tempbg.jpg",0,0
//Break Periods
//Storyboard Layer 0 (Background)
//Storyboard Layer 1 (Fail)
//Storyboard Layer 2 (Pass)
//Storyboard Layer 3 (Foreground)
//Storyboard Sound Samples

[TimingPoints]
190,394.736842105263,4,1,1,30,1,0
6209,-66.6666666666667,4,1,1,30,0,0
6505,-80,4,1,1,30,0,0
15979,-66.6666666666667,4,1,1,30,0,0
16768,-80,4,1,1,30,0,0
18742,-66.6666666666667,4,1,1,30,0,0
19137,-100,4,1,1,25,0,0
22295,-133.333333333333,4,1,1,25,0,0
24663,-80,4,1,1,25,0,0
25453,-133.333333333333,4,1,1,25,0,0
28611,-100,4,1,1,25,0,0
31374,-133.333333333333,4,1,1,25,0,0
41242,-66.6666666666667,4,1,1,30,0,0
44400,-66.6666666666667,4,1,1,40,0,1
55453,-100,4,1,1,30,0,1
57032,-100,4,1,1,30,0,0
57426,-133.333333333333,4,1,1,20,0,0
58611,-133.333333333333,4,1,1,30,0,0
59005,-133.333333333333,4,1,1,20,0,0
60189,-133.333333333333,4,1,1,30,0,0
60584,-125,4,1,1,20,0,0
60979,-117.647058823529,4,1,1,20,0,0
61374,-111.111111111111,4,1,1,20,0,0
61768,-105.263157894737,4,1,1,30,0,0
62163,-100,4,1,1,20,0,0
62558,-95.2380952380952,4,1,1,30,0,0
62953,-90.9090909090909,4,1,1,30,0,0
63347,-100,4,1,1,30,0,0
63742,-100,4,1,1,20,0,0
64926,-100,4,1,1,30,0,0
65321,-100,4,1,1,20,0,0
66505,-100,4,1,1,30,0,0
66703,-100,4,1,1,20,0,0
67295,-71.4285714285714,4,1,1,20,0,0
68084,-55.5555555555556,4,1,1,30,0,0
68282,-55.5555555555556,4,1,1,20,0,0
68874,-45.4545454545455,4,1,1,30,0,0
69663,-200,4,1,1,40,0,1
69959,-200,4,1,1,10,0,1
70058,-100,4,1,1,40,0,1
75979,-66.6666666666667,4,1,1,40,0,1
80716,-100,4,1,1,35,0,1
81900,-100,4,1,1,30,0,1
82295,-100,4,1,1,30,0,0

[Colours]
Combo1 : 8,113,247
Combo2 : 255,24,25
Combo3 : 255,255,25
Combo4 : 16,239,66

[HitObjects]
96,272,190,5,4,0:2:0:0:
96,272,387,1,4,0:3:0:0:
212,176,584,1,10,0:2:0:0:
260,192,683,1,4,0:3:0:0:
448,248,880,1,4,0:3:0:0:
400,264,979,5,2,0:2:0:0:
400,264,1176,1,4,0:3:0:0:
204,104,1374,1,10,0:2:0:0:
260,120,1472,1,4,0:3:0:0:
456,176,1670,1,4,0:3:0:0:
400,192,1768,5,2,0:2:0:0:
400,192,1966,1,4,0:3:0:0:
196,32,2163,1,10,0:2:0:0:
264,48,2262,1,4,0:3:0:0:
464,104,2459,1,4,0:3:0:0:
396,120,2558,5,2,0:2:0:0:
396,120,2755,1,4,0:3:0:0:
192,96,2953,1,10,0:2:0:0:
124,128,3051,1,4,0:3:0:0:
48,120,3150,2,0,L|32:72,1,50,4|0,0:2|0:0,0:0:0:0:
96,272,3347,5,2,0:2:0:0:
96,272,3544,1,4,0:3:0:0:
192,96,3741,1,10,0:2:0:0:
124,128,3841,1,4,0:3:0:0:
124,128,4037,1,4,0:3:0:0:
164,304,4136,5,2,0:2:0:0:
164,304,4333,1,4,0:3:0:0:
260,64,4531,1,10,0:2:0:0:
192,96,4630,1,4,0:3:0:0:
192,96,4827,1,4,0:3:0:0:
232,336,4925,5,2,0:2:0:0:
232,336,5123,1,4,0:3:0:0:
328,32,5320,1,10,0:2:0:0:
260,64,5419,1,4,0:3:0:0:
260,64,5616,1,4,0:3:0:0:
300,368,5715,5,2,0:2:0:0:
300,368,5912,1,4,0:3:0:0:
472,92,6111,1,14,0:2:0:0:
416,144,6209,2,0,P|400:216|448:268,1,150,0|4,0:0|0:3,0:0:0:0:
480,192,6505,6,0,B|348:232|348:232|332:280,1,187.5,2|0,0:2|0:0,0:0:0:0:
332,279,6900,1,10,0:2:0:0:
64,208,7097,2,0,B|183:245,1,125,0|2,0:0|0:2,0:0:0:0:
183,245,7393,1,0,0:0:0:0:
448,64,7591,1,4,0:3:0:0:
448,64,7689,2,0,L|384:84,1,62.5,10|4,0:2|0:3,0:0:0:0:
208,132,7887,5,0,0:0:0:0:
296,92,7986,1,4,0:3:0:0:
208,132,8084,2,0,P|176:188|184:248,1,125,2|4,0:2|0:3,0:0:0:0:
388,232,8479,1,10,0:2:0:0:
264,204,8578,1,4,0:3:0:0:
264,204,8775,1,4,0:3:0:0:
144,320,8874,2,0,P|100:272|92:212,1,125,2|4,0:2|0:3,0:0:0:0:
256,32,9268,5,10,0:2:0:0:
202,141,9367,1,4,0:3:0:0:
189,67,9466,1,0,0:0:0:0:
277,152,9564,1,4,0:3:0:0:
309,84,9663,2,0,B|352:52|424:76|432:116|432:116|400:144,1,187.5,2|0,0:2|0:0,0:0:0:0:
400,143,10058,1,10,0:2:0:0:
224,216,10255,2,0,B|192:243|192:243|208:283|260:291,1,125,0|2,0:0|0:2,0:0:0:0:
256,290,10551,1,0,0:0:0:0:
112,84,10749,1,0,0:0:0:0:
112,84,10848,2,0,B|144:111|144:111|128:151|76:159,1,125,10|0,0:2|0:0,0:0:0:0:
20,88,11143,1,4,0:3:0:0:
40,244,11242,6,0,B|48:296|76:312|84:364,1,125,2|4,0:2|0:3,0:0:0:0:
224,216,11637,1,10,0:2:0:0:
83,360,11736,1,4,0:3:0:0:
83,360,11933,1,4,0:3:0:0:
172,328,12032,2,0,P|240:316|292:336,1,125,2|4,0:2|0:3,0:0:0:0:
464,192,12426,5,10,0:2:0:0:
316,240,12525,1,4,0:3:0:0:
432,344,12624,2,0,P|432:308|424:284,1,62.5,4|0,0:2|0:0,0:0:0:0:
352,144,12821,5,0,0:0:0:0:
204,192,13018,1,2,0:2:0:0:
204,192,13216,2,0,L|264:172,1,62.5,10|4,0:2|0:3,0:0:0:0:
56,240,13413,1,0,0:0:0:0:
112,164,13512,5,4,0:3:0:0:
56,240,13611,2,0,P|40:304|68:360,1,125,2|4,0:2|0:3,0:0:0:0:
288,264,14005,1,10,0:2:0:0:
132,292,14104,1,4,0:3:0:0:
132,292,14301,1,4,0:3:0:0:
204,352,14400,6,0,P|260:384|320:384,1,125,2|4,0:2|0:3,0:0:0:0:
412,152,14795,1,10,0:2:0:0:
256,180,14894,1,4,0:3:0:0:
256,180,15091,1,4,0:3:0:0:
100,152,15189,6,0,B|128:124|184:124|212:96,1,125,2|8,0:2|0:3,0:0:0:0:
256,12,15486,1,0,0:0:0:0:
256,12,15584,2,0,L|320:20,1,62.5,10|4,0:2|0:3,0:0:0:0:
448,160,15782,2,0,L|385:152,1,62.5,0|4,0:0|0:3,0:0:0:0:
140,48,15979,6,0,B|92:40|72:0|72:0|72:84|16:120,1,225.000008583069,2|0,0:2|0:0,0:0:0:0:
100,152,16374,2,0,P|132:220|100:288,1,150.000005722046,10|0,0:2|0:0,0:0:0:0:
48,220,16670,1,4,0:3:0:0:
158,348,16768,5,2,0:2:0:0:
158,348,16966,1,4,0:3:0:0:
276,200,17163,2,0,P|304:216|336:216,1,62.5,10|4,0:2|0:3,0:0:0:0:
400,108,17361,1,0,0:0:0:0:
276,200,17459,1,4,0:3:0:0:
328,348,17558,6,0,P|364:352|392:340,1,62.5,10|0,0:2|0:0,0:0:0:0:
200,328,17755,2,0,P|222:356|250:367,1,62.5,2|0,0:2|0:0,0:0:0:0:
120,224,17953,2,0,P|116:259|128:288,1,62.5,2|0,0:2|0:0,0:0:0:0:
136,96,18150,2,0,P|107:118|96:146,1,62.5,2|0,0:2|0:0,0:0:0:0:
236,16,18347,5,8,0:2:0:0:
32,332,18545,1,4,0:3:0:0:
380,192,18742,2,0,P|420:252|428:160,1,225.000008583069,8|0,0:2|0:0,0:0:0:0:
340,136,19137,6,0,P|320:160|316:184,1,50,4|0,0:3|0:0,0:0:0:0:
244,160,19334,2,0,P|240:192|248:212,1,50,0|0,0:3|0:0,0:0:0:0:
172,216,19532,2,0,P|180:244|200:268,1,50,4|4,0:3|0:3,0:0:0:0:
108,168,19729,2,0,P|116:140|136:116,1,50,0|4,0:0|0:3,0:0:0:0:
76,264,19926,6,0,P|68:292|48:316,1,50,8|0,0:2|0:0,0:0:0:0:
148,352,20124,2,0,P|176:344|207:350,1,50,8|0,0:3|0:0,0:0:0:0:
280,292,20321,2,0,P|304:293|328:286,1,50,4|4,0:3|0:3,0:0:0:0:
404,352,20518,2,0,P|417:331|424:307,1,50,0|4,0:0|0:3,0:0:0:0:
440,208,20716,6,0,L|452:160,1,50,4|0,0:3|0:0,0:0:0:0:
396,48,20913,2,0,L|384:96,1,50,4|0,0:3|0:0,0:0:0:0:
300,192,21111,2,0,L|312:144,1,50,4|4,0:3|0:3,0:0:0:0:
256,32,21308,2,0,L|244:80,1,50,0|4,0:0|0:3,0:0:0:0:
52,144,21505,6,0,L|104:152,1,50,8|0,0:2|0:0,0:0:0:0:
220,192,21703,2,0,L|168:200,1,50,4|0,0:3|0:0,0:0:0:0:
52,240,21900,2,0,L|104:248,1,50,4|4,0:3|0:3,0:0:0:0:
220,288,22098,2,0,L|168:296,1,50,0|4,0:0|0:3,0:0:0:0:
52,336,22295,5,4,0:3:0:0:
68,340,22393,1,0,0:0:0:0:
84,344,22492,2,0,L|128:356,1,37.5000014305115,4|0,0:3|0:0,0:0:0:0:
170,295,22689,1,4,0:3:0:0:
186,299,22787,1,4,0:3:0:0:
202,303,22886,2,0,L|246:315,1,37.5000014305115,0|4,0:0|0:3,0:0:0:0:
288,254,23084,1,8,0:2:0:0:
304,258,23182,1,0,0:0:0:0:
320,262,23281,2,0,L|364:274,1,37.5000014305115,4|0,0:3|0:0,0:0:0:0:
406,213,23479,1,4,0:3:0:0:
422,217,23577,1,4,0:3:0:0:
438,221,23676,2,0,L|482:233,1,37.5000014305115,0|4,0:0|0:3,0:0:0:0:
340,160,23874,5,4,0:3:0:0:
324,152,23972,1,0,0:0:0:0:
312,140,24071,2,0,P|304:124|300:104,1,37.5000014305115,4|0,0:3|0:0,0:0:0:0:
224,160,24268,1,4,0:3:0:0:
216,144,24367,1,4,0:3:0:0:
212,124,24466,2,0,P|210:104|212:84,1,37.5000014305115,0|4,0:0|0:3,0:0:0:0:
112,224,24663,5,12,0:2:0:0:
32,28,24861,1,4,0:3:0:0:
80,356,25058,2,0,B|92:332|92:332|132:372|184:360,1,125,12|0,0:2|0:0,0:0:0:0:
492,224,25453,6,0,P|472:224|452:232,1,37.5000014305115,4|0,0:3|0:0,0:0:0:0:
388,296,25650,2,0,P|380:316|380:336,1,37.5000014305115,4|0,0:3|0:0,0:0:0:0:
304,276,25847,2,0,P|308:257|318:242,1,37.5000014305115,4|4,0:3|0:3,0:0:0:0:
420,152,26044,2,0,P|440:144|460:144,1,37.5000014305115,0|4,0:0|0:3,0:0:0:0:
224,152,26242,6,0,P|205:150|188:143,1,37.5000014305115,8|0,0:2|0:0,0:0:0:0:
108,92,26439,2,0,P|118:76|133:65,1,37.5000014305115,4|0,0:3|0:0,0:0:0:0:
217,21,26637,2,0,P|225:37|227:56,1,37.5000014305115,4|4,0:3|0:3,0:0:0:0:
174,287,26834,6,0,P|166:270|164:252,1,37.5000014305115,0|4,0:0|0:3,0:0:0:0:
270,325,27032,2,0,P|259:340|245:352,1,37.5000014305115,4|0,0:3|0:0,0:0:0:0:
256,223,27229,2,0,P|274:224|292:232,1,37.5000014305115,4|0,0:3|0:0,0:0:0:0:
151,374,27426,6,0,P|133:367|118:356,1,37.5000014305115,4|4,0:3|0:3,0:0:0:0:
192,160,27624,2,0,P|206:147|223:140,1,37.5000014305115,0|4,0:0|0:3,0:0:0:0:
356,301,27821,6,0,P|359:319|356:337,1,37.5000014305115,8|0,0:2|0:0,0:0:0:0:
408,224,28018,2,0,P|423:234|434:249,1,37.5000014305115,4|0,0:3|0:0,0:0:0:0:
388,136,28216,2,0,P|406:132|424:135,1,37.5000014305115,4|4,0:3|0:3,0:0:0:0:
312,92,28413,2,0,P|322:76|337:65,1,37.5000014305115,0|4,0:0|0:3,0:0:0:0:
272,204,28611,5,4,0:3:0:0:
212,340,28808,1,4,0:3:0:0:
92,252,29005,1,4,0:3:0:0:
92,252,29104,1,4,0:3:0:0:
92,252,29301,1,4,0:3:0:0:
152,116,29400,5,8,0:2:0:0:
212,340,29597,1,4,0:3:0:0:
272,204,29795,2,0,P|300:216|316:236,1,50,4|4,0:3|0:3,0:0:0:0:
368,344,29992,2,0,P|391:335|408:317,1,50,0|4,0:0|0:3,0:0:0:0:
452,200,30189,5,4,0:3:0:0:
368,16,30387,1,4,0:3:0:0:
220,152,30584,1,4,0:3:0:0:
220,152,30683,1,4,0:3:0:0:
220,152,30880,1,4,0:3:0:0:
72,16,30979,6,0,P|60:40|60:64,1,50,12|0,0:2|0:0,0:0:0:0:
136,272,31176,2,0,P|148:248|148:224,1,50,4|0,0:3|0:0,0:0:0:0:
72,16,31374,2,0,P|60:48|72:88,1,75.0000028610231,4|0,0:2|0:0,0:0:0:0:
236,240,31768,5,4,0:2:0:0:
324,361,31966,1,4,0:3:0:0:
324,212,32163,1,4,0:3:0:0:
236,332,32360,1,4,0:3:0:0:
377,286,32558,5,12,0:2:0:0:
468,220,32755,1,4,0:3:0:0:
456,108,32953,1,4,0:3:0:0:
236,240,33347,5,4,0:2:0:0:
136,288,33545,1,4,0:3:0:0:
28,336,33742,1,4,0:3:0:0:
60,112,33939,1,4,0:3:0:0:
136,288,34137,2,0,P|160:316|196:328,1,75.0000028610231,12|4,0:2|0:3,0:0:0:0:
464,192,34532,1,4,0:3:0:0:
388,272,34729,5,4,0:3:0:0:
380,292,34828,1,4,0:3:0:0:
372,312,34926,1,4,0:2:0:0:
476,352,35124,1,4,0:3:0:0:
268,272,35321,1,4,0:3:0:0:
496,288,35518,1,0,0:0:0:0:
288,208,35716,6,0,P|256:184|248:152,1,75.0000028610231,12|4,0:2|0:3,0:0:0:0:
256,4,36111,1,4,0:3:0:0:
208,260,36505,6,0,P|183:292|151:300,1,75.0000028610231,4|4,0:2|0:3,0:0:0:0:
4,291,36900,1,4,0:3:0:0:
396,76,37295,5,12,0:2:0:0:
116,124,37492,1,4,0:3:0:0:
396,172,37689,1,4,0:2:0:0:
116,220,37887,5,4,0:3:0:0:
96,224,37985,1,4,0:3:0:0:
76,228,38084,1,4,0:2:0:0:
200,360,38282,1,4,0:3:0:0:
252,186,38479,1,4,0:3:0:0:
76,228,38676,1,4,0:3:0:0:
276,288,38874,5,12,0:2:0:0:
152,156,39071,1,4,0:3:0:0:
100,330,39268,1,4,0:3:0:0:
288,108,39663,6,0,P|312:144|340:160,1,75.0000028610231,4|4,0:2|0:3,0:0:0:0:
416,32,40058,1,4,0:3:0:0:
480,248,40453,6,0,P|448:267|429:299,1,75.0000028610231,12|4,0:2|0:3,0:0:0:0:
292,240,40847,1,4,0:3:0:0:
192,352,41045,1,4,0:3:0:0:
128,60,41242,5,2,0:2:0:0:
64,276,41439,1,4,0:3:0:0:
224,44,41637,1,2,0:2:0:0:
192,268,41834,1,4,0:3:0:0:
320,60,42032,5,10,0:2:0:0:
384,276,42229,1,4,0:3:0:0:
427,40,42426,1,10,0:2:0:0:
270,295,42623,1,4,0:3:0:0:
511,111,42821,5,12,0:2:0:0:
424,128,42920,1,0,0:0:0:0:
392,196,43018,1,4,0:3:0:0:
400,256,43117,1,4,0:3:0:0:
436,284,43216,5,12,0:2:0:0:
380,300,43314,1,0,0:0:0:0:
348,352,43413,1,4,0:3:0:0:
296,320,43512,1,4,0:3:0:0:
236,328,43611,5,8,0:3:0:0:
192,336,43709,1,8,0:3:0:0:
236,232,43808,5,4,0:3:0:0:
280,224,43906,1,4,0:3:0:0:
192,128,44005,5,8,0:2:0:0:
304,108,44104,1,8,0:2:0:0:
192,128,44203,1,8,0:2:0:0:
304,108,44301,1,8,0:2:0:0:
192,128,44400,5,2,0:2:0:0:
124,160,44499,1,0,0:0:0:0:
108,232,44597,1,4,0:3:0:0:
124,304,44696,1,0,0:0:0:0:
188,344,44795,1,10,0:2:0:0:
204,304,44893,1,0,0:0:0:0:
240,276,44992,1,4,0:3:0:0:
284,272,45091,1,0,0:0:0:0:
324,292,45189,5,2,0:2:0:0:
288,228,45288,1,0,0:0:0:0:
288,152,45387,1,4,0:3:0:0:
344,100,45486,1,0,0:0:0:0:
420,92,45584,1,10,0:2:0:0:
424,152,45683,1,0,0:0:0:0:
400,208,45782,1,4,0:3:0:0:
348,232,45880,1,0,0:0:0:0:
288,228,45979,5,2,0:2:0:0:
256,160,46078,1,0,0:0:0:0:
188,128,46176,1,4,0:3:0:0:
112,136,46275,1,0,0:0:0:0:
52,184,46374,1,10,0:2:0:0:
108,204,46472,1,0,0:0:0:0:
164,184,46571,1,4,0:3:0:0:
188,128,46670,1,0,0:0:0:0:
172,72,46768,5,2,0:2:0:0:
240,104,46867,1,0,0:0:0:0:
256,176,46966,1,4,0:3:0:0:
240,248,47064,1,0,0:0:0:0:
172,284,47163,1,10,0:2:0:0:
180,208,47262,1,0,0:0:0:0:
256,176,47361,1,4,0:3:0:0:
344,192,47459,1,0,0:0:0:0:
408,264,47558,5,2,0:2:0:0:
344,336,47657,1,0,0:0:0:0:
256,352,47756,1,4,0:3:0:0:
180,320,47855,1,0,0:0:0:0:
172,244,47953,1,10,0:2:0:0:
100,260,48051,1,0,0:0:0:0:
28,220,48150,1,4,0:3:0:0:
20,132,48249,1,0,0:0:0:0:
84,60,48347,5,2,0:2:0:0:
172,108,48446,1,0,0:0:0:0:
236,172,48545,1,4,0:3:0:0:
268,248,48643,1,0,0:0:0:0:
276,324,48742,1,10,0:2:0:0:
268,248,48841,1,0,0:0:0:0:
300,172,48939,1,4,0:3:0:0:
372,116,49038,1,0,0:0:0:0:
468,104,49137,5,2,0:2:0:0:
468,200,49236,1,0,0:0:0:0:
424,280,49334,1,4,0:3:0:0:
352,316,49433,1,0,0:0:0:0:
276,324,49532,1,10,0:2:0:0:
304,256,49630,1,0,0:0:0:0:
300,172,49729,1,4,0:3:0:0:
256,92,49828,1,0,0:0:0:0:
172,40,49926,5,2,0:2:0:0:
156,136,50025,1,0,0:0:0:0:
224,196,50124,1,4,0:2:0:0:
300,172,50222,1,0,0:0:0:0:
336,108,50321,1,10,0:2:0:0:
336,168,50420,1,0,0:0:0:0:
380,208,50518,1,4,0:2:0:0:
440,208,50617,1,0,0:0:0:0:
484,168,50716,5,2,0:2:0:0:
410,148,50814,1,0,0:0:0:0:
336,168,50913,1,4,0:3:0:0:
304,236,51012,1,0,0:0:0:0:
312,312,51111,1,10,0:2:0:0:
268,352,51209,1,0,0:0:0:0:
212,368,51308,1,4,0:3:0:0:
156,352,51407,1,0,0:0:0:0:
112,312,51505,5,2,0:2:0:0:
148,244,51605,1,0,0:0:0:0:
144,168,51703,1,4,0:3:0:0:
96,112,51802,1,0,0:0:0:0:
24,88,51901,1,10,0:2:0:0:
36,148,51999,1,0,0:0:0:0:
84,180,52097,1,4,0:3:0:0:
144,168,52196,1,0,0:0:0:0:
176,116,52295,5,2,0:2:0:0:
220,56,52393,1,0,0:0:0:0:
292,40,52492,1,4,0:3:0:0:
364,56,52591,1,0,0:0:0:0:
408,116,52689,1,10,0:2:0:0:
348,108,52788,1,0,0:0:0:0:
288,116,52887,1,4,0:3:0:0:
236,148,52986,1,0,0:0:0:0:
212,204,53084,5,2,0:2:0:0:
288,196,53183,1,0,0:0:0:0:
360,212,53282,1,4,0:3:0:0:
416,260,53380,1,0,0:0:0:0:
440,332,53479,1,10,0:2:0:0:
356,300,53578,1,0,0:0:0:0:
360,212,53676,1,4,0:3:0:0:
448,192,53775,1,0,0:0:0:0:
480,44,53874,5,2,0:2:0:0:
396,108,53972,1,0,0:0:0:0:
308,52,54071,1,4,0:3:0:0:
224,116,54169,1,0,0:0:0:0:
132,60,54268,1,10,0:2:0:0:
48,124,54366,1,0,0:0:0:0:
132,188,54466,2,0,L|196:232,1,75.0000028610231,4|0,0:3|0:0,0:0:0:0:
396,108,54663,5,2,0:2:0:0:
297,143,54762,1,0,0:0:0:0:
279,246,54860,1,4,0:3:0:0:
361,316,54959,1,0,0:0:0:0:
459,279,55058,1,10,0:2:0:0:
477,176,55156,1,0,0:0:0:0:
279,246,55255,2,0,P|248:272|236:304,1,75.0000028610231,4|0,0:3|0:0,0:0:0:0:
280,32,55453,5,8,0:2:0:0:
272,72,55551,1,8,0:2:0:0:
216,112,55650,1,8,0:2:0:0:
208,152,55749,1,8,0:2:0:0:
152,192,55847,2,0,L|140:252,1,50,4|4,0:3|0:3,0:0:0:0:
407,86,56045,5,8,0:2:0:0:
399,126,56143,1,8,0:2:0:0:
343,166,56242,1,8,0:2:0:0:
335,206,56341,1,8,0:2:0:0:
279,246,56439,2,0,L|267:306,1,50,4|4,0:3|0:3,0:0:0:0:
216,112,56637,5,8,0:2:0:0:
407,86,56736,1,8,0:2:0:0:
216,112,56834,1,8,0:2:0:0:
407,86,56933,1,8,0:2:0:0:
99,265,57032,5,4,0:2:0:0:
492,344,57229,1,4,0:2:0:0:
416,260,57426,6,0,L|432:224,1,37.5000014305115
480,124,57624,2,0,L|464:88,1,37.5000014305115
332,224,57821,2,0,L|316:258,1,37.5000014305115
364,90,58018,2,0,L|380:125,1,37.5000014305115
280,126,58216,2,0,L|264:90,1,37.5000014305115
216,256,58413,2,0,L|232:222,1,37.5000014305115
164,92,58611,5,4,0:2:0:0:
492,344,58808,1,4,0:2:0:0:
416,260,59005,6,0,L|380:273,1,37.5000014305115
284,336,59203,2,0,L|248:322,1,37.5000014305115
104,60,59400,6,0,L|139:46,1,37.5000014305115
139,236,59597,2,0,L|103:245,1,37.5000014305115
210,130,59795,2,0,L|223:165,1,37.5000014305115
34,166,59992,2,0,L|20:130,1,37.5000014305115
288,218,60189,6,0,L|302:254,1,37.5000014305115,4|0,0:2|0:0,0:0:0:0:
223,165,60387,2,0,L|210:130,1,37.5000014305115,4|0,0:2|0:0,0:0:0:0:
304,228,60584,6,0,L|316:268,1,40
208,156,60782,2,0,L|196:116,1,40
320,236,60979,6,0,L|328:280,1,42.5000008106232
192,148,61176,2,0,L|184:104,1,42.5000008106232
336,244,61374,6,0,L|340:292,1,44.999998626709
176,140,61571,2,0,L|172:92,1,44.999998626709
204,272,61768,6,0,L|156:276,1,47.4999987316132,4|0,0:2|0:0,0:0:0:0:
308,112,61965,2,0,L|356:108,1,47.4999987316132,4|0,0:2|0:0,0:0:0:0:
196,288,62163,6,0,L|144:288,1,50
316,96,62361,2,0,L|368:96,1,50
188,304,62558,6,0,L|136:300,1,52.4999983978272,12|0,0:2|0:0,0:0:0:0:
324,80,62755,2,0,L|376:84,1,52.4999983978272
180,320,62953,6,0,L|124:312,1,55.0000016784668,12|0,0:2|0:0,0:0:0:0:
332,64,63150,2,0,L|388:72,1,55.0000016784668
115,323,63347,5,4,0:2:0:0:
396,60,63545,1,4,0:2:0:0:
112,160,63742,6,0,L|96:112,1,50
220,112,63939,2,0,L|253:74,1,50
176,224,64137,2,0,L|142:261,1,50
284,176,64334,2,0,L|300:224,1,50
398,149,64532,2,0,L|447:159,1,50
186,243,64729,2,0,L|159:286,1,50
284,176,64926,6,0,L|308:220,1,50,4|0,0:2|0:0,0:0:0:0:
391,130,65124,2,0,L|441:132,1,50,4|0,0:2|0:0,0:0:0:0:
284,176,65321,2,0,L|315:215,1,50
200,259,65518,2,0,L|181:306,1,50
382,112,65716,2,0,L|432:105,1,50
284,176,65913,2,0,L|315:215,1,50
200,259,66111,2,0,L|181:306,1,50
80,224,66308,2,0,L|29:231,1,50
256,96,66505,5,4,0:2:0:0:
301,114,66603,1,0,0:0:0:0:
319,159,66702,1,4,0:2:0:0:
301,204,66801,1,0,0:0:0:0:
256,223,66899,1,0,0:0:0:0:
210,204,66999,1,0,0:0:0:0:
192,159,67098,1,0,0:0:0:0:
210,114,67197,1,0,0:0:0:0:
255,96,67295,5,0,0:0:0:0:
193,122,67393,1,0,0:0:0:0:
167,185,67492,1,0,0:0:0:0:
192,248,67591,1,0,0:0:0:0:
256,275,67689,1,0,0:0:0:0:
319,248,67787,1,0,0:0:0:0:
344,185,67886,1,0,0:0:0:0:
318,122,67985,1,0,0:0:0:0:
256,96,68084,5,4,0:2:0:0:
336,130,68182,1,0,0:0:0:0:
369,211,68281,1,4,0:2:0:0:
336,292,68380,1,0,0:0:0:0:
256,326,68479,1,0,0:0:0:0:
175,292,68577,1,0,0:0:0:0:
142,211,68676,1,0,0:0:0:0:
175,130,68775,1,0,0:0:0:0:
256,96,68874,5,12,0:2:0:0:
157,137,68972,1,0,0:0:0:0:
116,236,69071,1,0,0:0:0:0:
156,335,69170,1,0,0:0:0:0:
256,377,69268,1,12,0:2:0:0:
355,335,69366,1,0,0:0:0:0:
395,236,69465,1,0,0:0:0:0:
354,137,69564,1,0,0:0:0:0:
256,96,69663,6,0,B|224:84|204:108|180:96,1,75,4|0,0:2|0:0,0:0:0:0:
104,32,70058,6,0,P|88:56|84:80,1,50,10|4,0:2|0:3,0:0:0:0:
64,352,70255,2,0,P|80:328|84:304,1,50,0|4,0:0|0:3,0:0:0:0:
202,52,70453,2,0,P|186:76|182:100,1,50,2|0,0:2|0:0,0:0:0:0:
164,352,70650,2,0,P|180:328|184:304,1,50,4|0,0:3|0:0,0:0:0:0:
300,72,70847,2,0,P|284:96|280:120,1,50,10|4,0:2|0:3,0:0:0:0:
264,352,71045,2,0,P|280:328|284:304,1,50,0|4,0:0|0:3,0:0:0:0:
364,128,71242,6,0,P|385:114|409:110,1,50,2|0,0:2|0:0,0:0:0:0:
160,224,71439,2,0,P|138:237|114:241,1,50,4|0,0:3|0:0,0:0:0:0:
414,194,71637,2,0,P|438:199|458:214,1,50,10|4,0:2|0:3,0:0:0:0:
110,158,71834,2,0,P|85:152|65:137,1,50,0|4,0:0|0:3,0:0:0:0:
402,276,72032,6,0,P|415:296|418:321,1,50,2|0,0:2|0:0,0:0:0:0:
373,56,72229,2,0,P|394:43|418:39,1,50,4|0,0:3|0:0,0:0:0:0:
120,74,72426,2,0,P|107:53|103:29,1,50,10|4,0:2|0:3,0:0:0:0:
172,337,72623,2,0,P|151:351|126:354,1,50,0|4,0:0|0:3,0:0:0:0:
224,96,72821,5,2,0:2:0:0:
200,140,72920,1,0,0:0:0:0:
176,184,73018,1,4,0:3:0:0:
152,228,73117,1,0,0:0:0:0:
288,272,73216,5,10,0:2:0:0:
312,228,73315,1,4,0:3:0:0:
336,184,73413,1,0,0:0:0:0:
360,140,73512,1,4,0:3:0:0:
200,140,73611,5,2,0:2:0:0:
201,200,73710,1,0,0:0:0:0:
202,260,73808,1,0,0:0:0:0:
204,320,73907,1,4,0:3:0:0:
312,228,74005,5,10,0:2:0:0:
311,168,74104,1,4,0:3:0:0:
310,108,74202,1,0,0:0:0:0:
308,48,74301,1,4,0:3:0:0:
201,200,74400,5,2,0:2:0:0:
238,261,74499,1,0,0:0:0:0:
275,323,74597,1,4,0:3:0:0:
313,384,74696,1,0,0:0:0:0:
311,184,74795,5,10,0:2:0:0:
274,123,74894,1,4,0:3:0:0:
237,61,74992,1,0,0:0:0:0:
199,0,75091,1,4,0:3:0:0:
240,260,75189,5,2,0:2:0:0:
315,301,75288,1,0,0:0:0:0:
390,343,75386,1,4,0:3:0:0:
466,384,75485,1,0,0:0:0:0:
272,124,75584,5,10,0:2:0:0:
197,83,75683,1,4,0:3:0:0:
122,41,75781,1,0,0:0:0:0:
46,0,75880,1,4,0:3:0:0:
355,144,75979,6,0,P|392:144|424:124,1,75.0000028610231,2|0,0:2|0:0,0:0:0:0:
157,240,76176,2,0,P|120:240|88:260,1,75.0000028610231,4|0,0:3|0:0,0:0:0:0:
424,336,76374,2,0,P|424:299|404:267,1,75.0000028610231,10|4,0:2|0:3,0:0:0:0:
88,48,76571,2,0,P|88:85|108:117,1,75.0000028610231,0|4,0:0|0:3,0:0:0:0:
256,352,76768,6,0,P|292:332|328:328,1,75.0000028610231,2|0,0:2|0:0,0:0:0:0:
256,32,76966,2,0,P|220:52|184:56,1,75.0000028610231,4|0,0:3|0:0,0:0:0:0:
128,352,77163,2,0,P|160:334|184:305,1,75.0000028610231,10|4,0:2|0:3,0:0:0:0:
384,32,77361,2,0,P|351:49|327:78,1,75.0000028610231,0|4,0:0|0:3,0:0:0:0:
404,267,77558,6,0,P|436:249|460:220,1,75.0000028610231,2|0,0:2|0:0,0:0:0:0:
108,117,77755,2,0,P|75:134|51:163,1,75.0000028610231,4|0,0:3|0:0,0:0:0:0:
488,152,77953,2,0,L|420:120,1,75.0000028610231,10|4,0:2|0:3,0:0:0:0:
24,232,78150,2,0,L|92:264,1,75.0000028610231,0|4,0:0|0:3,0:0:0:0:
384,32,78347,6,0,P|351:49|327:78,1,75.0000028610231,2|0,0:2|0:0,0:0:0:0:
128,351,78545,2,0,P|161:334|184:306,1,75.0000028610231,4|0,0:3|0:0,0:0:0:0:
96,64,78742,2,0,P|113:97|141:120,1,75.0000028610231,10|4,0:2|0:3,0:0:0:0:
415,319,78940,2,0,P|398:286|370:263,1,75.0000028610231,0|4,0:0|0:3,0:0:0:0:
216,148,79137,5,2,0:2:0:0:
212,231,79236,1,0,0:0:0:0:
296,236,79334,1,4,0:3:0:0:
300,153,79433,1,0,0:0:0:0:
192,151,79532,5,10,0:2:0:0:
214,254,79631,1,4,0:3:0:0:
319,232,79729,1,0,0:0:0:0:
297,129,79828,1,4,0:3:0:0:
168,164,79926,5,2,0:2:0:0:
227,277,80025,1,0,0:0:0:0:
343,219,80123,1,4,0:3:0:0:
284,106,80222,1,0,0:0:0:0:
148,186,80321,5,10,0:2:0:0:
249,298,80420,1,4,0:3:0:0:
363,197,80518,1,0,0:0:0:0:
262,85,80617,1,4,0:3:0:0:
135,218,80716,6,0,P|116:264|120:316,1,100,10|0,0:2|0:0,0:0:0:0:
340,16,81111,1,8,0:2:0:0:
340,16,81308,5,8,0:2:0:0:
332,92,81407,1,8,0:2:0:0:
180,108,81505,1,8,0:3:0:0:
188,176,81604,1,8,0:3:0:0:
324,176,81703,1,8,0:3:0:0:
316,240,81801,1,8,0:3:0:0:
196,240,81900,1,4,0:3:0:0:
204,300,81999,1,4,0:3:0:0:
308,300,82097,1,4,0:3:0:0:
300,356,82196,1,4,0:3:0:0:
148,276,82295,5,4,0:2:0:0:
