osu file format v14

[General]
AudioFilename: audio.mp3
AudioLeadIn: 0
PreviewTime: 651
Countdown: 0
SampleSet: Soft
StackLeniency: 0.4
Mode: 0
LetterboxInBreaks: 0
WidescreenStoryboard: 1

[Editor]
Bookmarks: 1509,15223,28937,42651,56366,70080,83794,97509,111223,124937,131794,131848,131901,131955,132009,132062,132116,132169,132223,132276,132330,132384,132437,132491,132544,132598,132651,132705,132759,132812,132866,132919,132973,133026,133080,133134,133187,133241,133294,133348,133401,133455,133509,133562,133616,133669,133723,133776,133830,133884,133937,133991,134044,134098,134151,134205,134259,134312,134366,134419,134473,134526,134580,134634,134687,134741,134794,134848,134901,134955,135009,135062,135116,135169,135223,135276,135330,135384,135437,135491,135544,135598,135651,135705,135759,135812,135866,135919,135973,136026,136080,136134,136187,136241,136294,136348,136401,136455,136509,136562,136616,136669,136723,136776,136830,136884,136937,136991,137044,137098,137151,137205,137259,137312,137366,137419,137473,137526,137580,137634,137687,137741,137794,137848,137901,137955,138009,138062,138116,138169,138223,138276,138330,138384,138437,138491,138544,138598,138651
DistanceSpacing: 1.4
BeatDivisor: 6
GridSize: 16
TimelineZoom: 2.899999

[Metadata]
Title:guidance (Cut Ver.)
TitleUnicode:guidance (Cut Ver.)
Artist:Travis Scott
ArtistUnicode:Travis Scott
Creator:kieg
Version:insane (ft. jamesjan3)
Source:
Tags:hip hop beatmapping contest hhbc english r&b travi$ dancehall k. forest birds in the trap sing mcknight rap trap enri aistre alphabet venax jamesjan3 jamesjan
BeatmapID:3482387
BeatmapSetID:1652743

[Difficulty]
HPDrainRate:4.5
CircleSize:3.5
OverallDifficulty:7.5
ApproachRate:9
SliderMultiplier:2
SliderTickRate:1

[Events]
//Background and Video events
0,0,"eberhard-grossgasteiger-xC7Ho08RYF4-unsplash.png",0,0
//Break Periods
//Storyboard Layer 0 (Background)
//Storyboard Layer 1 (Fail)
//Storyboard Layer 2 (Pass)
//Storyboard Layer 3 (Foreground)
//Storyboard Layer 4 (Overlay)
//Storyboard Sound Samples

[TimingPoints]
1509,428.571428571429,4,2,1,60,1,0
1509,-80,4,2,1,60,0,0
1830,-100,4,2,1,60,0,0
3223,-80,4,2,1,60,0,0
4080,-100,4,2,1,60,0,0
4937,-80,4,2,1,60,0,0
5259,-100,4,2,1,60,0,0
6651,-80,4,2,1,60,0,0
8687,-100,4,2,1,60,0,0
10080,-80,4,2,1,60,0,0
10937,-100,4,2,1,60,0,0
11794,-80,4,2,1,60,0,0
12116,-100,4,2,1,60,0,0
13509,-66.6666666666667,4,2,1,60,0,0
13937,-100,4,2,1,60,0,0
14366,-80,4,2,1,60,0,0
14794,-133.333333333333,4,2,1,60,0,0
15223,-80,4,2,1,60,0,0
15544,-100,4,2,1,60,0,0
18651,-66.6666666666667,4,2,1,60,0,0
19187,-100,4,2,1,60,0,0
20366,-80,4,2,1,60,0,0
21223,-100,4,2,1,60,0,0
22080,-80,4,2,1,60,0,0
22401,-100,4,2,1,60,0,0
25509,-80,4,2,1,60,0,0
25830,-100,4,2,1,60,0,0
27223,-66.6666666666667,4,2,1,60,0,0
27651,-100,4,2,1,60,0,0
28080,-80,4,2,1,60,0,0
28509,-133.333333333333,4,2,1,60,0,0
28937,-100,4,2,1,60,0,0
31509,-80,4,2,1,60,0,0
31937,-66.6666666666667,4,2,1,60,0,0
33223,-80,4,2,1,60,0,0
33651,-100,4,2,1,60,0,0
35366,-133.333333333333,4,2,1,60,0,0
35794,-80,4,2,1,60,0,0
36116,-133.333333333333,4,2,1,60,0,0
36437,-80,4,2,1,60,0,0
37080,-133.333333333333,4,2,1,60,0,0
38366,-80,4,2,1,60,0,0
38794,-66.6666666666667,4,2,1,60,0,0
39866,-80,4,2,1,60,0,0
41044,-80,4,2,1,5,0,0
41794,-80,4,2,1,60,0,0
41901,-80,4,2,1,5,0,0
42651,-66.6666666666667,4,2,1,60,0,0
43294,-80,4,2,1,60,0,0
44366,-66.6666666666667,4,2,1,60,0,0
45224,-80,4,2,1,60,0,0
45652,-66.6666666666667,4,2,1,60,0,0
46723,-80,4,2,1,60,0,0
47794,-66.6666666666667,4,2,1,60,0,0
48651,-80,4,2,1,60,0,0
48866,-66.6666666666667,4,2,1,60,0,0
50151,-80,4,2,1,60,0,0
51223,-66.6666666666667,4,2,1,60,0,0
52081,-80,4,2,1,60,0,0
52937,-66.6666666666667,4,2,1,60,0,0
53794,-80,4,2,1,60,0,0
54651,-66.6666666666667,4,2,1,60,0,0
55080,-100,4,2,1,60,0,0
55509,-80,4,2,1,60,0,0
55937,-133.333333333333,4,2,1,60,0,0
56687,-80,4,2,1,60,0,0
58080,-50,4,2,1,60,0,0
58133,-50,4,2,1,5,0,0
58401,-50,4,2,1,60,0,0
58454,-50,4,2,1,5,0,0
58723,-50,4,2,1,60,0,0
58776,-50,4,2,1,5,0,0
58937,-100,4,2,1,60,0,0
59366,-66.6666666666667,4,2,1,60,0,0
60116,-80,4,2,1,60,0,0
61509,-50,4,2,1,60,0,0
61562,-50,4,2,1,5,0,0
61830,-50,4,2,1,60,0,0
61883,-50,4,2,1,5,0,0
62151,-50,4,2,1,60,0,0
62204,-50,4,2,1,5,0,0
62366,-66.6666666666667,4,2,1,60,0,0
63544,-80,4,2,1,60,0,0
64937,-50,4,2,1,60,0,0
64990,-50,4,2,1,5,0,0
65259,-50,4,2,1,60,0,0
65312,-50,4,2,1,5,0,0
65580,-50,4,2,1,60,0,0
65633,-50,4,2,1,5,0,0
65794,-80,4,2,1,60,0,0
66223,-66.6666666666667,4,2,1,60,0,0
68794,-100,4,2,1,60,0,0
69223,-66.6666666666667,4,2,1,60,0,0
69651,-100,4,2,1,60,0,0
70080,-33.3333333333333,4,2,1,60,0,0
70133,-33.3333333333333,4,2,1,5,0,0
70401,-33.3333333333333,4,2,1,60,0,0
71794,-57.1428571428571,4,2,1,60,0,0
72223,-80,4,2,1,60,0,0
73509,-66.6666666666667,4,2,1,60,0,0
74044,-80,4,2,1,60,0,0
76080,-100,4,2,1,60,0,0
76723,-80,4,2,1,60,0,0
81009,-50,4,2,1,60,0,0
81062,-50,4,2,1,5,0,0
82080,-80,4,2,1,60,0,0
82509,-66.6666666666667,4,2,1,60,0,0
83794,-80,4,2,1,60,0,0
84116,-100,4,2,1,60,0,0
85509,-80,4,2,1,60,0,0
85830,-100,4,2,1,60,0,0
86366,-66.6666666666667,4,2,1,60,0,0
88080,-80,4,2,1,60,0,0
88937,-66.6666666666667,4,2,1,60,0,0
88990,-66.6666666666667,4,2,1,5,0,0
89259,-66.6666666666667,4,2,1,60,0,0
89847,-66.6666666666667,4,2,1,5,0,0
90009,-66.6666666666667,4,2,1,60,0,0
90651,-133.333333333333,4,2,1,60,0,0
93865,-133.333333333333,4,2,3,60,0,0
94080,-66.6666666666667,4,2,1,60,0,0
94401,-57.1428571428571,4,2,1,60,0,0
95366,-133.333333333333,4,2,1,60,0,0
95794,-80,4,2,1,60,0,0
96009,-50,4,2,1,60,0,0
96223,-66.6666666666667,4,2,1,60,0,0
96437,-40,4,2,1,60,0,0
96651,-100,4,2,1,60,0,0
97080,-200,4,2,1,60,0,0
97294,-100,4,2,1,60,0,0
97509,-80,4,2,1,60,0,0
97830,-100,4,2,1,60,0,0
99223,-80,4,2,1,60,0,0
100080,-100,4,2,1,60,0,0
100937,-80,4,2,1,60,0,0
101259,-100,4,2,1,60,0,0
102651,-80,4,2,1,60,0,0
104687,-100,4,2,1,60,0,0
106080,-80,4,2,1,60,0,0
106937,-100,4,2,1,60,0,0
107794,-80,4,2,1,60,0,0
108116,-100,4,2,1,60,0,0
109509,-66.6666666666667,4,2,1,60,0,0
109938,-100,4,2,1,60,0,0
110366,-66.6666666666667,4,2,1,60,0,0
110795,-133.333333333333,4,2,1,60,0,0
111223,-133.333333333333,4,2,2,40,0,0
116366,-80,4,2,2,40,0,0
118509,-133.333333333333,4,2,2,40,0,0
121937,-200,4,2,2,40,0,0
122151,-200,4,2,1,40,0,0
124937,-80,4,2,1,40,0,0
125579,-80,4,2,3,40,0,0
126723,-133.333333333333,4,2,3,40,0,0
128366,-400,4,2,3,40,0,0
130080,-400,4,2,1,40,0,0
130437,-200,4,2,1,40,0,0

[Colours]
Combo1 : 102,139,196
Combo2 : 192,192,192
Combo3 : 144,0,0
Combo4 : 185,60,60

[HitObjects]
87,251,1509,54,0,L|62:123,1,125,4|0,1:2|2:0,2:0:0:0:
79,138,1830,2,0,L|13:224,1,100,0|0,1:0|2:0,2:0:0:0:
0,221,2151,1,8,2:0:0:0:
120,350,2366,1,0,1:0:0:0:
193,300,2580,1,2,2:3:0:0:
212,323,2687,1,0,1:0:0:0:
239,310,2794,1,2,2:3:0:0:
483,222,3223,6,0,P|387:227|405:293,2,187.5,0|0|8,1:0|1:0|2:0,2:0:0:0:
462,323,4080,2,0,P|416:318|362:349,1,100,0|2,1:0|2:3,2:0:0:0:
288,338,4401,1,0,2:0:0:0:
272,349,4509,2,0,P|243:319|229:242,1,100,0|2,1:0|2:3,2:0:0:0:
255,107,4937,38,0,L|381:143,1,125,0|0,1:0|2:0,2:0:0:0:
386,133,5259,2,0,L|279:163,1,100,0|0,1:0|2:0,2:0:0:0:
283,177,5580,1,8,2:0:0:0:
351,52,5794,1,0,1:0:0:0:
277,0,6009,1,2,2:3:0:0:
260,21,6116,1,0,1:0:0:0:
236,13,6223,1,2,2:3:0:0:
51,157,6651,6,0,P|47:95|151:111,2,187.5,0|0|8,1:0|1:0|2:0,2:0:0:0:
51,157,7509,38,0,P|88:106|147:147,1,125,0|2,1:0|2:3,2:0:0:0:
218,138,7830,1,0,1:0:0:0:
218,138,7937,1,2,2:0:0:0:
51,157,8366,6,0,L|104:22,1,125,0|0,1:0|2:0,2:0:0:0:
112,50,8687,2,0,L|10:67,1,100,0|0,1:0|2:0,2:0:0:0:
0,55,9009,1,8,2:0:0:0:
130,200,9223,1,0,1:0:0:0:
75,282,9437,1,2,2:3:0:0:
58,257,9544,1,0,1:0:0:0:
34,262,9651,1,2,2:3:0:0:
171,360,10080,38,0,P|209:332|359:305,2,187.5,0|0|8,1:0|1:0|2:0,2:0:0:0:
269,375,10937,2,0,P|292:349|294:272,1,100,0|2,1:0|2:3,2:0:0:0:
249,224,11259,1,0,2:0:0:0:
240,209,11366,2,0,P|246:168|304:124,1,100,0|2,1:0|2:3,2:0:0:0:
464,45,11794,6,0,L|489:177,1,125,0|0,1:0|2:0,2:0:0:0:
503,163,12116,2,0,L|382:139,1,100,0|0,1:0|2:0,2:0:0:0:
394,152,12437,1,8,2:0:0:0:
464,309,12651,1,0,1:0:0:0:
392,368,12866,1,2,2:3:0:0:
372,345,12973,1,0,1:0:0:0:
343,350,13080,1,2,2:3:0:0:
198,67,13509,38,0,P|160:33|105:43,2,100.000003814697,0|0|0,1:0|2:0|2:0,2:0:0:0:
311,136,13937,6,0,P|338:102|376:95,2,66.6666666666667,0|0|0,2:0|2:0|2:0,2:0:0:0:
224,235,14366,38,0,P|201:201|153:201,2,83.3333333333333,0|0|0,1:0|2:0|2:0,2:0:0:0:
284,309,14794,6,0,P|311:275|318:273,2,50.0000019073487,2|2|2,2:3|2:3|2:3,2:0:0:0:
211,351,15223,38,0,L|83:326,1,125,4|0,1:2|2:0,2:0:0:0:
72,338,15544,2,0,L|46:232,1,100,0|0,1:2|2:0,2:0:0:0:
65,222,15866,1,8,2:0:0:0:
137,114,16080,5,0,1:0:0:0:
78,47,16294,1,2,2:3:0:0:
49,42,16401,1,0,1:0:0:0:
29,65,16509,1,2,2:3:0:0:
141,126,16723,1,0,3:0:0:0:
254,65,16937,38,0,P|294:32|358:35,1,100,4|0,1:2|2:0,2:0:0:0:
456,121,17366,5,0,2:0:0:0:
456,121,17473,2,0,B|407:107,1,50,0|8,2:0|2:0,2:0:0:0:
331,153,17687,1,0,2:0:0:0:
331,153,17794,2,0,P|338:199|383:242,1,100,0|2,1:0|2:3,2:0:0:0:
453,255,18116,1,0,2:0:0:0:
466,270,18223,2,0,P|428:302|420:350,1,100,0|2,1:0|2:3,2:0:0:0:
301,376,18651,38,0,B|258:368|258:368|212:325|212:325|168:314,1,150.000005722046,4|0,1:2|2:0,2:0:0:0:
33,352,19080,5,0,2:0:0:0:
47,362,19187,2,0,L|64:263,1,100,0|0,2:0|2:0,2:0:0:0:
83,250,19509,2,0,L|65:151,1,100,0|2,1:0|2:3,2:0:0:0:
209,98,19937,37,2,2:3:0:0:
190,87,20044,2,0,L|173:186,1,100,0|0,2:0|2:0,2:0:0:0:
173,185,20366,6,0,P|257:184|273:36,1,250,0|0,1:2|2:0,2:0:0:0:
184,0,21009,1,8,2:0:0:0:
97,57,21223,2,0,P|58:88|45:136,1,100,0|0,1:0|2:0,2:0:0:0:
5,205,21544,1,2,1:3:0:0:
19,218,21651,1,2,2:3:0:0:
19,358,22080,38,0,P|71:328|141:334,1,125,0|0,1:2|2:0,2:0:0:0:
169,313,22401,2,0,P|209:337|265:338,1,100,0|0,2:0|2:0,2:0:0:0:
293,353,22723,1,8,2:0:0:0:
366,256,22937,5,0,1:0:0:0:
307,189,23151,1,2,2:3:0:0:
278,184,23259,1,0,1:0:0:0:
258,207,23366,1,2,2:3:0:0:
370,268,23580,1,0,3:0:0:0:
462,181,23794,38,0,P|461:122|434:33,2,150,0|0|8,1:2|1:2|2:0,2:0:0:0:
339,283,24651,6,0,P|305:248|256:240,1,100,0|2,1:0|2:3,2:0:0:0:
216,171,24973,1,0,2:0:0:0:
201,158,25080,2,0,P|169:196|121:204,1,100,0|2,1:0|2:3,2:0:0:0:
56,84,25509,38,0,P|13:127|18:187,1,125,0|0,1:2|2:0,2:0:0:0:
0,207,25830,2,0,P|32:253|33:301,1,100,0|0,1:2|2:0,2:0:0:0:
16,322,26151,1,8,2:0:0:0:
116,349,26366,1,0,1:0:0:0:
131,213,26580,5,2,2:3:0:0:
103,208,26687,1,0,1:0:0:0:
85,228,26794,1,2,2:3:0:0:
314,317,27223,38,0,P|352:351|407:341,2,100.000003814697,0|0|2,1:2|2:0|2:3,2:0:0:0:
201,248,27651,6,0,P|174:282|136:289,2,66.6666666666667,0|2|2,2:0|2:3|2:3,2:0:0:0:
288,149,28080,38,0,P|311:183|359:183,2,83.3333333333333,0|0|2,1:0|2:0|2:3,2:0:0:0:
228,75,28509,6,0,P|201:109|194:111,2,50.0000019073487,2|2|2,2:3|2:3|2:3,2:0:0:0:
256,0,28937,38,0,L|363:23,1,100,4|2,1:2|2:3,2:0:0:0:
137,167,29366,2,0,L|34:93,1,100,0|10,2:0|2:0,2:0:0:0:
48,92,29687,1,0,2:0:0:0:
66,94,29794,2,0,P|138:63|134:167,1,200,0|2,1:0|2:3,2:0:0:0:
166,46,30437,1,0,2:0:0:0:
62,200,30651,6,0,P|18:283|4:347,1,150,0|0,1:2|1:2,2:0:0:0:
5,337,31080,2,0,B|-6:318|-6:318|80:289,1,100,0|8,2:0|2:0,2:0:0:0:
196,265,31509,38,0,B|258:289|258:289|223:231,1,125,4|2,1:2|2:3,2:0:0:0:
336,309,31937,6,0,B|380:369|380:369|376:293,1,150.000005722046,4|2,1:2|2:3,2:0:0:0:
460,102,32366,37,0,1:2:0:0:
310,208,32580,1,2,2:0:0:0:
474,297,32794,1,0,2:0:0:0:
417,200,33009,1,10,2:0:0:0:
318,294,33223,6,0,P|237:274|217:233,1,125,0|2,1:0|2:3,2:0:0:0:
159,189,33544,1,0,1:0:0:0:
147,175,33651,2,0,P|166:130|213:116,1,100,2|0,2:3|3:0,2:0:0:0:
0,194,34080,37,4,1:2:0:0:
307,162,34401,1,0,1:2:0:0:
12,201,34723,1,8,2:0:0:0:
291,243,34937,5,0,1:0:0:0:
139,133,35151,2,0,P|157:104|158:77,1,50,2|0,2:3|1:0,2:0:0:0:
141,216,35366,2,0,P|122:273|120:304,1,75.0000028610231,2|0,2:3|2:0,2:0:0:0:
120,287,35794,38,0,L|286:252,1,125,4|0,1:2|2:0,2:0:0:0:
331,243,36116,2,0,L|316:337,1,75.0000028610231,0|0,1:2|2:0,2:0:0:0:
308,328,36437,2,0,L|247:85,1,250,8|2,2:0|2:3,2:0:0:0:
231,84,36973,1,0,1:0:0:0:
231,100,37080,2,0,L|321:137,1,75.0000028610231,2|0,2:3|3:0,2:0:0:0:
252,0,37509,5,0,1:2:0:0:
470,209,37830,1,0,1:2:0:0:
186,298,38151,1,8,2:0:0:0:
207,201,38366,38,0,P|266:211|269:287,1,125,0|2,1:0|2:3,2:0:0:0:
212,312,38687,1,0,2:0:0:0:
186,298,38794,2,0,P|151:232|216:189,1,150.000005722046,0|2,1:0|2:3,2:0:0:0:
370,45,39223,6,0,B|386:50|386:50|361:165|361:165|395:182,1,150.000005722046,0|0,1:2|2:0,2:0:0:0:
396,169,39544,2,0,B|405:157|405:157|333:63|333:63|346:52,1,150.000005722046,0|0,1:2|2:0,2:0:0:0:
370,45,39866,38,0,B|342:269|342:269|372:306,2,250,8|2|0,2:0|2:3|2:0,2:0:0:0:
470,351,40937,6,0,B|467:308|467:308|446:288,1,62.5,4|0,1:2|2:0,2:0:0:0:
473,348,41794,38,0,B|440:317|440:317|420:321,1,62.5,0|0,2:0|2:0,2:0:0:0:
476,345,42651,6,0,B|294:321|294:321|258:359,1,225.000008583069,4|0,1:2|1:2,2:0:0:0:
88,262,43294,2,0,L|96:200,1,62.5,8|0,2:0|2:0,2:0:0:0:
171,143,43509,2,0,L|179:204,1,62.5,0|0,1:0|2:0,2:0:0:0:
85,343,43723,1,2,2:3:0:0:
58,342,43830,1,0,1:0:0:0:
36,325,43938,1,2,2:3:0:0:
36,39,44366,38,0,B|218:63|218:63|246:32,1,225.000008583069,0|0,1:2|1:2,2:0:0:0:
398,142,45009,1,8,2:0:0:0:
377,239,45224,2,0,P|318:229|315:153,1,125,0|2,1:0|2:3,2:0:0:0:
372,128,45545,1,0,2:0:0:0:
398,142,45652,2,0,P|433:208|368:251,1,150.000005722046,4|2,1:2|2:3,2:0:0:0:
246,351,46080,6,0,B|218:321|218:321|36:345,1,225.000008583069,0|0,1:2|1:2,2:0:0:0:
88,122,46723,2,0,L|96:184,1,62.5,8|0,2:0|2:0,2:0:0:0:
171,241,46938,2,0,L|179:180,1,62.5,0|0,1:0|2:0,2:0:0:0:
84,40,47152,1,2,2:3:0:0:
54,39,47259,1,0,1:0:0:0:
29,61,47367,1,2,2:3:0:0:
396,115,47794,38,0,P|291:116|269:218,1,225.000008583069,0|0,1:2|1:2,2:0:0:0:
331,56,48437,1,8,2:0:0:0:
403,200,48651,2,0,P|372:199|345:183,1,62.5,0|0,1:0|2:0,2:0:0:0:
436,47,48866,6,0,B|505:15|505:15|476:83,1,150.000005722046,2|2,2:3|2:3,2:0:0:0:
433,324,49294,1,2,2:0:0:0:
476,234,49509,38,0,P|370:245|337:347,1,225.000008583069,4|0,1:2|1:2,2:0:0:0:
341,363,50151,2,0,L|279:349,1,62.5,8|0,2:0|2:0,2:0:0:0:
92,199,50366,2,0,L|153:186,1,62.5,0|0,1:0|2:0,2:0:0:0:
234,187,50580,1,2,2:3:0:0:
234,215,50687,1,0,1:0:0:0:
217,237,50795,1,2,2:3:0:0:
73,373,51223,6,0,B|94:310|44:266|38:277|-12:234|9:171,1,225.000008583069,0|0,1:2|1:2,2:0:0:0:
215,125,51866,1,8,2:0:0:0:
194,28,52081,2,0,P|135:38|132:114,1,125,0|2,1:0|2:3,2:0:0:0:
189,139,52402,1,0,2:0:0:0:
215,155,52509,2,0,P|273:132|334:118,1,125,0|2,1:0|2:3,2:0:0:0:
468,148,52937,38,0,P|447:44|327:50,2,225.000008583069,0|0|8,1:2|1:2|2:0,2:0:0:0:
390,233,53794,2,0,P|370:256|364:287,1,62.5,0|0,1:0|2:0,2:0:0:0:
414,348,54009,1,2,2:3:0:0:
436,328,54116,1,0,1:0:0:0:
442,295,54223,1,2,2:3:0:0:
314,67,54651,6,0,P|352:33|407:43,1,100.000003814697,4|0,1:2|2:0,2:0:0:0:
201,136,54937,37,0,2:0:0:0:
201,136,55080,2,0,P|174:102|136:95,1,66.6666666666667,0|0,2:0|2:0,2:0:0:0:
288,235,55366,5,0,2:0:0:0:
288,235,55509,2,0,P|311:201|359:201,1,83.3333333333333,0|0,1:0|2:0,2:0:0:0:
228,309,55794,37,0,2:0:0:0:
228,309,55937,2,0,P|201:275|194:273,2,50.0000019073487,2|2|2,2:3|2:3|2:3,2:0:0:0:
300,358,56366,5,4,1:2:0:0:
90,208,56687,2,0,L|24:188,1,62.5,2|0,1:2|2:0,2:0:0:0:
59,302,56901,2,0,L|123:171,1,125,2|0,2:0|2:0,2:0:0:0:
102,110,57223,1,0,1:0:0:0:
276,226,57437,1,2,2:3:0:0:
277,198,57544,1,0,1:0:0:0:
310,190,57651,1,2,2:3:0:0:
316,196,58080,38,0,P|328:225|323:270,1,50,4|0,1:2|2:0,2:0:0:0:
453,293,58401,2,0,P|434:331|411:342,1,50,0|0,1:2|2:0,2:0:0:0:
209,263,58723,2,0,P|211:303|235:330,1,50,8|0,2:0|2:0,2:0:0:0:
309,366,58937,6,0,P|308:328|362:286,1,100,0|2,1:0|2:3,2:0:0:0:
407,230,59259,1,0,2:0:0:0:
420,245,59366,2,0,P|441:193|372:144,1,150.000005722046,0|2,1:0|2:3,2:0:0:0:
512,258,59794,37,0,1:2:0:0:
254,152,60009,1,0,2:0:0:0:
242,168,60116,2,0,L|377:128,2,125,0|0|0,1:2|2:0|2:0,2:0:0:0:
181,222,60651,1,0,1:0:0:0:
15,116,60866,1,2,2:3:0:0:
41,113,60973,1,0,1:0:0:0:
53,89,61080,1,2,2:3:0:0:
44,81,61509,6,0,P|30:124|35:145,1,50,4|0,1:2|2:0,2:0:0:0:
186,248,61830,2,0,P|162:207|141:196,1,50,0|0,1:2|2:0,2:0:0:0:
180,45,62151,2,0,P|220:75|227:107,1,50,8|0,2:0|2:0,2:0:0:0:
181,259,62366,38,0,P|140:199|129:115,1,150.000005722046,0|2,1:0|2:3,2:0:0:0:
128,123,62687,1,0,1:0:0:0:
395,54,63544,6,0,L|538:1,1,125,0|0,1:2|2:0,2:0:0:0:
494,3,63866,2,0,L|483:79,1,62.5,8|0,2:0|2:0,2:0:0:0:
415,152,64080,1,0,1:0:0:0:
272,39,64294,1,2,2:3:0:0:
259,57,64401,1,0,1:0:0:0:
238,51,64509,1,2,2:3:0:0:
239,44,64937,38,0,P|272:78|271:100,1,50,0|0,1:2|2:0,2:0:0:0:
468,150,65259,2,0,P|420:149|405:165,1,50,0|0,1:2|2:0,2:0:0:0:
258,259,65580,2,0,P|290:248|296:228,1,50,8|0,2:0|2:0,2:0:0:0:
332,153,65794,6,0,B|312:160|312:160|330:175|330:175|321:211|333:283,1,125,0|2,1:0|2:3,2:0:0:0:
383,317,66116,1,0,2:0:0:0:
383,317,66223,2,0,P|397:256|321:271,1,150.000005722046,0|2,1:0|2:3,2:0:0:0:
102,259,66651,37,0,1:2:0:0:
222,367,66866,1,0,2:0:0:0:
198,339,66973,1,0,1:2:0:0:
221,314,67080,2,0,L|301:337,1,75.0000028610231,0|0,2:0|2:0,2:0:0:0:
386,358,67294,1,8,2:0:0:0:
291,178,67509,6,0,B|276:162|276:162|270:185|270:185|233:192|167:247,1,150.000005722046,0|2,1:0|2:3,2:0:0:0:
102,219,67830,1,0,1:0:0:0:
89,210,67937,1,2,2:3:0:0:
378,109,68366,38,0,P|416:75|471:85,1,100.000003814697,4|0,1:2|2:0,2:0:0:0:
367,279,68651,5,2,2:3:0:0:
367,279,68794,2,0,P|323:275|296:248,1,66.6666666666667,0|0,2:0|2:0,2:0:0:0:
148,106,69080,37,2,2:3:0:0:
148,106,69223,2,0,P|188:110|224:172,1,100.000003814697,4|0,1:2|2:0,2:0:0:0:
101,226,69508,5,0,2:0:0:0:
101,226,69651,2,0,P|73:212|67:191,1,50,2|0,2:3|2:0,2:0:0:0:
258,11,70080,38,0,B|268:47|268:47|265:7,1,75.0000028610231,4|0,1:2|2:0,2:0:0:0:
253,265,70401,5,0,1:0:0:0:
253,265,71794,38,0,B|256:239|256:239|375:281|375:281|364:301,1,175.00000166893,4|0,1:2|2:0,2:0:0:0:
156,319,72223,2,0,P|103:295|102:239,2,83.3333333333333,0|0|0,2:0|2:0|2:0,2:0:0:0:
253,265,72651,6,0,P|226:211|150:191,1,125,0|2,1:0|2:3,2:0:0:0:
85,192,72973,1,0,2:0:0:0:
66,181,73080,2,0,P|65:150|83:124,1,62.5,0|0,1:0|2:0,2:0:0:0:
151,77,73294,1,2,2:3:0:0:
28,265,73509,38,0,B|126:302|126:302|163:279,1,150.000005722046,4|0,1:2|2:0,2:0:0:0:
270,135,73937,5,0,2:0:0:0:
257,126,74044,2,0,P|288:74|349:82,1,125,0|0,2:0|2:0,2:0:0:0:
439,95,74366,2,0,P|403:145|387:205,1,125,0|2,1:0|2:3,2:0:0:0:
465,297,74794,37,2,2:3:0:0:
478,306,74901,2,0,P|447:358|386:350,1,125,0|0,2:0|2:0,2:0:0:0:
303,360,75223,6,0,P|217:346|200:204,1,250,4|0,1:2|2:0,2:0:0:0:
294,254,75866,1,8,2:0:0:0:
388,201,76080,2,0,P|347:173|332:126,1,100,0|2,1:0|2:3,2:0:0:0:
303,50,76401,1,0,1:0:0:0:
317,37,76508,1,2,2:3:0:0:
183,23,76723,38,0,P|155:37|138:62,1,62.5,0|0,2:0|2:0,2:0:0:0:
234,146,76937,6,0,P|190:101|135:74,1,125,4|0,1:2|2:0,2:0:0:0:
112,238,77366,37,0,2:0:0:0:
112,238,77473,2,0,P|101:267|77:286,1,62.5,0|8,2:0|2:0,2:0:0:0:
39,187,77687,1,0,2:0:0:0:
39,187,77794,2,0,P|140:220|147:371,1,250,0|2,1:0|2:3,2:0:0:0:
72,371,78437,1,0,3:0:0:0:
188,262,78651,6,0,B|222:257|251:279|238:286|267:307|301:303,1,125,4|0,1:2|2:0,2:0:0:0:
382,346,78973,1,0,1:2:0:0:
382,346,79080,2,0,P|407:329|422:301,1,62.5,0|0,2:0|2:0,2:0:0:0:
278,166,79294,2,0,P|292:193|298:224,1,62.5,8|0,2:0|2:0,2:0:0:0:
496,368,79509,2,0,P|437:258|412:136,1,250,0|0,1:0|1:0,2:0:0:0:
469,70,80151,1,2,2:3:0:0:
336,16,80366,37,4,1:2:0:0:
176,80,80687,5,0,1:2:0:0:
256,224,81009,38,0,P|271:243|275:267,1,50,8|0,2:0|2:0,2:0:0:0:
192,277,82080,6,0,P|157:253|118:239,2,83.3333333333333,4|2|2,1:2|2:3|2:3,2:0:0:0:
320,341,82509,38,0,P|354:317|393:303,1,75.0000028610231,2|0,2:3|2:0,2:0:0:0:
399,307,82723,1,0,2:0:0:0:
253,93,83794,6,0,L|106:64,1,125,4|2,1:2|2:3,2:0:0:0:
118,58,84116,2,0,L|167:165,1,100,0|0,1:2|2:0,2:0:0:0:
147,168,84437,1,10,2:0:0:0:
0,30,84651,37,0,2:0:0:0:
331,334,85509,6,0,P|366:280|437:281,1,125,0|0,1:2|2:0,2:0:0:0:
475,333,85830,2,0,P|470:359|472:335,1,100,0|0,1:2|2:0,2:0:0:0:
439,261,86151,1,8,2:0:0:0:
499,162,86366,38,0,B|476:132|476:132|411:165|411:165|384:138,1,150.000005722046,4|2,1:2|2:3,2:0:0:0:
337,30,86794,6,0,B|300:21|300:21|271:88|271:88|232:85,1,150.000005722046,4|2,1:2|2:3,2:0:0:0:
104,11,87223,37,0,1:2:0:0:
191,178,87437,1,2,2:3:0:0:
31,74,87651,1,0,2:0:0:0:
0,149,87866,1,10,2:0:0:0:
95,241,88080,6,0,P|157:180|219:186,1,125,0|2,1:0|2:3,2:0:0:0:
255,131,88401,1,0,1:0:0:0:
270,144,88509,1,2,2:3:0:0:
256,340,88937,38,0,P|260:310|260:281,1,37.5000014305115,0|0,1:2|2:0,2:0:0:0:
162,52,89259,1,0,1:2:0:0:
387,233,89580,1,8,2:0:0:0:
256,340,89794,6,0,P|251:310|252:281,1,37.5000014305115,0|0,1:0|2:0,2:0:0:0:
346,150,90009,1,2,2:3:0:0:
141,300,90223,1,2,2:3:0:0:
255,339,90651,38,0,B|384:368|478:243|353:101|250:180|250:180|148:249|11:103|147:-35|258:31|258:31|212:105|212:105|297:250|297:250|263:324,1,1125.00004291535,2|0,2:0|3:0,2:0:0:0:
156,355,94080,6,0,P|83:310|97:242,1,150.000005722046,0|0,1:0|2:0,2:0:0:0:
15,201,94401,2,0,P|116:174|85:102,1,175.00000166893,0|0,1:0|2:0,2:0:0:0:
152,59,94723,1,8,2:0:0:0:
258,241,94937,1,0,1:0:0:0:
396,88,95151,1,2,2:3:0:0:
421,119,95259,1,0,1:0:0:0:
468,99,95366,2,0,P|450:60|423:40,1,75.0000028610231,2|0,2:3|2:0,2:0:0:0:
425,41,95794,6,2,L|415:82,2,31.25,6|2|2,2:0|2:0|2:0,2:0:0:0:
306,126,96009,6,2,L|365:176,2,50,2|2|2,2:0|2:0|2:0,2:0:0:0:
185,140,96223,38,2,L|145:148,2,37.5000014305115,2|2|2,2:0|2:0|2:0,2:0:0:0:
187,231,96437,6,2,L|170:292,2,62.5,2|2|2,2:0|2:0|2:0,2:0:0:0:
69,321,96651,38,2,L|43:292,2,25,2|2|2,1:3|2:0|2:0,2:0:0:0:
184,291,96866,6,0,L|173:238,1,50.0000019073487,2|0,2:3|2:1,2:1:0:0:
157,137,97080,38,0,L|180:152,1,25,0|0,1:3|2:1,2:1:0:0:
331,160,97294,6,0,L|340:97,1,50,2|0,2:3|2:0,2:1:0:0:
425,41,97509,6,0,L|471:162,1,125,4|0,1:2|2:0,2:0:0:0:
449,172,97830,2,0,L|499:75,1,100,0|0,1:0|2:0,2:0:0:0:
512,77,98151,1,8,2:0:0:0:
359,175,98366,1,0,1:0:0:0:
406,253,98580,1,2,2:3:0:0:
429,273,98688,1,0,1:0:0:0:
424,302,98795,1,2,2:3:0:0:
189,335,99223,6,0,P|184:239|118:257,2,187.5,0|0|8,1:0|1:0|2:0,2:0:0:0:
67,315,100080,2,0,P|72:269|41:215,1,100,0|2,1:0|2:3,2:0:0:0:
22,141,100401,1,0,2:0:0:0:
11,125,100509,2,0,P|34:86|109:75,1,100,0|2,1:0|2:3,2:0:0:0:
214,30,100937,38,0,L|250:156,1,125,0|0,1:0|2:0,2:0:0:0:
240,161,101259,2,0,L|270:54,1,100,0|0,1:0|2:0,2:0:0:0:
284,58,101580,1,8,2:0:0:0:
152,143,101794,1,0,1:0:0:0:
186,230,102009,1,2,2:3:0:0:
206,253,102117,1,0,1:0:0:0:
235,248,102224,1,2,2:3:0:0:
341,188,102651,6,0,P|273:254|241:356,2,187.5,0|0|8,1:0|1:0|2:0,2:0:0:0:
341,188,103509,38,0,P|392:225|351:284,1,125,0|2,1:0|2:3,2:0:0:0:
338,353,103830,1,0,1:0:0:0:
338,353,103937,1,2,2:0:0:0:
341,188,104366,6,0,L|206:135,1,125,0|0,1:0|2:0,2:0:0:0:
234,127,104687,2,0,L|251:229,1,100,0|0,1:0|2:0,2:0:0:0:
239,239,105009,1,8,2:0:0:0:
151,94,105223,1,0,1:0:0:0:
238,43,105437,1,2,2:3:0:0:
267,38,105544,1,0,1:0:0:0:
287,61,105652,1,2,2:3:0:0:
410,205,106080,38,0,P|428:112|480:31,2,187.5,0|0|8,1:0|1:0|2:0,2:0:0:0:
495,293,106937,2,0,P|466:281|392:304,1,100,0|2,1:0|2:3,2:0:0:0:
329,338,107259,1,0,2:0:0:0:
314,347,107366,2,0,P|271:336|233:281,1,100,0|2,1:0|2:3,2:0:0:0:
241,205,107794,6,0,L|109:180,1,125,0|0,1:0|2:0,2:0:0:0:
123,166,108116,2,0,L|147:287,1,100,0|0,1:0|2:0,2:0:0:0:
134,275,108437,1,8,2:0:0:0:
43,129,108651,1,0,1:0:0:0:
127,82,108866,1,2,2:3:0:0:
156,77,108973,1,0,1:0:0:0:
176,100,109080,1,2,2:3:0:0:
134,275,109509,38,0,P|96:309|41:299,1,100.000003814697,0|0,1:0|2:0,2:0:0:0:
145,105,109795,5,0,2:0:0:0:
145,105,109938,2,0,P|189:109|216:136,1,66.6666666666667,2|2,2:3|2:3,2:0:0:0:
364,278,110224,37,2,2:3:0:0:
364,278,110366,2,0,P|324:274|288:212,1,100.000003814697,0|0,1:0|2:0,2:0:0:0:
411,158,110652,5,0,2:0:0:0:
411,158,110795,2,0,P|439:172|445:193,1,50,2|2,2:3|2:3,2:0:0:0:
491,261,111080,37,2,2:3:0:0:
509,248,111223,1,8,2:3:0:0:
329,356,111651,6,0,L|236:338,4,75.0000028610231,0|8|0|2|2,2:0|2:0|2:0|2:0|2:0,2:0:0:0:
155,72,112937,37,8,2:3:0:0:
243,355,113366,2,0,L|169:369,4,75.0000028610231,0|8|0|2|2,2:0|2:0|2:0|2:0|2:0,2:0:0:0:
57,264,114437,1,8,2:3:0:0:
88,73,114651,5,8,2:3:0:0:
152,361,115080,2,0,L|78:346,4,75.0000028610231,0|8|0|2|2,2:0|2:0|2:0|2:0|2:0,2:0:0:0:
78,346,116366,38,0,B|94:350|94:350|223:324,1,125,8|0,2:3|2:0,2:0:0:0:
213,318,116687,1,0,2:0:0:0:
22,98,117009,5,8,2:0:0:0:
113,158,117223,1,8,2:3:0:0:
15,204,117437,1,2,2:0:0:0:
15,204,117544,1,0,2:0:0:0:
441,305,118080,37,8,2:3:0:0:
348,7,118509,2,0,L|448:26,4,75.0000028610231,0|8|0|2|2,2:0|2:0|2:0|2:0|2:0,2:0:0:0:
337,335,119794,5,8,2:3:0:0:
260,36,120223,2,0,L|360:17,4,75.0000028610231,0|8|0|2|2,2:0|2:0|2:0|2:0|2:0,2:0:0:0:
416,77,121294,1,8,2:3:0:0:
245,300,121509,37,8,2:3:0:0:
245,300,121937,6,0,L|250:242,4,50,0|2|2|0|0,2:0|2:0|2:0|2:0|2:0,2:0:0:0:
245,300,123223,37,2,2:0:0:0:
67,219,123544,1,0,2:0:0:0:
245,300,124080,5,2,2:0:0:0:
67,219,124401,1,0,2:0:0:0:
173,344,124937,38,0,B|172:359|181:366|181:366|119:322|51:310|51:310|71:309|80:294,4,187.5,2|0|0|0|0,2:3|2:0|3:0|2:0|2:0,2:0:0:0:
154,235,126437,1,0,3:0:0:0:
381,295,126723,6,0,B|379:296|392:299|392:299|370:309|353:331|353:331|355:326|352:318,1,75.0000028610231,0|0,2:0|2:0,2:0:0:0:
254,109,128366,6,6,L|256:100,30,6.25,6|0|0|0|0|0|0|0|0|0|0|0|0|0|0|0|0|0|0|0|0|0|0|0|0|0|0|0|0|0|4,2:0|2:0|2:0|2:0|2:0|2:0|2:0|2:0|2:0|2:0|2:0|2:0|2:0|2:0|2:0|2:0|2:0|2:0|2:0|2:0|2:0|2:0|2:0|2:0|2:0|2:0|2:0|2:0|2:0|2:0|2:0,2:0:0:0:
256,192,130080,21,2,1:3:0:0:
321,51,130437,6,0,L|376:39,1,50,2|2,0:0|0:0,0:0:0:0:
191,51,131294,2,0,L|142:40,1,50,2|2,0:0|0:0,0:0:0:0:
