osu file format v14

[General]
AudioFilename: audio.mp3
AudioLeadIn: 0
PreviewTime: 42721
Countdown: 0
SampleSet: Soft
StackLeniency: 0.6
Mode: 0
LetterboxInBreaks: 0
WidescreenStoryboard: 0

[Editor]
Bookmarks: 14878,29647,44416,59185,102109,102137,102166,102195,102224,102253,102282,102310,102339,102368,102397,102426,102455,102484,102512,102541,102570,102599,102628,102657,102685,102714,102743,102772,102801,102830,102859,102887,102916,102945,102974,103003,103032,103060,103089,103118,103147,103176,103205,103234,103262,118262,140416,155185,197647,214262,229032
DistanceSpacing: 1.1
BeatDivisor: 8
GridSize: 32
TimelineZoom: 1.5

[Metadata]
Title:goosebumps feat. Kendrick Lamar
TitleUnicode:goosebumps feat. Kendrick Lamar
Artist:Travis Scott
ArtistUnicode:Travis Scott
Creator:jamesjan3
Version:Hard feat. jasontime
Source:
Tags:some hero jasontime jasontime12345 english rap hip hop hip-hop birds in the trap sing mcknight
BeatmapID:2508895
BeatmapSetID:1204912

[Difficulty]
HPDrainRate:5
CircleSize:4
OverallDifficulty:7
ApproachRate:8
SliderMultiplier:2
SliderTickRate:1

[Events]
//Background and Video events
0,0,"bfg.jpg",0,0
//Break Periods
2,118382,123202
//Storyboard Layer 0 (Background)
//Storyboard Layer 1 (Fail)
//Storyboard Layer 2 (Pass)
//Storyboard Layer 3 (Foreground)
//Storyboard Layer 4 (Overlay)
//Storyboard Sound Samples

[TimingPoints]
29,461.538461538462,4,2,0,50,1,0
12490,-142.857142857143,4,2,0,50,0,0
14798,-250,4,2,0,50,0,0
29567,-133.333333333333,4,2,0,50,0,0
42721,-100,4,2,0,75,0,0
44336,-83.3333333333333,4,2,1,75,0,1
45029,-83.3333333333333,4,2,1,75,0,1
58413,-111.111111111111,4,2,1,75,0,1
59105,-83.3333333333333,4,2,1,75,0,0
60375,-83.3333333333333,4,3,0,75,0,0
60490,-83.3333333333333,4,2,1,75,0,0
60605,-83.3333333333333,4,3,0,75,0,0
60721,-83.3333333333333,4,2,1,75,0,0
61990,-83.3333333333333,4,3,0,75,0,0
62105,-83.3333333333333,4,2,1,75,0,0
62221,-83.3333333333333,4,3,0,75,0,0
62336,-83.3333333333333,4,2,1,75,0,0
62452,-83.3333333333333,4,3,0,75,0,0
62567,-83.3333333333333,4,2,1,75,0,0
64067,-83.3333333333333,4,3,0,75,0,0
64182,-83.3333333333333,4,2,1,75,0,0
64298,-83.3333333333333,4,3,0,75,0,0
64413,-83.3333333333333,4,2,1,75,0,0
65913,-83.3333333333333,4,3,0,75,0,0
66029,-83.3333333333333,4,2,1,75,0,0
66144,-83.3333333333333,4,3,0,75,0,0
66259,-83.3333333333333,4,2,1,75,0,0
67759,-83.3333333333333,4,3,0,75,0,0
67875,-83.3333333333333,4,2,1,75,0,0
67990,-83.3333333333333,4,3,0,75,0,0
68105,-83.3333333333333,4,2,1,75,0,0
69605,-83.3333333333333,4,3,0,75,0,0
69721,-83.3333333333333,4,2,1,75,0,0
69836,-83.3333333333333,4,3,0,75,0,0
69952,-83.3333333333333,4,2,1,75,0,0
71452,-83.3333333333333,4,3,0,75,0,0
71567,-83.3333333333333,4,2,1,75,0,0
71682,-83.3333333333333,4,3,0,75,0,0
71798,-83.3333333333333,4,2,1,75,0,0
72836,-83.3333333333333,4,3,0,75,0,0
72952,-83.3333333333333,4,2,1,75,0,0
73298,-83.3333333333333,4,3,0,75,0,0
73875,-83.3333333333333,4,2,1,75,0,0
75144,-83.3333333333333,4,3,0,75,0,0
75259,-83.3333333333333,4,2,1,75,0,0
75375,-83.3333333333333,4,3,0,75,0,0
75490,-83.3333333333333,4,2,1,75,0,0
75605,-83.3333333333333,4,3,0,75,0,0
75721,-83.3333333333333,4,2,1,75,0,0
76990,-83.3333333333333,4,3,0,75,0,0
77105,-83.3333333333333,4,2,1,75,0,0
77221,-83.3333333333333,4,3,0,75,0,0
77336,-83.3333333333333,4,2,1,75,0,0
78605,-83.3333333333333,4,3,0,75,0,0
78721,-83.3333333333333,4,2,1,75,0,0
78836,-83.3333333333333,4,3,0,75,0,0
78952,-83.3333333333333,4,2,1,75,0,0
79067,-83.3333333333333,4,3,0,75,0,0
79182,-83.3333333333333,4,2,1,75,0,0
79298,-83.3333333333333,4,3,0,75,0,0
79413,-83.3333333333333,4,2,1,75,0,0
80221,-83.3333333333333,4,3,0,75,0,0
80336,-83.3333333333333,4,2,1,75,0,0
80682,-83.3333333333333,4,3,0,75,0,0
80798,-83.3333333333333,4,2,1,75,0,0
80913,-83.3333333333333,4,3,0,75,0,0
81029,-83.3333333333333,4,2,1,75,0,0
87721,-83.3333333333333,4,3,0,50,0,0
88644,-83.3333333333333,4,2,1,75,0,0
101567,-83.3333333333333,4,2,0,50,0,0
102029,-83.3333333333333,4,2,0,60,0,0
102490,-62.5,4,2,0,70,0,0
102952,-50,4,2,0,80,0,0
103413,-111.111111111111,4,2,1,75,0,0
103875,-83.3333333333333,4,2,1,75,0,0
116798,-83.3333333333333,4,2,0,60,0,0
117259,-62.5,4,2,0,70,0,0
117721,-50,4,2,0,80,0,0
118182,-50,4,2,0,50,0,0
124644,-250,4,2,0,50,0,0
125567,-133.333333333333,4,2,0,50,0,0
138721,-100,4,2,0,75,0,0
140336,-83.3333333333333,4,2,1,75,0,1
154644,-83.3333333333333,4,2,0,75,0,1
155105,-100,4,2,1,75,0,0
156375,-100,4,2,0,75,0,0
156490,-100,4,2,1,75,0,0
158221,-100,4,2,0,75,0,0
158336,-100,4,2,1,75,0,0
160067,-100,4,2,0,75,0,0
160182,-100,4,2,1,75,0,0
160990,-100,4,2,0,75,0,0
161105,-100,4,2,1,75,0,0
161913,-100,4,2,0,75,0,0
162029,-100,4,2,1,75,0,0
163759,-100,4,2,0,75,0,0
163875,-100,4,2,1,75,0,0
165605,-100,4,2,0,75,0,0
165721,-100,4,2,1,75,0,0
167452,-100,4,2,0,75,0,0
167567,-100,4,2,1,75,0,0
168375,-100,4,2,0,75,0,0
168490,-100,4,2,1,75,0,0
168952,-100,4,2,0,75,0,0
169875,-100,4,2,1,75,0,0
170221,-100,4,2,0,75,0,0
170336,-100,4,2,1,75,0,0
170913,-100,4,2,0,75,0,0
171029,-100,4,2,1,75,0,0
171144,-100,4,2,0,75,0,0
171259,-100,4,2,1,75,0,0
171375,-100,4,2,0,75,0,0
171490,-100,4,2,1,75,0,0
171605,-100,4,2,0,75,0,0
171721,-100,4,2,1,75,0,0
171836,-100,4,2,0,75,0,0
171952,-100,4,2,1,75,0,0
172759,-100,4,2,0,75,0,0
173567,-100,4,2,1,75,0,0
173913,-100,4,2,0,75,0,0
174029,-100,4,2,1,75,0,0
174144,-100,4,2,0,75,0,0
174259,-100,4,2,1,75,0,0
174605,-100,4,2,0,75,0,0
174721,-100,4,2,1,75,0,0
174836,-100,4,2,0,75,0,0
174952,-100,4,2,1,75,0,0
175298,-100,4,2,0,75,0,0
175413,-100,4,2,1,75,0,0
176221,-100,4,2,0,75,0,0
176336,-100,4,2,1,75,0,0
176452,-100,4,2,0,75,0,0
177259,-100,4,2,1,75,0,0
177605,-100,4,2,0,75,0,0
177721,-100,4,2,1,75,0,0
177836,-100,4,2,0,75,0,0
177952,-100,4,2,1,75,0,0
178298,-100,4,2,0,75,0,0
178413,-100,4,2,1,75,0,0
178529,-100,4,2,0,75,0,0
178644,-100,4,2,1,75,0,0
178990,-100,4,2,0,75,0,0
179105,-100,4,2,1,75,0,0
179221,-100,4,2,0,75,0,0
179336,-100,4,2,1,75,0,0
180144,-100,4,2,0,75,0,0
180952,-100,4,2,1,75,0,0
181298,-100,4,2,0,75,0,0
181413,-100,4,2,1,75,0,0
181759,-100,4,2,0,75,0,0
181875,-100,4,2,1,75,0,0
181990,-100,4,2,0,75,0,0
182105,-100,4,2,1,75,0,0
182221,-100,4,2,0,75,0,0
182336,-100,4,2,1,75,0,0
182452,-100,4,2,0,75,0,0
182567,-100,4,2,1,75,0,0
183144,-100,4,2,0,75,0,0
183259,-100,4,2,1,75,0,0
183375,-100,4,2,0,75,0,0
183490,-100,4,2,1,75,0,0
183605,-100,4,2,0,75,0,0
183721,-100,4,2,1,75,0,0
183836,-100,4,2,0,75,0,0
183952,-100,4,2,1,75,0,0
184298,-100,4,2,0,75,0,0
184644,-100,4,2,1,75,0,0
184990,-100,4,2,0,75,0,0
185105,-100,4,2,1,75,0,0
185221,-100,4,2,0,75,0,0
185336,-100,4,2,1,75,0,0
186144,-100,4,2,0,75,0,0
186259,-100,4,2,1,75,0,0
188721,-100,4,2,0,75,0,0
189259,-100,4,2,1,75,0,0
189836,-100,4,2,0,75,0,0
189952,-100,4,2,1,75,0,0
190298,-100,4,2,0,75,0,0
190413,-100,4,2,1,75,0,0
190990,-100,4,2,0,75,0,0
191105,-100,4,2,1,75,0,0
191452,-100,4,2,0,75,0,0
191567,-100,4,2,1,75,0,0
191682,-100,4,2,0,75,0,0
191798,-100,4,2,1,75,0,0
192144,-100,4,2,0,75,0,0
192259,-100,4,2,1,75,0,0
192836,-100,4,2,0,75,0,0
192952,-100,4,2,1,75,0,0
193529,-100,4,2,0,75,0,0
193644,-100,4,2,1,75,0,0
194221,-100,4,2,0,75,0,0
194336,-100,4,2,1,75,0,0
194452,-100,4,2,0,75,0,0
194567,-100,4,2,1,75,0,0
195144,-100,4,2,0,75,0,0
195259,-100,4,2,1,75,0,0
195375,-100,4,2,0,75,0,0
195490,-100,4,2,1,75,0,0
195836,-100,4,2,0,75,0,0
195952,-100,4,2,1,75,0,0
196529,-100,4,2,0,75,0,0
196644,-100,4,2,1,75,0,0
196990,-100,4,2,0,75,0,0
197105,-100,4,2,1,75,0,0
197221,-100,4,2,0,75,0,0
197336,-100,4,2,1,75,0,0
197567,-100,4,2,0,75,0,0
197798,-100,4,2,0,50,0,0
198490,-133.333333333333,4,2,0,50,0,0
212567,-133.333333333333,4,2,0,75,0,0
214182,-83.3333333333333,4,2,1,75,0,1
228490,-83.3333333333333,4,2,0,75,0,1
228952,-83.3333333333333,4,2,1,75,0,0

[Colours]
Combo1 : 0,162,81
Combo2 : 170,0,0
Combo3 : 255,47,47
Combo4 : 0,255,0

[HitObjects]
277,49,12490,6,0,B|289:19|215:13|213:84|246:130,2,139.999995727539,2|0|0,0:2|0:0|0:0,0:0:0:0:
83,28,14798,5,2,0:0:0:0:
8,50,15029,2,0,B|58:36|95:44,1,80,2|0,0:0|0:0,0:0:0:0:
159,91,15721,1,2,0:0:0:0:
159,91,15952,1,2,0:0:0:0:
393,120,16413,2,0,B|380:68|306:37|231:84|289:152|218:192|170:168,1,280,2|0,0:0|0:0,0:0:0:0:
7,158,18490,37,2,0:0:0:0:
29,83,18721,2,0,B|15:133|23:170,1,80,2|0,0:0|0:0,0:0:0:0:
70,234,19413,1,2,0:0:0:0:
70,234,19644,1,2,0:0:0:0:
20,355,20105,2,0,B|61:304|137:329|140:392|193:363,1,180,2|0,0:0|0:0,0:0:0:0:
302,326,21375,6,0,L|279:334,1,20,2|0,0:0|0:0,0:0:0:0:
259,329,21605,2,0,L|321:309,1,60,2|0,0:0|0:0,0:0:0:0:
400,310,22182,37,2,0:0:0:0:
361,383,22413,2,0,P|402:355|422:326,1,80,2|0,0:0|0:0,0:0:0:0:
493,291,23105,1,2,0:0:0:0:
493,291,23336,2,0,P|473:260|472:254,1,40,2|0,0:0|0:0,0:0:0:0:
512,187,23798,2,0,B|452:152|376:198|400:238|333:272|253:220,1,280,2|0,0:0|0:0,0:0:0:0:
257,45,25875,5,2,0:0:0:0:
357,53,26105,2,0,P|312:52|271:61,1,80,2|0,0:0|0:0,0:0:0:0:
234,125,26798,1,2,0:0:0:0:
234,125,27029,2,0,P|205:137|194:147,1,40,2|0,0:0|0:0,0:0:0:0:
194,221,27490,2,0,P|181:248|167:300,1,80,2|2,0:0|0:0,0:0:0:0:
198,368,28182,38,0,L|238:365,1,40,2|2,0:0|0:0,0:0:0:0:
310,314,28644,2,0,L|354:328,1,40,2|2,0:0|0:0,0:0:0:0:
396,322,29105,1,2,0:0:0:0:
425,334,29336,1,2,0:0:0:0:
436,324,29567,6,0,L|453:162,1,150.000005722046,2|0,0:0|0:0,0:0:0:0:
467,166,30721,37,2,0:0:0:0:
385,145,30952,2,0,B|337:176|317:205,1,75.0000028610231,2|2,0:0|0:0,0:0:0:0:
313,280,31413,2,0,L|157:264,1,150.000005722046,2|2,0:0|0:0,0:0:0:0:
153,249,32336,2,0,L|230:241,1,75.0000028610231,0|2,0:0|0:0,0:0:0:0:
312,233,32798,5,2,0:0:0:0:
349,209,33029,1,2,0:0:0:0:
357,190,33259,2,0,L|368:37,1,150.000005722046,2|2,0:0|0:0,0:0:0:0:
382,33,33952,1,2,0:0:0:0:
453,79,34182,2,0,P|462:123|463:161,2,75.0000028610231,2|2|2,0:0|0:0|0:0,0:0:0:0:
382,33,34875,1,2,0:0:0:0:
367,40,35105,2,0,L|217:50,1,150.000005722046,2|0,0:0|0:0,0:0:0:0:
200,39,36029,38,0,P|139:40|49:54,1,150.000005722046,2|2,0:0|0:0,0:0:0:0:
0,118,36721,1,2,0:0:0:0:
0,118,36952,2,0,L|10:268,1,150.000005722046,2|2,0:0|0:0,0:0:0:0:
24,284,38105,5,2,0:0:0:0:
113,302,38336,1,2,0:0:0:0:
143,332,38567,1,2,0:0:0:0:
153,354,38798,2,0,L|303:344,1,150.000005722046,2|2,0:0|0:0,0:0:0:0:
319,333,39721,2,0,L|405:341,1,75.0000028610231,0|2,0:0|0:0,0:0:0:0:
471,299,40182,37,2,0:0:0:0:
494,260,40413,1,2,0:0:0:0:
482,237,40644,2,0,L|332:247,1,150.000005722046,2|2,0:0|0:0,0:0:0:0:
240,195,42721,5,2,0:0:0:0:
308,139,42952,2,0,P|258:145|228:191,1,100,2|2,0:0|0:0,0:0:0:0:
227,277,43413,1,2,0:0:0:0:
132,217,43644,1,2,0:0:0:0:
86,288,43875,1,2,0:0:0:0:
11,267,44105,1,2,0:0:0:0:
0,279,44336,2,0,P|51:250|87:65,1,239.999992675781,6|0,3:2|0:2,0:0:0:0:
15,33,45029,2,0,P|43:87|100:107,1,119.999996337891,0|8,0:2|0:2,0:0:0:0:
205,142,45490,37,2,0:2:0:0:
214,7,45721,2,0,L|193:128,1,119.999996337891,2|2,0:2|0:2,0:0:0:0:
260,225,46182,2,0,B|318:176|248:128|323:59,1,179.999994506836,2|0,0:2|0:2,0:0:0:0:
336,67,46644,2,0,L|345:127,2,59.9999981689454,2|0|0,3:2|0:0|2:2,0:0:0:0:
477,22,47105,5,10,0:2:0:0:
512,68,47336,1,2,0:2:0:0:
482,145,47567,1,2,0:2:0:0:
505,232,47798,1,2,0:2:0:0:
406,293,48029,2,0,B|356:243|276:259|276:259|267:312|208:333,2,239.999992675781,6|2|8,3:2|0:2|0:2,0:0:0:0:
249,139,49413,37,0,0:2:0:0:
299,160,49644,1,0,0:2:0:0:
259,192,49875,1,0,0:2:0:0:
164,176,50105,5,2,0:2:0:0:
164,176,50336,2,0,P|128:224|112:288,1,119.999996337891,2|2,3:2|3:2,0:0:0:0:
126,379,50798,1,10,0:2:0:0:
215,325,51029,1,2,3:2:0:0:
289,361,51259,1,2,0:2:0:0:
317,342,51490,1,2,0:2:0:0:
333,349,51721,2,0,P|389:346|433:284,1,119.999996337891,6|0,3:2|0:2,0:0:0:0:
455,194,52182,2,0,P|344:220|207:213,1,239.999992675781,2|10,0:2|0:2,0:0:0:0:
144,109,52875,37,2,0:2:0:0:
110,205,53105,2,0,L|119:82,1,119.999996337891,2|2,0:2|0:2,0:0:0:0:
218,61,53567,2,0,P|251:113|291:27,1,179.999994506836,2|0,0:2|0:2,0:0:0:0:
312,24,54029,2,0,P|341:26|355:41,3,39.9999987792969,2|0|0|2,3:2|2:2|2:2|2:2,0:0:0:0:
430,15,54490,1,10,0:2:0:0:
481,101,54721,1,2,0:2:0:0:
481,101,54952,2,0,B|474:160|474:160|479:162|479:162|473:227,1,119.999996337891,2|2,0:2|0:2,0:0:0:0:
387,276,55413,2,0,B|315:245|311:152|311:152|357:142|377:89,2,239.999992675781,6|2|8,3:2|0:2|0:2,0:0:0:0:
238,383,56798,5,0,0:2:0:0:
235,330,57029,1,0,0:2:0:0:
282,353,57259,1,0,0:2:0:0:
164,359,57490,37,2,0:2:0:0:
164,359,57721,2,0,P|111:336|74:267,1,119.999996337891,2|2,3:2|3:2,0:0:0:0:
48,184,58182,1,10,0:2:0:0:
168,205,58413,2,0,B|195:156|201:114|181:56|142:53|88:82|111:133,1,224.999993133545,2|0,3:2|0:0,0:0:0:0:
107,122,59105,6,0,B|207:76|232:181|358:124,1,239.999992675781,6|2,3:2|0:2,0:0:0:0:
412,66,59798,1,0,0:2:0:0:
476,132,60029,37,10,0:2:0:0:
438,221,60259,2,0,P|444:259|454:283,1,59.9999981689454,2|2,0:2|0:2,0:0:0:0:
509,358,60605,2,0,P|427:313|333:298,1,179.999994506836,2|0,0:2|0:2,0:0:0:0:
192,384,61413,1,0,3:2:0:0:
92,297,61644,5,2,0:2:0:0:
92,297,61759,1,0,0:0:0:0:
92,297,61875,2,0,P|184:302|283:249,1,179.999994506836,10|2,0:2|0:2,0:0:0:0:
169,201,62452,2,0,P|135:198|96:178,1,59.9999981689454,2|0,0:2|0:2,0:0:0:0:
158,96,62798,2,0,P|255:78|291:51,1,119.999996337891,6|0,3:2|0:2,0:0:0:0:
342,4,63259,2,0,P|429:12|483:35,1,119.999996337891,2|0,0:2|0:2,0:0:0:0:
512,103,63721,37,10,0:2:0:0:
468,188,63952,2,0,P|451:201|413:184,1,59.9999981689454,2|2,0:2|0:2,0:0:0:0:
376,103,64298,1,2,0:2:0:0:
275,205,64644,2,0,P|372:207|470:331,1,239.999992675781,0|0,0:2|3:2,0:0:0:0:
463,332,65221,1,0,0:2:0:0:
463,332,65336,1,0,0:2:0:0:
345,290,65567,5,10,0:2:0:0:
275,205,65798,2,0,P|255:196|223:226,1,59.9999981689454,2|2,3:2|0:2,0:0:0:0:
101,263,66144,2,0,P|120:254|153:281,1,59.9999981689454,2|2,0:2|0:2,0:0:0:0:
267,372,66490,2,0,P|209:345|143:368,1,119.999996337891,6|0,3:2|0:2,0:0:0:0:
48,345,66952,2,0,P|20:314|4:227,1,119.999996337891,2|0,0:2|0:2,0:0:0:0:
34,120,67413,37,10,0:2:0:0:
117,163,67644,2,0,P|147:162|162:136,1,59.9999981689454,2|2,0:2|0:2,0:0:0:0:
146,46,67990,1,2,0:2:0:0:
289,0,68336,2,0,L|265:261,1,239.999992675781,0|0,0:2|3:2,0:0:0:0:
268,271,68913,1,0,0:0:0:0:
268,271,69029,5,2,0:2:0:0:
367,309,69259,1,10,0:2:0:0:
466,221,69490,2,0,P|447:246|428:228,1,59.9999981689454,2|2,0:2|0:2,0:0:0:0:
335,132,69836,2,0,P|354:157|373:139,1,59.9999981689454,2|2,0:2|0:2,0:0:0:0:
496,23,70182,2,0,P|445:63|383:31,1,119.999996337891,6|0,3:2|0:2,0:0:0:0:
284,11,70644,2,0,P|259:56|242:142,1,119.999996337891,2|0,0:2|0:2,0:0:0:0:
288,275,71105,37,10,0:2:0:0:
184,320,71336,2,0,P|174:337|169:310,1,59.9999981689454,2|2,0:2|0:2,0:0:0:0:
137,207,71682,1,2,0:2:0:0:
61,357,72029,1,0,0:2:0:0:
72,349,72259,2,0,P|35:274|26:103,1,239.999992675781,0|2,3:2|3:2,0:0:0:0:
32,107,72836,5,2,0:2:0:0:
32,107,72952,1,10,3:2:0:0:
150,106,73182,2,0,P|140:123|135:96,1,59.9999981689454,2|2,3:2|0:2,0:0:0:0:
233,153,73529,1,2,0:2:0:0:
187,33,73759,1,2,0:2:0:0:
187,33,73875,2,0,B|279:-2|299:99|426:42,1,239.999992675781,2|2,3:2|0:2,0:0:0:0:
504,275,74798,38,0,P|422:279|370:304,1,119.999996337891,10|0,0:2|0:2,0:0:0:0:
387,293,75144,2,0,P|326:306|258:281,1,119.999996337891,2|2,0:2|0:2,0:0:0:0:
162,359,75605,1,2,0:2:0:0:
162,359,75721,2,0,B|114:340|103:393|37:363,1,119.999996337891,2|0,0:2|0:2,0:0:0:0:
18,212,76182,2,0,P|48:264|92:221,1,119.999996337891,2|2,3:2|0:2,0:0:0:0:
105,221,76529,5,0,0:0:0:0:
105,221,76644,2,0,P|73:130|82:40,1,179.999994506836,10|2,0:2|0:2,0:0:0:0:
190,133,77221,2,0,P|242:153|329:146,1,119.999996337891,2|0,0:2|0:2,0:0:0:0:
305,152,77567,2,0,B|274:208|261:317|314:324|384:287|351:226,1,239.999992675781,6|2,3:2|0:2,0:0:0:0:
459,0,78490,37,10,0:2:0:0:
512,71,78721,2,0,L|494:144,1,59.9999981689454,0|2,0:2|0:2,0:0:0:0:
405,181,79067,1,2,0:2:0:0:
487,250,79298,1,2,0:2:0:0:
487,250,79413,2,0,B|453:231|389:223|384:265|410:276|421:266,1,119.999996337891,2|0,0:2|0:2,0:0:0:0:
421,357,79875,2,0,P|399:307|349:328,1,119.999996337891,2|2,3:2|0:2,0:0:0:0:
322,336,80221,5,2,0:2:0:0:
322,336,80336,2,0,P|256:359|182:344,1,119.999996337891,10|0,0:2|3:2,0:0:0:0:
183,344,80682,1,2,0:2:0:0:
168,259,80913,2,0,P|166:227|149:180,1,59.9999981689454,2|2,0:2|0:2,0:0:0:0:
20,256,81259,2,0,B|-7:210|49:169|116:180|103:289|72:345,1,239.999992675781,6|2,3:2|0:2,0:0:0:0:
247,214,82182,1,8,0:2:0:0:
158,200,82413,38,0,B|93:209|135:266|60:279,2,119.999996337891,2|2|2,0:2|0:2|0:2,0:0:0:0:
247,214,83105,1,2,0:2:0:0:
200,118,83336,1,2,0:2:0:0:
250,217,83567,2,0,P|269:209|285:196,3,39.9999987792969,2|0|0|2,3:2|0:2|0:2|0:2,0:0:0:0:
255,307,84029,2,0,L|374:294,1,119.999996337891,10|2,0:2|0:2,0:0:0:0:
455,247,84490,1,2,0:2:0:0:
490,166,84721,1,2,0:2:0:0:
459,251,84952,1,4,3:2:0:0:
255,307,85413,6,0,B|220:357|220:357|211:293,1,119.999996337891,2|0,0:2|0:2,0:0:0:0:
254,226,85875,1,8,0:2:0:0:
307,159,86105,38,0,B|372:168|330:225|405:238,2,119.999996337891,2|2|2,0:2|0:2|0:2,0:0:0:0:
263,76,86798,1,2,0:2:0:0:
176,118,87029,1,2,3:2:0:0:
131,200,87259,2,0,P|74:183|35:138,2,119.999996337891,2|2|2,3:2|0:2|0:2,0:0:0:0:
187,274,87952,1,2,0:2:0:0:
187,274,88182,2,0,B|202:240|262:247|251:269|270:306|298:277,1,119.999996337891,2|2,0:2|0:2,0:0:0:0:
347,369,88644,6,0,B|290:252|412:228|422:142|364:119,2,239.999992675781,4|2|8,3:2|0:2|0:2,0:0:0:0:
512,241,90029,38,0,P|450:245|400:199,1,119.999996337891,2|0,0:2|0:2,0:0:0:0:
339,147,90490,2,0,B|380:111|411:193|459:155,1,119.999996337891,2|0,0:2|0:2,0:0:0:0:
403,53,90952,1,2,3:2:0:0:
303,31,91182,1,2,0:2:0:0:
220,117,91413,1,10,0:2:0:0:
120,88,91644,1,2,0:2:0:0:
224,113,91875,2,0,B|324:134|238:282|325:320,1,239.999992675781,2|4,0:2|3:2,0:0:0:0:
20,352,92798,6,0,B|95:322|95:322|202:340,1,179.999994506836,2|0,0:2|0:0,0:0:0:0:
197,343,93259,2,0,L|180:223,2,119.999996337891,10|2|2,0:2|0:2|0:2,0:0:0:0:
281,265,93952,1,2,0:2:0:0:
354,312,94182,2,0,P|388:256|390:200,1,119.999996337891,2|2,0:2|0:2,0:0:0:0:
433,95,94644,1,2,3:2:0:0:
338,64,94875,1,2,0:2:0:0:
267,133,95105,1,10,0:2:0:0:
176,98,95336,1,2,3:2:0:0:
270,136,95567,2,0,B|200:107|135:258|45:213,1,239.999992675781,2|4,0:2|3:2,0:0:0:0:
20,352,96490,38,0,B|95:322|95:322|202:340,1,179.999994506836,2|0,0:2|0:0,0:0:0:0:
198,344,96952,2,0,P|208:279|249:233,1,119.999996337891,10|2,0:2|0:2,0:0:0:0:
354,219,97413,1,2,0:2:0:0:
350,316,97644,1,2,0:2:0:0:
434,271,97875,1,2,0:2:0:0:
512,322,98105,1,2,0:2:0:0:
506,224,98336,2,0,P|434:248|374:242,1,119.999996337891,2|2,3:2|0:2,0:0:0:0:
314,131,98798,1,10,0:2:0:0:
407,146,99029,1,2,0:2:0:0:
316,134,99259,2,0,B|244:77|164:265|95:195,1,239.999992675781,2|4,0:2|3:2,0:0:0:0:
20,352,100182,6,0,B|95:322|95:322|202:340,1,179.999994506836,2|0,0:2|0:0,0:0:0:0:
196,342,100644,2,0,P|267:370|348:370,2,119.999996337891,10|2|2,0:2|0:2|0:2,0:0:0:0:
206,238,101336,1,2,0:2:0:0:
280,198,101567,1,2,0:2:0:0:
317,200,101798,1,2,0:2:0:0:
326,210,102029,38,0,L|320:248,2,29.9999990844727,2|2|2,0:1|0:2|0:2,0:0:0:0:
359,103,102490,6,0,L|311:120,2,40,2|2|2,0:1|0:2|0:2,0:0:0:0:
444,49,102952,38,0,L|400:12,2,50,2|2|2,0:1|0:2|0:2,0:0:0:0:
447,158,103413,6,0,P|429:202|427:253,1,89.9999972534181,4|0,3:2|0:2,0:0:0:0:
512,268,103875,38,0,B|445:280|445:280|426:313|426:313|349:325,1,179.999994506836,2|0,0:2|0:0,0:0:0:0:
356,329,104336,2,0,P|326:274|259:270,1,119.999996337891,10|2,0:2|0:2,0:0:0:0:
168,313,104798,1,2,0:2:0:0:
247,358,105029,1,2,0:2:0:0:
186,291,105259,2,0,P|137:290|69:333,1,119.999996337891,2|2,0:2|0:2,0:0:0:0:
0,217,105721,2,0,P|49:216|117:259,1,119.999996337891,2|2,3:2|0:2,0:0:0:0:
186,291,106182,5,10,0:2:0:0:
116,227,106413,1,2,0:2:0:0:
134,125,106644,2,0,B|245:87|249:191|387:135,1,239.999992675781,2|4,0:2|3:2,0:0:0:0:
512,268,107567,38,0,B|445:280|445:280|426:313|426:313|349:325,1,179.999994506836,2|0,0:2|0:0,0:0:0:0:
357,328,108029,2,0,L|343:186,2,119.999996337891,10|2|2,0:2|0:2|0:2,0:0:0:0:
254,358,108721,1,2,0:2:0:0:
193,275,108952,2,0,P|242:296|275:364,1,119.999996337891,2|2,0:2|0:2,0:0:0:0:
172,289,109413,2,0,P|110:292|54:264,1,119.999996337891,2|2,3:2|0:2,0:0:0:0:
3,158,109875,5,10,0:2:0:0:
86,140,110105,1,2,3:2:0:0:
155,194,110336,2,0,B|266:232|270:128|408:184,1,239.999992675781,2|4,0:2|3:2,0:0:0:0:
482,19,111259,38,0,B|516:7|516:7|482:151,1,179.999994506836,2|0,0:2|0:0,0:0:0:0:
482,147,111721,1,10,0:2:0:0:
444,244,111952,1,2,0:2:0:0:
354,224,112182,2,0,P|448:212|509:339,1,239.999992675781,2|0,0:2|0:2,0:0:0:0:
483,20,113105,6,0,B|517:8|517:8|483:152,1,179.999994506836,2|0,3:2|0:2,0:0:0:0:
483,148,113567,1,10,0:2:0:0:
378,113,113798,1,2,0:2:0:0:
318,195,114029,2,0,P|224:207|163:80,1,239.999992675781,2|4,0:2|3:2,0:0:0:0:
483,20,114952,38,0,B|517:8|517:8|483:152,1,179.999994506836,2|0,0:2|0:0,0:0:0:0:
487,152,115413,2,0,P|427:152|374:191,1,119.999996337891,10|2,0:2|0:2,0:0:0:0:
385,297,115875,1,2,0:2:0:0:
291,264,116105,1,2,0:2:0:0:
230,311,116336,1,2,0:2:0:0:
185,298,116567,1,2,3:2:0:0:
172,311,116798,6,0,L|130:331,2,29.9999990844727,2|2|2,0:1|0:2|0:2,0:0:0:0:
60,274,117259,38,0,L|18:254,2,40,2|2|2,0:1|0:0|0:0,0:0:0:0:
38,154,117721,6,0,L|8:111,2,50,2|2|2,0:1|0:2|0:2,0:0:0:0:
71,38,118182,37,0,0:0:0:0:
58,18,123952,5,2,0:2:0:0:
106,92,124183,1,2,0:2:0:0:
56,159,124414,1,2,0:2:0:0:
85,198,124644,2,0,L|76:246,1,40,2|2,0:2|0:2,0:0:0:0:
57,266,125105,2,0,L|66:314,1,40,2|2,0:2|0:2,0:0:0:0:
77,315,125568,2,0,L|239:332,1,150.000005722046,2|0,0:2|0:0,0:0:0:0:
386,152,126722,37,2,0:2:0:0:
386,152,126953,2,0,B|345:167|312:198,1,75.0000028610231,2|2,0:2|0:2,0:0:0:0:
238,197,127414,2,0,P|273:202|225:262,2,150.000005722046,2|2|0,0:2|0:2|0:0,0:0:0:0:
155,225,128568,5,2,0:2:0:0:
84,195,128799,1,2,0:2:0:0:
71,145,129030,1,2,0:2:0:0:
79,127,129260,2,0,P|180:120|235:125,1,150.000005722046,2|2,0:2|0:2,0:0:0:0:
303,94,129953,1,2,0:2:0:0:
323,105,130183,2,0,P|332:149|333:187,2,75.0000028610231,2|2|2,0:2|0:2|0:2,0:0:0:0:
382,43,130876,1,2,0:2:0:0:
402,48,131106,2,0,P|437:88|482:189,1,150.000005722046,2|0,0:2|0:0,0:0:0:0:
428,352,132030,38,0,P|371:335|277:337,1,150.000005722046,2|2,0:2|0:2,0:0:0:0:
186,384,132722,1,2,0:2:0:0:
206,371,132953,2,0,P|203:286|216:221,1,150.000005722046,2|0,0:2|0:0,0:0:0:0:
251,35,134106,5,2,0:2:0:0:
329,65,134337,1,2,0:2:0:0:
338,106,134568,1,2,0:2:0:0:
330,124,134799,2,0,P|267:119|170:134,2,150.000005722046,2|2|0,0:2|0:2|0:0,0:0:0:0:
410,155,135953,37,2,0:2:0:0:
346,209,136182,1,2,0:2:0:0:
350,241,136413,1,2,0:2:0:0:
335,258,136644,2,0,P|398:253|495:268,2,150.000005722046,2|2|0,0:2|0:2|0:0,0:0:0:0:
113,346,138721,5,2,0:2:0:0:
121,258,138952,2,0,P|149:294|117:352,1,100,2|2,0:2|0:2,0:0:0:0:
22,317,139413,1,2,0:2:0:0:
6,228,139644,1,2,0:2:0:0:
47,158,139875,1,2,0:2:0:0:
96,140,140105,1,2,0:2:0:0:
125,155,140336,2,0,P|216:187|352:103,1,239.999992675781,6|0,3:2|0:2,0:0:0:0:
362,8,141029,2,0,P|331:46|325:135,1,119.999996337891,0|8,0:2|0:2,0:0:0:0:
416,144,141490,37,2,0:2:0:0:
510,86,141721,2,0,L|493:212,1,119.999996337891,2|2,0:2|0:2,0:0:0:0:
343,247,142182,2,0,P|390:253|380:361,1,179.999994506836,2|0,0:2|0:2,0:0:0:0:
367,365,142644,2,0,L|296:354,1,59.9999981689454,2|0,3:2|0:2,0:0:0:0:
287,344,142875,1,0,0:0:0:0:
184,369,143105,5,10,0:2:0:0:
164,322,143336,1,2,0:2:0:0:
82,340,143567,1,2,0:2:0:0:
33,264,143798,1,2,0:2:0:0:
46,168,144029,2,0,B|59:101|119:66|178:93|178:93|194:149|157:166,1,239.999992675781,6|2,3:2|0:2,0:0:0:0:
315,25,144952,1,8,0:2:0:0:
368,255,145413,37,0,0:2:0:0:
411,229,145643,1,0,0:2:0:0:
408,176,145874,1,0,0:2:0:0:
484,144,146105,5,2,0:2:0:0:
484,144,146336,2,0,P|496:212|481:282,1,119.999996337891,2|2,3:2|0:2,0:0:0:0:
428,379,146798,1,10,0:2:0:0:
330,311,147029,1,2,0:2:0:0:
255,371,147259,1,2,0:2:0:0:
187,327,147490,1,2,0:2:0:0:
172,341,147721,2,0,P|99:332|72:275,1,119.999996337891,6|0,3:2|0:2,0:0:0:0:
0,189,148182,2,0,P|120:190|245:223,1,239.999992675781,2|10,0:2|0:2,0:0:0:0:
332,184,148875,37,2,0:2:0:0:
332,184,149105,2,0,L|320:52,1,119.999996337891,2|2,0:2|0:2,0:0:0:0:
152,81,149567,2,0,P|198:111|210:19,1,179.999994506836,2|0,0:2|0:2,0:0:0:0:
200,13,150029,2,0,L|141:5,3,39.9999987792969,2|0|0|2,3:2|0:2|0:2|0:2,0:0:0:0:
55,15,150490,1,10,0:2:0:0:
71,59,150721,1,2,0:2:0:0:
21,131,150952,1,2,0:2:0:0:
72,210,151182,1,2,0:2:0:0:
27,315,151413,2,0,B|75:295|105:331|105:331|136:380|218:374|224:310,1,239.999992675781,6|2,3:2|0:2,0:0:0:0:
278,148,152336,1,8,0:2:0:0:
485,262,152798,5,0,0:2:0:0:
450,225,153029,1,0,0:2:0:0:
400,239,153259,1,0,0:2:0:0:
423,323,153490,37,2,3:2:0:0:
423,323,153721,2,0,P|362:342|301:342,1,119.999996337891,2|2,3:2|0:2,0:0:0:0:
209,281,154182,1,10,0:2:0:0:
135,340,154413,1,2,3:2:0:0:
66,320,154644,1,2,0:2:0:0:
51,275,154875,1,2,0:2:0:0:
56,257,155105,37,6,3:2:0:0:
17,49,155567,2,0,L|65:34,1,50,2|0,0:2|0:0,0:0:0:0:
81,40,156029,38,0,P|151:49|249:80,1,150,10|2,0:1|0:2,0:0:0:0:
234,84,156490,1,2,0:2:0:0:
187,171,156721,1,2,0:2:0:0:
226,243,156952,2,0,L|210:174,1,50,2|0,0:2|0:0,0:0:0:0:
225,185,157413,6,0,L|213:336,1,150,2|0,3:2|0:0,0:0:0:0:
230,350,157875,2,0,P|195:285|128:291,1,150,10|2,0:1|0:2,0:0:0:0:
125,307,158336,1,2,0:2:0:0:
102,228,158567,1,2,0:2:0:0:
88,146,158798,2,0,P|101:69|114:11,2,100,4|0|0,3:2|0:2|0:2,0:0:0:0:
11,100,159490,1,0,0:2:0:0:
33,237,159721,2,0,B|-13:260|-75:217|34:114|147:217|95:275|222:278,1,300,10|2,0:1|0:2,0:0:0:0:
312,205,160644,38,0,L|303:260,1,50,2|0,0:1|0:0,0:0:0:0:
298,291,160875,1,2,0:2:0:0:
308,371,161105,2,0,L|334:213,1,150,2|0,3:1|0:0,0:0:0:0:
411,160,161567,2,0,L|423:230,1,50,10|0,0:1|0:0,0:0:0:0:
425,239,161798,1,2,3:2:0:0:
452,311,162029,2,0,L|426:153,1,150,2|0,0:2|0:0,0:0:0:0:
442,149,162490,6,0,B|420:219|322:214|250:148|151:127,1,300,6|0,3:2|0:2,0:0:0:0:
103,219,163413,38,0,L|44:233,1,50,10|0,0:1|0:0,0:0:0:0:
189,203,163875,1,2,0:2:0:0:
175,282,164105,1,2,0:2:0:0:
218,360,164336,2,0,P|207:263|194:189,1,150,2|0,0:2|0:0,0:0:0:0:
212,199,164798,2,0,P|223:141|235:97,1,100,2|0,3:2|0:2,0:0:0:0:
186,22,165259,2,0,L|198:70,1,50,10|0,0:1|0:0,0:0:0:0:
360,32,165721,1,2,0:2:0:0:
342,108,165952,1,2,0:2:0:0:
370,187,166182,6,0,P|388:125|443:-5,1,200,6|0,3:2|0:2,0:0:0:0:
372,37,166875,1,0,0:2:0:0:
439,96,167105,38,0,L|448:162,1,50,10|0,0:1|0:0,0:0:0:0:
450,165,167336,1,2,0:2:0:0:
506,234,167567,2,0,L|490:347,1,100,2|2,0:1|0:2,0:0:0:0:
422,381,168029,6,0,L|413:315,1,50,2|0,0:1|0:0,0:0:0:0:
411,312,168260,1,2,3:2:0:0:
355,243,168491,2,0,L|371:130,1,100,2|2,0:1|3:2,0:0:0:0:
333,68,168952,37,2,0:1:0:0:
333,68,169875,2,0,P|254:93|182:132,2,150,6|2|2,3:1|0:1|0:1,0:0:0:0:
236,65,170798,2,0,P|202:59|160:48,1,50,10|2,0:2|0:1,0:0:0:0:
169,33,171029,1,0,0:2:0:0:
169,33,171259,1,0,0:1:0:0:
169,33,171490,1,2,0:2:0:0:
95,93,171721,6,0,L|109:156,1,50,2|2,0:1|0:2,0:0:0:0:
105,83,172182,2,0,L|86:238,1,150,0|0,3:2|0:0,0:0:0:0:
116,300,172644,37,10,0:1:0:0:
116,300,173567,2,0,P|206:325|279:356,2,150,6|2|2,3:1|0:1|0:1,0:0:0:0:
211,296,174490,2,0,L|263:282,1,50,10|2,0:2|0:1,0:0:0:0:
284,262,174721,1,0,0:2:0:0:
284,262,174952,1,0,0:1:0:0:
284,262,175182,1,2,0:2:0:0:
359,330,175413,6,0,L|345:385,1,50,2|2,0:1|0:2,0:0:0:0:
375,314,175875,2,0,L|354:148,1,150,2|2,3:2|0:2,0:0:0:0:
407,106,176336,37,10,0:1:0:0:
407,106,177259,2,0,P|330:65|302:56,1,100,6|2,3:1|0:2,0:0:0:0:
315,44,177605,2,0,P|252:57|214:79,1,100,2|2,0:1|0:2,0:0:0:0:
218,91,177952,1,2,0:1:0:0:
140,31,178182,2,0,L|131:80,1,50,10|2,0:2|0:1,0:0:0:0:
141,103,178413,1,0,0:2:0:0:
84,164,178644,2,0,L|92:275,1,100,2|2,0:1|0:2,0:0:0:0:
105,272,178990,2,0,L|113:383,1,100,2|2,0:1|0:2,0:0:0:0:
120,384,179336,1,2,0:1:0:0:
192,326,179567,6,0,B|212:365|260:367|339:383,1,150,2|0,3:2|0:2,0:0:0:0:
348,357,180029,2,0,L|279:375,1,50,10|0,0:1|0:0,0:0:0:0:
299,354,180952,38,0,B|310:361|310:361|337:352|337:352|374:378|374:378|433:370|433:370|452:287|487:214,1,300,6|2,3:2|0:2,0:0:0:0:
433,128,181875,1,10,0:2:0:0:
498,57,182105,2,0,P|483:104|473:153,2,100,0|0|0,0:2|0:2|0:2,0:0:0:0:
395,89,182798,6,0,L|384:20,1,50,0|0,0:2|0:0,0:0:0:0:
373,22,183029,1,0,3:2:0:0:
355,108,183259,2,0,L|337:237,1,100,0|0,3:2|0:2,0:0:0:0:
404,323,183721,38,0,B|455:335|510:308|338:162|377:374|228:374,1,300,2|2,0:2|0:2,0:0:0:0:
163,322,184644,6,0,B|184:263|157:220|17:290|-21:248|13:167,1,250,4|2,3:2|0:2,0:0:0:0:
13,187,185336,1,2,0:2:0:0:
66,118,185567,2,0,L|55:55,1,50,10|0,0:2|0:0,0:0:0:0:
70,51,185798,1,2,0:2:0:0:
92,134,186029,2,0,L|80:250,1,100,0|0,0:2|0:2,0:0:0:0:
133,307,186490,37,0,0:2:0:0:
117,348,188336,6,0,B|184:347|248:322|248:322|210:302|186:275,1,200,6|0,3:1|0:0,0:0:0:0:
200,270,189259,2,0,L|190:218,1,50,8|0,0:0|0:0,0:0:0:0:
227,196,189490,1,2,0:2:0:0:
227,196,189721,1,2,0:2:0:0:
227,196,189952,1,2,0:2:0:0:
326,222,190182,38,0,L|337:270,1,50,2|2,0:1|0:2,0:0:0:0:
341,209,190644,2,0,P|355:115|375:34,1,150,2|2,3:1|0:2,0:0:0:0:
438,20,191105,1,10,0:2:0:0:
376,97,191336,2,0,P|358:18|352:-23,2,100,0|0|0,3:2|0:2|0:2,0:0:0:0:
284,60,192029,6,0,B|225:39|182:66|225:253|189:275|106:254,1,300,6|2,3:1|0:2,0:0:0:0:
44,240,192952,2,0,P|50:264|56:293,1,50,8|0,0:1|0:0,0:0:0:0:
50,340,193182,1,2,0:2:0:0:
50,340,193413,1,2,0:2:0:0:
50,340,193644,1,2,0:2:0:0:
30,251,193875,38,0,L|46:192,1,50,2|0,0:1|0:0,0:0:0:0:
37,261,194336,2,0,L|20:93,1,150,0|0,3:2|0:0,0:0:0:0:
35,97,194798,1,10,0:1:0:0:
35,97,195029,1,2,0:2:0:0:
35,97,195721,6,0,B|-33:109|19:236|119:89|246:112,1,300,6|0,3:1|0:2,0:0:0:0:
186,196,196644,2,0,L|176:124,1,50,10|0,0:2|0:0,0:0:0:0:
196,115,196875,1,2,0:2:0:0:
196,115,197105,1,0,0:2:0:0:
196,115,197336,1,2,0:2:0:0:
263,54,197567,38,0,L|267:23,2,25,2|2|0,0:1|0:0|0:0,0:0:0:0:
435,15,198259,21,4,0:3:0:0:
435,15,198490,2,0,B|389:28|450:151|388:161,1,150.000005722046,4|2,0:3|0:2,0:0:0:0:
220,270,199413,6,0,P|147:274|63:298,1,150.000005722046,4|2,0:3|0:2,0:0:0:0:
62,287,200336,2,0,B|124:292|124:292|132:297|132:297|217:303,1,150.000005722046,4|2,0:3|0:2,0:0:0:0:
290,282,201029,1,2,0:2:0:0:
290,282,201259,38,0,L|303:360,1,75.0000028610231,2|4,0:2|0:3,0:0:0:0:
381,379,201721,2,0,B|388:315|388:315|395:311|395:311|408:221,1,150.000005722046,4|0,0:3|0:0,0:0:0:0:
418,225,202413,2,0,B|425:206|425:206|415:145|415:145|410:136|410:136|397:53,1,150.000005722046,4|2,0:3|0:2,0:0:0:0:
418,61,203105,6,0,P|350:74|242:54,1,150.000005722046,4|2,0:3|0:2,0:0:0:0:
205,133,203798,1,2,0:2:0:0:
205,133,204029,2,0,B|188:141|188:141|174:53|174:53|185:-1,2,150.000005722046,4|4|2,0:3|0:3|0:0,0:0:0:0:
223,220,205182,37,4,0:3:0:0:
149,265,205413,1,4,0:3:0:0:
137,281,205644,1,4,0:3:0:0:
53,312,205875,1,4,0:3:0:0:
42,328,206105,2,0,B|48:266|48:266|25:247,1,75.0000028610231,4|2,0:3|0:2,0:0:0:0:
166,66,206798,6,0,B|120:70|120:70|56:43|56:43|18:47,2,150.000005722046,4|2|0,0:3|0:2|0:0,0:0:0:0:
247,24,207952,1,2,0:2:0:0:
273,49,208182,1,2,0:2:0:0:
296,54,208413,2,0,B|311:88|311:88|316:156,2,75.0000028610231,4|4|4,0:3|0:3|0:3,0:0:0:0:
369,0,209105,2,0,B|392:35|392:35|402:42|402:42|413:152,1,150.000005722046,4|0,0:3|0:0,0:0:0:0:
423,149,209798,37,4,0:3:0:0:
447,235,210029,1,2,0:2:0:0:
399,279,210259,1,2,0:2:0:0:
367,276,210490,6,0,B|316:282|316:282|308:289|308:289|245:299|245:299|221:327,2,150.000005722046,4|2|0,0:3|0:2|0:0,0:0:0:0:
266,2,212336,38,0,B|248:-6|248:-6|168:3,1,75.0000028610231,4|2,0:3|0:2,0:0:0:0:
120,57,212798,1,2,0:2:0:0:
182,98,213029,1,4,0:3:0:0:
132,173,213259,2,0,B|149:179|149:179|230:172,1,75.0000028610231,4|2,0:3|0:2,0:0:0:0:
277,106,213721,1,2,0:2:0:0:
277,106,213952,1,2,0:2:0:0:
277,106,214182,2,0,P|252:204|243:358,1,239.999992675781,6|2,3:2|0:2,0:0:0:0:
378,384,214875,2,0,P|354:312|353:255,1,119.999996337891,0|8,0:2|0:2,0:0:0:0:
411,178,215336,5,2,0:2:0:0:
501,210,215567,2,0,P|498:249|457:316,1,119.999996337891,2|2,0:2|0:2,0:0:0:0:
401,185,216029,2,0,B|410:110|478:129|496:38,1,179.999994506836,2|0,0:2|0:2,0:0:0:0:
483,22,216490,2,0,L|407:36,2,59.9999981689454,2|0|0,3:2|0:2|0:2,0:0:0:0:
344,4,216952,37,10,0:2:0:0:
317,41,217182,1,2,0:2:0:0:
238,21,217413,1,2,0:2:0:0:
185,96,217644,1,2,0:2:0:0:
78,74,217875,2,0,B|72:53|15:46|15:46|-10:140|55:217,2,239.999992675781,6|2|8,3:2|0:2|0:2,0:0:0:0:
204,165,219259,5,0,0:2:0:0:
189,217,219490,1,0,0:2:0:0:
171,268,219721,1,0,0:2:0:0:
199,351,219952,37,2,0:2:0:0:
199,351,220182,2,0,B|233:335|233:335|328:341,1,119.999996337891,2|2,3:2|0:2,0:0:0:0:
422,358,220644,1,10,0:2:0:0:
440,370,220875,2,0,B|429:313|429:313|435:300|435:300|425:224,1,119.999996337891,2|2,3:2|0:2,0:0:0:0:
390,177,221336,1,2,0:2:0:0:
424,100,221567,2,0,B|315:45|318:157|186:98,1,239.999992675781,6|2,3:2|0:2,0:0:0:0:
114,23,222259,1,0,0:2:0:0:
45,72,222490,5,10,0:2:0:0:
24,103,222721,1,2,0:2:0:0:
31,169,222952,1,2,0:2:0:0:
102,207,223182,1,2,0:2:0:0:
199,202,223413,2,0,P|217:150|113:142,1,179.999994506836,2|0,0:2|0:2,0:0:0:0:
126,134,223875,38,0,P|122:208|127:268,1,119.999996337891,2|2,3:2|0:2,0:0:0:0:
192,323,224336,1,10,0:2:0:0:
231,288,224567,1,2,0:2:0:0:
323,265,224798,1,2,0:2:0:0:
391,337,225029,1,2,0:2:0:0:
305,352,225259,2,0,B|268:276|315:206|315:206|356:241|403:223,2,239.999992675781,6|2|8,3:2|0:2|0:2,0:0:0:0:
144,355,226644,5,0,0:2:0:0:
152,305,226875,1,0,0:2:0:0:
158,252,227105,1,0,0:2:0:0:
78,258,227336,37,2,3:2:0:0:
78,258,227567,2,0,P|47:189|58:136,1,119.999996337891,2|2,3:2|0:2,0:0:0:0:
171,78,228029,1,10,0:2:0:0:
171,78,228259,2,0,B|148:92|148:92|130:201,2,119.999996337891,2|2|2,3:2|0:2|0:2,0:0:0:0:
290,40,228952,1,6,3:2:0:0:
