osu file format v14

[General]
AudioFilename: audio.mp3
AudioLeadIn: 0
PreviewTime: 0
Countdown: 0
SampleSet: Soft
StackLeniency: 0.3
Mode: 0
LetterboxInBreaks: 0
WidescreenStoryboard: 1

[Editor]
Bookmarks: 217565
DistanceSpacing: 0.7
BeatDivisor: 8
GridSize: 32
TimelineZoom: 3.699999

[Metadata]
Title:SICKO MODE feat. Drake
TitleUnicode:SICKO MODE feat. Drake
Artist:Travis Scott
ArtistUnicode:Travis Scott
Creator:Beige
Version:Insane
Source:
Tags:w_h_i_t_e white hip hop hip-hop rap english trap astroworld swae lee big hawk the notorious b.i.g gimme the loot uncle luke 2 live crew
BeatmapID:2702693
BeatmapSetID:1303272

[Difficulty]
HPDrainRate:5
CircleSize:4
OverallDifficulty:8
ApproachRate:8.5
SliderMultiplier:1.81999990463257
SliderTickRate:1

[Events]
//Background and Video events
0,0,"bg.jpg",0,0
//Break Periods
//Storyboard Layer 0 (Background)
//Storyboard Layer 1 (Fail)
//Storyboard Layer 2 (Pass)
//Storyboard Layer 3 (Foreground)
//Storyboard Layer 4 (Overlay)
//Storyboard Sound Samples

[TimingPoints]
42,862.502695320923,4,2,2,50,1,0
42,-83.3333333333333,4,2,2,50,0,0
15459,-83.3333333333333,4,2,2,5,0,0
15567,-83.3333333333333,4,2,2,50,0,0
18909,-83.3333333333333,4,2,2,5,0,0
19017,-83.3333333333333,4,2,2,50,0,0
22359,-83.3333333333333,4,2,2,5,0,0
22467,-83.3333333333333,4,2,2,50,0,0
27613,-66.6666666666667,4,2,2,60,0,0
36159,-66.6666666666667,4,2,2,5,0,0
36238,-66.6666666666667,4,2,2,60,0,0
41334,-66.6666666666667,4,2,2,5,0,0
41413,-74.0740740740741,4,2,2,50,0,0
43059,-74.0740740740741,4,2,2,5,0,0
43167,-74.0740740740741,4,2,2,50,0,0
46509,-74.0740740740741,4,2,2,5,0,0
46617,-74.0740740740741,4,2,2,50,0,0
48342,-31.25,4,3,1,70,0,0
48773,-41.6666666666667,4,3,1,70,0,0
49204,-62.5,4,3,1,70,0,0
49635,-125,4,3,1,70,0,0
50067,-31.25,4,3,1,70,0,0
50498,-41.6666666666667,4,3,1,70,0,0
50929,-62.5,4,3,1,70,0,0
51360,-125,4,3,1,70,0,0
51792,-31.25,4,3,1,70,0,0
52223,-41.6666666666667,4,3,1,70,0,0
52654,-62.5,4,3,1,70,0,0
53085,-125,4,3,1,70,0,0
53517,-31.25,4,3,1,70,0,0
53948,-41.6666666666667,4,3,1,70,0,0
54379,-62.5,4,3,1,70,0,0
54810,-125,4,3,1,70,0,0
55214,-50,4,2,2,70,0,0
56076,-50,4,2,1,70,0,0
56130,-50,4,2,2,70,0,0
58692,-50,4,2,1,70,0,0
60354,774.193548387097,4,2,1,80,1,0
60354,-50,4,2,1,80,0,0
63450,774.193548387097,4,2,1,80,1,0
63450,-50,4,2,1,80,0,0
76198,-35.7142857142857,4,2,1,85,0,0
76586,-30.03003003003,4,2,1,85,0,0
76973,-50,4,2,1,80,0,0
99037,-57.1428571428571,4,2,1,75,0,0
99811,-66.6666666666667,4,2,1,70,0,0
100586,-50,4,2,1,70,0,0
103295,-66.6666666666667,4,2,1,70,0,0
103417,-66.6666666666667,4,2,1,5,0,0
103489,-66.6666666666667,4,2,1,70,0,0
103611,-66.6666666666667,4,2,1,5,0,0
103682,-66.6666666666667,4,2,1,70,0,0
106005,-66.6666666666667,4,2,1,75,0,0
106779,-66.6666666666667,4,2,1,70,0,0
109489,-66.6666666666667,4,2,1,70,0,0
109611,-66.6666666666667,4,2,1,5,0,0
109682,-66.6666666666667,4,2,1,50,0,0
109804,-66.6666666666667,4,2,1,5,0,0
109876,-50,4,2,1,75,0,0
112973,-50,4,2,1,80,0,0
125747,-57.1428571428571,4,2,1,77,0,0
126134,-66.6666666666667,4,2,1,73,0,0
126521,-80,4,2,1,70,0,0
126908,-50,4,2,1,80,0,0
128844,-57.1428571428571,4,2,1,77,0,0
129231,-66.6666666666667,4,2,1,73,0,0
129618,-50,4,2,1,80,0,0
131940,-57.1428571428571,4,2,1,77,0,0
132327,-66.6666666666667,4,2,1,73,0,0
132714,-80,4,2,1,70,0,0
133102,-50,4,2,1,80,0,0
137747,-33.3333333333333,4,2,1,85,0,0
138134,-30.03003003003,4,2,1,85,0,0
138521,-33.3333333333333,4,2,1,85,0,0
138643,-33.3333333333333,4,2,1,5,0,0
138715,-33.3333333333333,4,2,1,85,0,0
138837,-33.3333333333333,4,2,1,5,0,0
138908,-33.3333333333333,4,2,1,90,0,0
139030,-33.3333333333333,4,2,1,5,0,0
139102,-33.3333333333333,4,2,1,90,0,0
139224,-33.3333333333333,4,2,1,5,0,0
139295,-50,4,2,1,80,0,0
144327,-57.1428571428571,4,2,1,77,0,0
144714,-66.6666666666667,4,2,1,73,0,0
145101,-80,4,2,1,70,0,0
145488,-50,4,2,1,80,0,0
150521,-57.1428571428571,4,2,1,77,0,0
150908,-66.6666666666667,4,2,1,73,0,0
151295,-50,4,2,1,80,0,0
153811,-50,4,2,1,60,0,0
154586,-62.5,4,2,1,65,0,0
156353,774.193548387097,4,2,1,70,1,8
156354,774.193548387097,4,2,1,70,1,0
157902,-62.5,4,2,1,70,0,0
162521,-50,4,2,1,70,0,0
165618,-50,4,2,1,75,0,0
168741,782.778864970646,4,2,2,70,1,0
168812,-100,4,2,3,70,0,0
171872,-100,4,2,2,70,0,0
171929,-100,4,2,3,70,0,0
174988,-100,4,2,2,70,0,0
175087,-100,4,2,3,70,0,0
176533,774.193548387097,4,2,3,75,1,0
176533,-57.1428571428571,4,2,3,75,0,0
188888,-62.5,4,2,3,75,0,0
201275,-50,4,2,1,80,0,0
202436,-57.1428571428571,4,2,1,77,0,0
202823,-66.6666666666667,4,2,1,73,0,0
203210,-50,4,2,1,80,0,0
203984,-57.1428571428571,4,2,1,77,0,0
204371,-66.6666666666667,4,2,1,73,0,0
204759,-50,4,2,1,80,0,0
214823,-57.1428571428571,4,2,1,77,0,0
215210,-66.6666666666667,4,2,1,73,0,0
215597,-50,4,2,1,80,0,0
226049,-50,4,2,3,75,0,0
235339,-833.333333333333,4,2,3,70,0,0
238436,-50,4,2,1,80,0,0
260113,-62.5,4,2,1,70,0,0
263210,-50,4,2,1,80,0,0
287984,-50,4,2,3,75,0,0
288371,-55.5555555555556,4,2,3,75,0,0
298823,-62.5,4,2,3,75,0,0
300403,1548.38709677419,4,2,3,70,1,0

[Colours]
Combo1 : 192,77,255
Combo2 : 255,247,142
Combo3 : 255,255,255
Combo4 : 199,199,199
Combo5 : 255,102,102
Combo6 : 98,141,255
Combo7 : 149,226,255
Combo8 : 146,146,146

[HitObjects]
28,180,42,102,0,B|69:152|160:180|88:228|180:256|220:228,1,218.39998189087,2|0,0:2|0:0,0:0:0:0:
345,171,1767,2,0,B|369:135|369:135|333:307,1,218.39998189087,2|0,0:2|0:0,0:0:0:0:
356,44,3492,54,0,B|395:29|395:29|452:36|496:108|472:164,1,218.39998189087,2|0,0:2|0:0,0:0:0:0:
144,252,5217,2,0,B|184:224|276:252|204:300|294:327|336:300,1,218.39998189087,2|0,0:2|0:2,0:0:0:0:
28,180,6942,54,0,B|-6:156|-25:108|-13:55|32:39|80:65|70:114,1,218.39998189087,2|0,0:2|0:2,0:0:0:0:
141,258,8667,2,0,B|175:281|194:329|182:382|136:398|88:372|98:323,1,218.39998189087,2|0,0:2|0:2,0:0:0:0:
246,131,10392,54,0,B|406:95|406:95|370:135,1,218.39998189087,2|0,0:2|0:2,0:0:0:0:
266,261,12117,2,0,B|106:297|106:297|142:257,1,218.39998189087,2|0,0:2|0:2,0:0:0:0:
246,131,13842,54,0,B|274:56|368:23|468:51|492:140|445:223|353:216,1,409.499966045381,2|0,0:2|0:0,0:0:0:0:
356,217,15567,2,0,P|363:137|385:205,1,218.39998189087,2|0,0:2|0:0,0:0:0:0:
397,314,17292,54,0,B|328:377|153:357|270:245|91:223|27:288,1,409.499966045381,2|0,0:2|0:0,0:0:0:0:
27,288,19017,2,0,B|81:239|158:265|158:265|138:305|93:299,1,218.39998189087,2|0,0:2|0:0,0:0:0:0:
58,93,20742,54,0,L|469:54,1,409.499966045381,2|0,0:2|0:0,0:0:0:0:
466,55,22467,2,0,B|411:61|411:61|424:226,1,218.39998189087,2|0,0:2|0:2,0:0:0:0:
236,228,24192,54,0,B|293:231|326:281|326:281|300:227|325:176,1,218.39998189087,2|0,0:2|0:2,0:0:0:0:
127,147,25917,2,0,B|70:151|37:201|37:201|63:147|38:96,1,218.39998189087,2|0,0:2|0:2,0:0:0:0:
38,96,27642,86,0,L|114:88,1,68.2499990272522,2|0,0:2|0:2,0:0:0:0:
244,260,28073,2,0,P|188:276|124:236,1,136.499998054504,2|0,0:2|0:0,0:0:0:0:
125,237,28935,6,0,L|117:161,1,68.2499990272522
256,40,29367,2,0,L|241:175,1,136.499998054504,2|0,0:2|0:0,0:0:0:0:
241,176,30301,102,0,P|277:185|311:204,1,68.2499990272522,2|2,0:2|0:2,0:0:0:0:
436,112,30714,2,0,P|413:124|394:141,1,51.1874992704392,2|0,0:2|0:0,0:0:0:0:
298,92,31092,2,0,P|280:63|256:39,1,68.2499990272522,2|2,0:2|0:2,0:0:0:0:
164,164,31523,2,0,L|179:299,1,136.499998054504,0|0,0:2|0:0,0:0:0:0:
179,300,32457,6,0,L|184:248,1,45.4999993515015,2|2,0:2|0:2,0:0:0:0:
126,154,32817,2,0,P|230:173|297:91,1,221.81249683857
296,8,33733,2,0,P|260:16|228:48,1,68.2499990272522,2|0,0:0|0:0,0:0:0:0:
381,100,34164,2,0,P|381:74|371:51,1,51.1874992704392
252,185,34542,102,0,L|260:241,1,51.1874992704392,0|2,0:2|0:2,0:0:0:0:
400,264,34973,1,0,0:2:0:0:
400,264,35404,2,0,L|408:208,1,51.1874992704392,0|0,0:2|0:0,0:0:0:0:
242,117,35781,2,0,L|260:241,1,119.437498297691
260,236,36267,6,0,B|272:160|272:160|296:128|296:128|308:40,1,204.749997081757,2|0,0:2|0:0,0:0:0:0:
216,7,37183,2,0,B|207:30|207:30|210:56,1,51.1874992704392,2|2,0:2|0:2,0:0:0:0:
400,84,37560,2,0,B|412:52|412:52|408:16,1,68.2499990272522
357,176,37991,101,2,0:0:0:0:
308,41,38207,1,2,0:2:0:0:
458,167,38422,1,0,0:2:0:0:
273,233,38638,1,0,0:2:0:0:
400,84,38854,2,0,P|432:68|472:68,1,68.2499990272522,2|2,0:2|0:2,0:0:0:0:
484,264,39285,2,0,L|343:244,1,136.499998054504,0|2,0:2|0:2,0:0:0:0:
349,245,40364,5,2,0:2:0:0:
213,240,40579,2,0,P|246:183|311:170,1,136.499998054504,0|2,0:0|0:2,0:0:0:0:
349,245,41172,2,0,P|324:253|299:252,1,51.1874992704392
300,253,41442,70,0,B|400:267|477:132|359:20|247:66|228:147|228:147|228:147|228:147|230:123|223:102|209:85,1,460.687477617503,2|0,0:2|0:0,0:0:0:0:
213,90,43167,2,0,P|227:132|99:132,1,245.699988062668,2|0,0:2|0:0,0:0:0:0:
264,12,44892,54,0,P|436:76|396:320,1,460.687477617503,2|0,0:2|0:0,0:0:0:0:
404,315,46617,2,0,P|347:342|182:292,1,245.699988062668,2|0,0:2|0:0,0:0:0:0:
136,136,48342,86,0,L|124:28,2,97.0666615804037,2|2|2,3:2|0:0|0:0,0:0:0:0:
184,220,48773,2,0,L|176:292,2,72.7999939636233,2|2|2,0:0|0:0|0:0,0:0:0:0:
260,160,49204,2,0,L|252:104,2,48.5333307902019,2|2|2,0:0|0:0|0:0,0:0:0:0:
304,244,49635,2,0,L|301:270,2,24.2666653951009,2|2|2,0:0|0:0|0:0,0:0:0:0:
372,48,50067,6,0,L|473:37,2,97.0666615804037,2|2|2,3:2|0:0|0:0,0:0:0:0:
288,96,50498,2,0,L|215:88,2,72.7999939636233,2|2|2,0:0|0:0|0:0,0:0:0:0:
348,172,50929,2,0,L|404:164,2,48.5333307902019,2|2|2,0:0|0:0|0:0,0:0:0:0:
264,216,51360,2,0,L|234:212,2,24.2666653951009,2|2|2,0:2|0:0|0:0,0:0:0:0:
189,327,51792,102,0,L|295:338,2,97.0666615804037,2|2|2,3:2|0:0|0:0,0:0:0:0:
104,278,52223,2,0,L|18:269,2,72.7999939636233,2|2|2,3:0|0:0|0:0,0:0:0:0:
165,203,52654,2,0,L|221:211,2,48.5333307902019,2|2|2,0:0|0:0|0:0,0:0:0:0:
80,159,53085,2,0,L|50:155,2,24.2666653951009,2|2|2,3:2|0:0|0:0,0:0:0:0:
333,95,53517,6,0,L|345:-26,2,97.0666615804037,2|2|2,3:2|0:0|0:0,0:0:0:0:
285,179,53948,2,0,L|292:251,2,72.7999939636233,2|2|2,0:2|0:0|0:0,0:0:0:0:
209,119,54379,2,0,L|217:63,2,48.5333307902019,2|2|2,0:2|0:0|0:0,0:0:0:0:
165,203,54810,2,0,L|168:236,2,24.2666653951009,2|2|2,0:2|0:0|0:0,0:0:0:0:
81,159,55242,38,0,L|92:52,1,90.9999952316285,0|0,1:0|0:0,0:0:0:0:
169,251,55673,2,0,L|158:358,1,90.9999952316285,2|0,0:0|0:0,0:0:0:0:
159,341,55997,1,2,0:0:0:0:
159,341,56104,1,8,0:2:0:0:
90,69,56320,2,0,L|85:23,1,45.4999976158143
57,147,56535,2,0,P|101:153|142:135,1,90.9999952316285,2|0,0:0|0:0,0:0:0:0:
232,47,56967,6,0,L|227:93,2,30.3333317438762,0|0|0,1:0|1:0|1:0,0:0:0:0:
237,94,57254,2,0,L|244:34,1,60.6666634877523,0|0,1:0|1:0,0:0:0:0:
373,72,57614,2,0,L|384:163,1,90.9999952316285,0|8,0:0|0:1,0:0:0:0:
226,196,58045,1,0,0:0:0:0:
308,332,58260,2,0,L|318:241,1,90.9999952316285,2|0,0:2|0:0,0:0:0:0:
237,94,58692,1,0,1:0:0:0:
384,130,60354,6,0,P|300:154|237:94,1,181.999990463257,2|0,1:2|0:0,0:0:0:0:
322,68,60934,1,0,0:0:0:0:
384,130,61128,54,0,P|300:154|237:94,1,181.999990463257,2|0,1:2|0:0,0:0:0:0:
322,68,61708,1,0,0:0:0:0:
384,130,61902,102,0,P|300:154|237:94,1,181.999990463257,2|0,1:2|0:0,0:0:0:0:
322,68,62483,1,0,0:0:0:0:
384,130,62676,6,0,P|300:154|237:94,1,181.999990463257,2|0,1:2|0:0,0:0:0:0:
322,68,63257,1,0,0:0:0:0:
384,130,63450,54,0,P|300:154|237:94,1,181.999990463257,2|0,1:2|0:0,0:0:0:0:
322,68,64030,1,0,0:0:0:0:
35,200,64224,86,0,P|99:140|182:164,1,181.999990463257,8|2,0:2|1:2,0:0:0:0:
148,328,64804,2,0,B|140:364|140:364|120:220,1,181.999990463257,0|0,1:0|0:0,0:0:0:0:
246,110,65385,1,0,1:0:0:0:
88,56,65579,1,0,0:0:0:0:
263,193,65772,2,0,L|256:237,2,45.4999976158143,8|0|0,0:2|0:0|0:0,0:0:0:0:
105,139,66159,38,0,L|98:95,1,45.4999976158143
176,28,66353,2,0,L|183:72,1,45.4999976158143
96,156,66546,86,0,L|68:-19,1,136.499992847443,2|0,1:2|0:0,0:0:0:0:
74,21,66933,1,0,0:0:0:0:
27,205,67127,1,0,0:0:0:0:
209,153,67320,2,0,L|194:246,1,90.9999952316285,8|0,0:2|0:2,0:0:0:0:
180,332,67708,1,2,1:2:0:0:
294,121,67901,2,0,P|230:64|142:90,1,181.999990463257,0|0,1:0|0:0,0:0:0:0:
280,210,68482,2,0,P|323:208|365:177,1,90.9999952316285,2|0,1:2|0:0,0:0:0:0:
398,2,68869,101,8,0:2:0:0:
455,160,69062,1,2,1:2:0:0:
294,121,69256,1,0,0:0:0:0:
388,92,69450,1,0,0:0:0:0:
266,213,69643,6,0,L|132:184,1,136.499992847443,2|0,1:2|0:0,0:0:0:0:
133,184,70030,2,0,P|158:220|161:265,1,90.9999952316285
3,346,70417,2,0,P|17:281|75:248,1,136.499992847443,8|0,0:2|0:0,0:0:0:0:
75,248,70804,1,2,1:2:0:0:
272,344,70998,2,0,B|232:364|232:364|98:335,1,181.999990463257,0|0,1:0|0:0,0:0:0:0:
233,164,71579,2,0,L|224:212,2,45.4999976158143,0|0|0,1:0|0:0|0:0,0:0:0:0:
52,161,71966,1,8,0:2:0:0:
252,72,72159,1,0,1:0:0:0:
17,30,72353,22,0,L|29:74,1,45.4999976158143
115,97,72546,2,0,L|103:53,1,45.4999976158143
0,16,72740,70,0,L|50:205,1,181.999990463257,2|0,1:2|0:0,0:0:0:0:
3,346,73320,1,0,0:0:0:0:
159,308,73514,2,0,P|224:312|268:364,1,136.499992847443,8|0,0:2|0:0,0:0:0:0:
267,363,73901,1,2,1:2:0:0:
352,187,74095,2,0,P|268:211|203:154,1,181.999990463257,0|0,1:0|0:0,0:0:0:0:
404,320,74675,2,0,P|440:292|484:292,1,90.9999952316285,2|0,1:2|0:0,0:0:0:0:
292,124,75062,5,8,0:2:0:0:
242,374,75256,1,2,1:2:0:0:
274,217,75450,101,0,0:0:0:0:
323,347,75643,1,0,0:0:0:0:
203,154,75837,2,0,B|192:128|192:128|208:64,1,90.9999952316285,2|0,1:2|0:0,0:0:0:0:
445,200,76224,102,0,P|403:184|356:188,2,84.9333262908938,2|0|0,0:2|0:0|0:0,0:0:0:0:
492,142,76611,2,0,P|381:160|280:114,1,227.272493639637,12|0,0:2|0:0,0:0:0:0:
240,44,76998,22,0,P|236:12|264:39,1,90.9999952316285,2|0,1:2|1:0,0:0:0:0:
203,154,77288,1,0,0:0:0:0:
203,154,77385,2,0,B|179:137|179:137|113:139,1,90.9999952316285
33,269,77772,1,2,1:2:0:0:
156,360,77966,2,0,B|179:376|179:376|245:374,1,90.9999952316285,0|8,0:0|0:2,0:0:0:0:
328,245,78353,1,0,0:0:0:0:
143,155,78546,22,0,L|66:160,1,45.4999976158143
116,244,78740,2,0,L|193:239,1,45.4999976158143
178,139,78933,70,0,B|42:148|42:148|14:183,1,181.999990463257,2|0,1:2|0:0,0:0:0:0:
157,360,79514,1,0,0:0:0:0:
258,205,79708,2,0,P|276:176|268:96,1,90.9999952316285,8|0,0:2|0:0,0:0:0:0:
90,40,80095,5,2,1:2:0:0:
116,244,80288,1,0,1:0:0:0:
156,101,80482,2,0,L|176:13,1,90.9999952316285
29,217,80869,1,2,1:2:0:0:
29,217,81062,2,0,L|49:305,1,90.9999952316285,0|8,0:0|0:2,0:0:0:0:
223,360,81450,1,2,1:2:0:0:
96,156,81643,2,0,L|116:244,1,90.9999952316285
163,95,82030,102,0,L|211:306,1,181.999990463257,2|0,1:2|0:0,0:0:0:0:
372,338,82611,1,0,0:0:0:0:
491,211,82804,2,0,P|430:147|344:161,1,181.999990463257,8|2,0:2|1:2,0:0:0:0:
400,242,83385,1,0,1:0:0:0:
512,112,83579,2,0,L|492:24,1,90.9999952316285
279,90,83966,1,2,1:2:0:0:
279,90,84159,2,0,P|251:125|247:170,1,90.9999952316285,0|8,0:0|0:2,0:0:0:0:
302,250,84546,1,0,1:0:0:0:
468,352,84740,38,0,L|472:304,1,45.4999976158143
400,242,84933,2,0,L|396:290,1,45.4999976158143
475,363,85127,86,0,L|487:227,1,136.499992847443,2|0,1:2|0:0,0:0:0:0:
487,227,85514,2,0,P|470:185|433:159,1,90.9999952316285
264,338,85901,1,8,0:2:0:0:
288,180,86095,1,0,0:0:0:0:
264,338,86288,2,0,P|308:344|349:325,1,90.9999952316285,2|0,1:2|0:0,0:0:0:0:
434,159,86675,102,0,L|443:50,1,90.9999952316285
205,258,87062,2,0,L|212:348,1,90.9999952316285,2|0,1:2|0:0,0:0:0:0:
320,209,87450,1,8,0:2:0:0:
144,186,87643,1,2,1:2:0:0:
308,297,87837,1,0,0:0:0:0:
323,100,88030,1,0,0:0:0:0:
188,308,88224,6,0,P|110:316|32:256,1,181.999990463257,2|0,1:2|0:0,0:0:0:0:
28,125,88804,1,0,0:0:0:0:
144,186,88998,2,0,L|236:176,1,90.9999952316285,8|0,0:2|0:0,0:0:0:0:
410,345,89385,2,0,L|320:355,1,90.9999952316285,2|0,1:2|1:0,0:0:0:0:
320,128,89772,102,0,L|366:123,2,45.4999976158143
277,265,90159,1,0,1:0:0:0:
181,103,90353,1,0,0:0:0:0:
369,100,90546,2,0,L|353:196,1,90.9999952316285,8|0,0:2|1:0,0:0:0:0:
112,300,90933,38,0,L|104:255,1,45.4999976158143
189,310,91127,2,0,L|196:354,1,45.4999976158143
93,374,91320,86,0,L|59:175,1,181.999990463257,2|0,1:2|0:0,0:0:0:0:
44,48,91901,1,0,0:0:0:0:
180,104,92095,2,0,P|224:103|259:75,1,90.9999952316285,8|0,0:2|0:0,0:0:0:0:
433,217,92482,2,0,P|398:189|354:189,1,90.9999952316285,2|0,1:2|1:0,0:0:0:0:
209,213,92869,101,0,0:0:0:0:
209,213,93062,1,0,0:0:0:0:
369,272,93256,2,0,L|349:360,1,90.9999952316285,2|0,1:2|0:0,0:0:0:0:
142,274,93643,2,0,L|122:186,1,90.9999952316285,8|2,0:2|1:2,0:0:0:0:
361,15,94030,2,0,L|341:103,1,90.9999952316285
435,333,94417,6,0,B|471:310|471:310|439:175,1,181.999990463257,2|0,1:2|0:0,0:0:0:0:
451,54,94998,1,0,0:0:0:0:
376,231,95191,2,0,P|411:256|473:247,1,90.9999952316285,8|0,0:2|0:0,0:0:0:0:
259,77,95579,2,0,P|214:75|177:101,1,90.9999952316285,2|0,1:2|1:0,0:0:0:0:
104,323,95966,102,0,L|116:376,2,45.4999976158143
245,246,96353,2,0,B|256:227|256:227|240:160,1,90.9999952316285,0|0,1:0|0:0,0:0:0:0:
198,17,96740,1,8,0:2:0:0:
96,125,96933,1,0,1:0:0:0:
321,136,97127,38,0,L|368:132,1,45.4999976158143
390,218,97320,2,0,L|345:222,1,45.4999976158143
308,124,97514,86,0,B|369:119|369:119|423:145|423:145|484:140,2,181.999990463257,2|0|8,1:2|0:0|0:2,0:0:0:0:
160,184,98482,1,0,0:0:0:0:
285,282,98675,2,0,L|379:274,1,90.9999952316285,2|0,1:2|0:0,0:0:0:0:
176,100,99062,101,0,0:0:0:0:
253,195,99256,1,0,0:0:0:0:
132,214,99450,2,0,L|36:202,1,79.6249965870381,2|0,1:2|0:0,0:0:0:0:
216,19,99837,5,8,0:2:0:0:
284,75,100030,2,0,L|371:65,1,68.2499990272522,2|0,1:2|0:0,0:0:0:0:
240,160,100417,1,0,0:0:0:0:
105,110,100611,5,2,0:2:0:0:
96,124,101772,1,2,0:0:0:0:
88,136,103320,6,0,L|92:172,1,34.1249995136261,2|0,0:3|0:0,0:0:0:0:
192,248,103514,2,0,L|188:284,1,34.1249995136261,2|0,0:3|0:0,0:0:0:0:
28,360,103708,37,2,0:0:0:0:
37,346,104869,1,2,0:0:0:0:
45,334,106030,86,0,L|112:328,1,68.2499990272522
316,368,106417,1,0,0:0:0:0:
220,320,106611,1,0,0:0:0:0:
309,260,106804,5,2,0:2:0:0:
318,274,107966,1,2,0:0:0:0:
326,282,109514,86,0,L|330:246,1,34.1249995136261,2|0,0:3|0:0,0:0:0:0:
213,213,109708,2,0,L|209:179,1,34.1249995136261,2|0,0:3|0:0,0:0:0:0:
365,91,109901,102,0,B|319:107|302:153|302:153|311:105|279:68,1,181.999990463257,2|0,1:2|0:0,0:0:0:0:
343,6,110482,1,0,0:0:0:0:
365,91,110675,54,0,B|319:107|302:153|302:153|311:105|279:68,1,181.999990463257,2|0,1:2|0:0,0:0:0:0:
343,6,111256,1,0,0:0:0:0:
365,91,111450,102,0,B|319:107|302:153|302:153|311:105|279:68,1,181.999990463257,2|0,1:2|0:0,0:0:0:0:
343,6,112031,1,0,0:0:0:0:
365,91,112224,6,0,B|319:107|302:153|302:153|311:105|279:68,1,181.999990463257,2|0,1:2|0:0,0:0:0:0:
343,6,112805,1,0,0:0:0:0:
217,130,112998,22,0,P|133:154|70:94,1,181.999990463257,2|0,1:2|0:0,0:0:0:0:
157,67,113579,1,0,0:0:0:0:
161,267,113772,2,0,P|240:276|276:316,1,136.499992847443,8|0,0:2|0:0,0:0:0:0:
276,316,114159,1,2,1:2:0:0:
465,203,114353,2,0,P|405:270|393:359,1,181.999990463257,0|0,1:0|0:0,0:0:0:0:
264,131,114933,2,0,P|298:156|319:199,1,90.9999952316285,0|0,1:0|0:0,0:0:0:0:
189,356,115320,1,8,0:2:0:0:
87,246,115515,1,0,0:0:0:0:
233,212,115708,38,0,L|278:205,1,45.4999976158143
309,290,115902,2,0,L|263:296,1,45.4999976158143
216,196,116095,86,0,B|354:175|354:175|319:199,1,181.999990463257,2|0,1:2|0:0,0:0:0:0:
139,302,116676,1,0,0:0:0:0:
232,384,116870,2,0,B|272:332|272:332|256:260,1,136.499992847443,8|0,0:2|0:0,0:0:0:0:
257,263,117257,1,2,1:2:0:0:
100,120,117450,2,0,L|119:209,1,90.9999952316285,0|0,1:0|0:0,0:0:0:0:
168,61,117837,1,0,0:0:0:0:
32,179,118031,2,0,L|51:268,1,90.9999952316285,2|0,1:2|0:0,0:0:0:0:
232,384,118418,101,8,0:2:0:0:
242,170,118612,1,2,1:2:0:0:
141,326,118805,1,0,0:0:0:0:
327,336,118999,1,0,1:0:0:0:
119,209,119192,6,0,L|100:120,1,90.9999952316285,2|0,1:2|0:0,0:0:0:0:
259,275,119579,2,0,L|240:364,1,90.9999952316285
246,157,119966,1,8,0:2:0:0:
386,223,120160,2,0,L|475:204,1,90.9999952316285,0|2,0:0|1:2,0:0:0:0:
327,336,120547,2,0,P|240:364|172:312,1,181.999990463257,0|0,1:0|0:0,0:0:0:0:
269,231,121128,2,0,L|258:278,2,45.4999976158143,0|0|0,1:0|0:0|0:0,0:0:0:0:
150,190,121515,1,8,0:2:0:0:
346,138,121708,1,0,1:0:0:0:
124,68,121902,22,0,L|133:112,1,45.4999976158143
228,121,122095,2,0,L|218:76,1,45.4999976158143
104,52,122289,70,0,L|123:141,1,90.9999952316285,2|0,1:2|0:0,0:0:0:0:
259,275,122676,1,0,0:0:0:0:
75,328,122870,1,0,1:0:0:0:
196,200,123063,2,0,P|235:178|279:179,1,90.9999952316285,8|0,0:2|0:0,0:0:0:0:
371,335,123450,1,2,1:2:0:0:
191,335,123644,1,0,0:0:0:0:
352,240,123837,2,0,L|361:195,2,45.4999976158143
278,364,124224,6,0,L|259:275,1,90.9999952316285,2|0,1:2|0:0,0:0:0:0:
464,128,124612,2,0,L|445:217,1,90.9999952316285,8|2,0:2|1:2,0:0:0:0:
310,96,124999,1,0,0:0:0:0:
483,39,125192,1,0,0:0:0:0:
332,188,125386,38,0,P|285:189|245:165,1,90.9999952316285,2|0,1:2|0:0,0:0:0:0:
312,208,125773,2,0,P|275:196|247:167,1,79.6249965870381
289,219,126160,2,0,P|263:197|247:167,1,68.2499990272522,8|0,0:2|0:0,0:0:0:0:
266,220,126547,2,0,P|252:195|247:167,1,56.8749970197678,2|0,1:2|1:0,0:0:0:0:
494,42,126934,54,0,L|464:128,1,90.9999952316285
390,336,127321,1,0,1:0:0:0:
247,167,127515,2,0,L|277:81,1,90.9999952316285,0|8,0:0|0:2,0:0:0:0:
427,232,127902,1,0,0:0:0:0:
214,295,128095,38,0,L|168:288,1,45.4999976158143
274,245,128289,2,0,L|320:252,1,45.4999976158143
232,320,128483,6,0,L|140:306,1,90.9999952316285,2|0,1:2|0:0,0:0:0:0:
224,332,128870,2,0,L|132:318,1,79.6249965870381
216,344,129257,2,0,L|124:330,1,68.2499990272522,8|0,0:2|0:0,0:0:0:0:
32,179,129644,69,2,1:2:0:0:
204,216,129837,1,0,1:0:0:0:
241,44,130031,1,0,0:0:0:0:
123,175,130224,1,0,0:0:0:0:
296,212,130418,2,0,P|344:212|384:192,2,90.9999952316285,2|0|8,1:2|0:0|0:2,0:0:0:0:
167,93,130999,1,2,1:2:0:0:
128,264,131192,2,0,L|160:368,1,90.9999952316285
296,212,131579,38,0,B|304:184|304:184|284:120,1,90.9999952316285,2|0,1:2|0:0,0:0:0:0:
319,215,131966,2,0,B|327:187|327:187|307:123,1,79.6249965870381
342,218,132354,2,0,B|350:190|350:190|338:152,1,68.2499990272522,8|0,0:2|0:0,0:0:0:0:
365,221,132741,2,0,B|373:193|373:193|361:155,1,56.8749970197678,2|0,1:2|1:0,0:0:0:0:
167,93,133128,54,0,B|159:121|159:121|179:185,1,90.9999952316285
235,363,133515,1,0,1:0:0:0:
365,221,133708,2,0,L|391:134,1,90.9999952316285,0|8,0:0|0:2,0:0:0:0:
248,128,134095,1,0,1:0:0:0:
352,312,134289,38,0,L|398:305,1,45.4999976158143
279,369,134483,2,0,L|235:363,1,45.4999976158143
264,272,134676,1,2,1:2:0:0:
272,280,135837,6,0,L|364:266,2,90.9999952316285,2|0|0,1:2|1:0|0:2,0:0:0:0:
212,156,137773,38,0,B|251:181|335:156|268:110|354:84|392:110,1,204.749997081757,6|0,1:2|0:0,0:0:0:0:
459,165,138160,2,0,B|485:197|485:197|510:57|510:57|474:79,1,227.272493639637,2|0,0:2|0:0,0:0:0:0:
376,196,138547,54,0,P|380:232|388:276,1,68.2499990272522,8|0,0:2|0:0,0:0:0:0:
456,336,138741,2,0,P|483:329|462:322,1,68.2499990272522,2|0,0:2|0:0,0:0:0:0:
352,351,138934,54,0,P|356:315|364:271,1,68.2499990272522,0|0,1:0|0:0,0:0:0:0:
292,225,139128,2,0,P|269:210|276:236,1,68.2499990272522,2|0,1:2|0:0,0:0:0:0:
276,333,139320,22,0,P|227:338|168:349,1,90.9999952316285,0|0,0:2|0:0,0:0:0:0:
100,129,139708,1,0,1:0:0:0:
44,200,139901,2,0,P|88:207|134:212,1,90.9999952316285,0|8,0:2|0:0,0:0:0:0:
98,370,140288,1,0,0:0:0:0:
282,199,140483,22,0,P|286:178|284:154,1,45.4999976158143
209,125,140676,2,0,P|205:146|207:170,1,45.4999976158143
292,225,140869,70,0,L|312:73,1,136.499992847443,2|0,1:2|0:0,0:0:0:0:
309,89,141256,2,0,P|263:84|218:76,1,90.9999952316285,0|0,0:2|0:0,0:0:0:0:
120,260,141643,2,0,P|165:252|211:248,1,90.9999952316285,8|0,0:0|0:0,0:0:0:0:
437,354,142031,5,2,1:2:0:0:
416,106,142224,1,0,1:0:0:0:
370,288,142418,1,0,0:0:0:0:
326,81,142612,1,0,0:0:0:0:
460,263,142805,1,2,1:2:0:0:
246,128,142999,2,0,P|232:85|267:13,1,90.9999952316285,0|8,0:0|0:2,0:0:0:0:
393,197,143386,1,2,1:2:0:0:
182,249,143579,2,0,L|92:239,1,90.9999952316285
294,329,143966,38,0,P|337:319|370:288,1,90.9999952316285,2|0,1:2|0:0,0:0:0:0:
318,343,144353,2,0,P|351:322|370:288,1,79.6249965870381
343,348,144740,2,0,P|363:320|371:287,1,68.2499990272522,8|0,0:2|0:0,0:0:0:0:
365,343,145127,2,0,P|372:315|370:287,1,56.8749970197678,2|0,1:2|1:0,0:0:0:0:
112,149,145515,54,0,L|132:284,1,136.499992847443
132,284,145902,1,0,1:0:0:0:
238,199,146095,1,0,0:0:0:0:
27,115,146289,2,0,L|40:209,1,90.9999952316285,8|0,0:2|1:0,0:0:0:0:
297,301,146676,38,0,P|298:278|295:255,1,45.4999976158143
219,277,146869,2,0,P|217:299|220:322,1,45.4999976158143
300,324,147063,86,0,B|313:294|313:263|302:235|302:235|302:235|289:205|291:174|304:146,2,181.999990463257,2|0|8,1:2|0:0|0:2,0:0:0:0:
149,231,148031,1,0,0:0:0:0:
285,315,148224,1,2,1:2:0:0:
144,150,148418,1,0,0:0:0:0:
358,111,148612,2,0,L|448:101,1,90.9999952316285
219,186,148999,1,2,1:2:0:0:
322,36,149192,2,0,L|412:26,2,90.9999952316285,0|8|2,0:0|0:2|1:2,0:0:0:0:
213,103,149773,2,0,L|123:93,1,90.9999952316285
325,163,150160,38,0,L|418:152,1,90.9999952316285,2|0,1:2|0:0,0:0:0:0:
334,174,150547,2,0,L|427:163,1,79.6249965870381
342,186,150934,2,0,L|435:175,1,68.2499990272522,8|0,0:2|0:0,0:0:0:0:
227,82,151321,53,2,1:2:0:0:
235,289,151515,1,0,1:0:0:0:
347,77,151708,1,0,0:0:0:0:
172,187,151902,1,0,0:0:0:0:
355,284,152095,1,0,1:0:0:0:
227,82,152289,2,0,P|188:67|116:83,1,90.9999952316285,0|8,0:0|0:2,0:0:0:0:
78,276,152676,1,0,0:0:0:0:
285,228,152870,38,0,L|291:181,1,45.4999976158143
191,317,153063,2,0,L|196:362,1,45.4999976158143
296,252,153257,86,0,L|308:158,1,90.9999952316285,2|0,1:2|0:0,0:0:0:0:
139,231,153644,1,0,0:0:0:0:
284,342,153837,1,0,0:0:0:0:
284,342,154611,37,0,0:0:0:0:
296,252,154804,1,0,0:0:0:0:
367,307,154998,1,0,0:0:0:0:
308,162,155191,1,0,0:0:0:0:
379,217,155385,1,0,0:0:0:0:
225,197,155579,5,0,0:0:0:0:
237,107,155772,1,0,0:0:0:0:
142,232,155966,1,0,0:0:0:0:
154,142,156159,1,0,0:0:0:0:
213,287,156354,1,2,0:0:0:0:
213,287,157902,101,0,0:0:0:0:
201,377,158095,1,0,0:0:0:0:
284,342,158289,2,0,P|297:309|300:273,1,72.7999961853028
225,197,158676,5,0,0:0:0:0:
308,162,158870,1,0,0:0:0:0:
154,142,159063,2,0,L|82:134,1,72.7999961853028
237,107,159450,1,2,0:0:0:0:
237,107,160612,70,0,P|243:142|236:177,1,72.7999961853028,2|0,0:2|0:0,0:0:0:0:
171,303,160999,2,0,L|164:231,1,72.7999961853028,2|0,0:0|0:3,0:0:0:0:
247,267,161386,1,0,0:3:0:0:
154,142,161579,1,2,0:0:0:0:
279,49,162547,37,2,0:0:0:0:
318,119,163321,2,0,L|309:212,1,90.9999952316285
301,300,163708,1,2,0:0:0:0:
279,49,164095,102,0,P|310:40|367:56,2,90.9999952316285,0|2|0,0:0|0:0|0:0,0:0:0:0:
155,154,164676,1,0,0:0:0:0:
309,209,164870,2,0,L|318:119,2,90.9999952316285
149,255,165644,86,0,B|284:238|284:238|249:267,1,181.999990463257,2|0,1:2|0:0,0:0:0:0:
189,327,166224,1,0,0:0:0:0:
149,255,166419,54,0,B|284:238|284:238|249:267,1,181.999990463257,2|0,1:2|0:0,0:0:0:0:
189,327,166999,1,0,0:0:0:0:
149,255,167193,102,0,B|284:238|284:238|249:267,1,181.999990463257,2|0,1:2|0:0,0:0:0:0:
189,327,167773,1,0,0:0:0:0:
149,255,167967,6,0,B|284:238|284:238|249:267,1,181.999990463257,2|0,1:2|0:0,0:0:0:0:
189,327,168547,1,0,0:0:0:0:
109,182,168741,54,0,B|101:138|121:94|157:78|157:78|133:98|129:130,1,181.999990463257,4|0,1:0|0:0,0:0:0:0:
133,143,170306,1,0,0:0:0:0:
137,157,171089,1,0,0:0:0:0:
314,73,171872,54,0,B|400:68|363:105|444:96|444:96|424:80|401:80,1,181.999990463257,4|0,1:0|0:0,0:0:0:0:
336,152,173437,1,0,0:0:0:0:
408,218,174220,1,0,0:0:0:0:
220,368,175003,54,0,B|224:328|200:304|200:304|228:252|228:252|245:273|243:301,1,181.999990463257,4|0,1:0|0:0,0:0:0:0:
144,356,176533,22,0,P|80:372|12:304,1,159.249993174076,0|0,1:2|0:0,0:0:0:0:
108,212,177113,1,0,1:0:0:0:
108,212,177307,2,0,L|96:292,1,79.6249965870381,8|0,0:2|0:0,0:0:0:0:
48,140,177694,1,0,1:0:0:0:
200,196,177887,1,0,1:0:0:0:
16,228,178081,1,0,0:0:0:0:
144,124,178274,1,8,0:0:0:0:
170,286,178468,6,0,P|184:324|212:352,1,79.6249965870381,0|0,1:2|0:0,0:0:0:0:
280,196,178855,2,0,P|263:232|263:272,1,79.6249965870381,8|0,0:2|1:0,0:0:0:0:
421,210,179242,2,0,P|382:223|354:251,1,79.6249965870381
364,80,179629,102,0,P|428:96|496:28,1,159.249993174076,0|0,1:0|0:0,0:0:0:0:
296,24,180210,1,0,1:0:0:0:
296,24,180403,2,0,P|279:60|279:100,1,79.6249965870381,8|0,0:0|0:0,0:0:0:0:
420,212,180791,1,2,1:2:0:0:
253,279,180984,1,0,1:0:0:0:
348,312,181178,5,0,0:0:0:0:
349,292,181274,1,0,0:0:0:0:
351,272,181371,1,8,0:0:0:0:
196,148,181565,2,0,P|184:180|188:224,1,79.6249965870381,0|0,1:0|0:0,0:0:0:0:
331,241,181952,2,0,P|309:214|269:196,1,79.6249965870381,8|0,0:0|1:0,0:0:0:0:
182,310,182339,2,0,P|221:302|253:279,1,79.6249965870381,0|8,0:0|0:0,0:0:0:0:
284,112,182726,102,0,L|124:100,1,159.249993174076,0|0,1:0|0:0,0:0:0:0:
76,205,183307,1,0,1:0:0:0:
144,253,183500,2,0,P|156:225|144:161,1,79.6249965870381,8|0,0:0|0:0,0:0:0:0:
68,287,183887,1,0,1:0:0:0:
212,301,184081,1,0,1:0:0:0:
0,239,184274,1,0,0:0:0:0:
136,335,184468,1,8,0:0:0:0:
152,177,184662,6,0,L|160:97,1,79.6249965870381,2|0,1:2|0:0,0:0:0:0:
288,267,185049,2,0,L|296:347,1,79.6249965870381,8|0,0:0|1:0,0:0:0:0:
76,205,185436,2,0,L|84:125,1,79.6249965870381,2|0,0:0|0:0,0:0:0:0:
356,216,185823,102,0,L|372:375,1,159.249993174076,0|0,1:0|0:0,0:0:0:0:
424,165,186403,1,0,1:0:0:0:
424,165,186597,2,0,P|396:140|336:132,1,79.6249965870381,8|0,0:0|0:0,0:0:0:0:
152,172,186984,1,0,1:0:0:0:
356,216,187178,1,0,1:2:0:0:
144,88,187371,5,2,0:0:0:0:
142,68,187468,1,0,0:0:0:0:
140,48,187565,1,8,0:0:0:0:
272,160,187758,2,0,L|280:80,1,79.6249965870381,2|0,1:2|0:0,0:0:0:0:
145,234,188145,1,8,0:0:0:0:
348,295,188339,2,0,L|356:215,1,79.6249965870381,0|2,1:0|0:2,0:0:0:0:
221,369,188726,1,8,0:0:0:0:
221,369,188920,1,0,0:0:0:0:
221,369,190081,70,0,P|184:360|148:364,1,72.7999961853028,2|0,0:0|0:0,0:0:0:0:
164,224,190468,2,0,P|173:258|194:288,1,72.7999961853028
67,345,190855,2,0,P|92:320|107:287,2,72.7999961853028,2|0|2,0:0|0:0|0:0,0:0:0:0:
80,206,192016,53,2,0:0:0:0:
195,289,192210,1,0,0:0:0:0:
80,206,192403,2,0,L|67:82,1,109.199994277954
69,97,192791,2,0,P|106:106|142:102,1,72.7999961853028
181,24,193178,2,0,P|146:16|110:19,1,72.7999961853028,2|0,0:0|0:0,0:0:0:0:
229,99,193565,53,0,0:0:0:0:
269,19,193758,1,0,0:0:0:0:
189,179,193952,1,2,0:0:0:0:
278,173,194145,1,0,0:0:0:0:
195,268,194339,2,0,P|128:251|100:185,1,145.599992370606,2|4,0:0|0:0,0:0:0:0:
384,360,195113,54,0,P|456:364|500:308,1,145.599992370606,2|0,0:0|0:0,0:0:0:0:
422,288,195694,1,0,0:0:0:0:
337,220,195887,2,0,L|341:292,1,72.7999961853028
439,181,196274,2,0,L|443:109,1,72.7999961853028,2|0,0:0|0:0,0:0:0:0:
268,59,196662,54,0,L|272:131,1,72.7999961853028
337,220,197049,1,2,0:0:0:0:
248,285,197242,1,0,0:0:0:0:
430,326,197436,2,0,L|439:181,1,145.599992370606,2|0,0:0|0:0,0:0:0:0:
430,326,198210,54,0,P|399:309|363:305,1,72.7999961853028,2|0,0:0|0:0,0:0:0:0:
224,362,198597,2,0,P|260:363|294:351,1,72.7999961853028
454,207,198984,2,0,P|381:208|315:238,1,145.599992370606,0|2,0:0|0:0,0:0:0:0:
316,238,199565,1,0,0:0:0:0:
183,232,199758,54,0,P|199:264|207:300,1,72.7999961853028
294,103,200145,2,0,P|278:135|270:171,1,72.7999961853028,2|0,0:0|0:0,0:0:0:0:
126,181,200533,2,0,P|173:234|207:299,1,145.599992370606,2|0,0:0|0:0,0:0:0:0:
207,300,201113,1,0,0:0:0:0:
377,103,201307,86,0,L|394:13,1,90.9999952316285,0|0,1:0|0:0,0:0:0:0:
135,103,201694,1,0,0:0:0:0:
360,192,201887,1,0,1:3:0:0:
169,281,202081,2,0,L|152:191,1,90.9999952316285,8|0,0:0|0:0,0:0:0:0:
330,348,202468,70,0,L|344:269,1,79.6249965870381,0|0,1:0|1:0,0:0:0:0:
188,376,202855,2,0,L|171:286,1,68.2499990272522,0|8,0:0|0:0,0:0:0:0:
360,192,203242,53,0,1:0:0:0:
135,103,203435,1,0,0:0:0:0:
376,104,203629,2,0,L|393:14,1,90.9999952316285,8|0,0:0|1:0,0:0:0:0:
152,191,204016,54,0,L|137:112,1,79.6249965870381
347,259,204403,2,0,L|364:169,1,68.2499990272522,0|0,1:0|0:0,0:0:0:0:
169,281,204791,37,0,0:0:0:0:
330,348,204984,1,0,1:0:0:0:
152,191,205178,2,0,L|133:93,1,90.9999952316285,8|0,0:0|0:0,0:0:0:0:
376,104,205565,1,0,1:0:0:0:
256,148,205758,1,0,1:0:0:0:
351,235,205952,5,0,0:0:0:0:
355,213,206049,1,0,0:0:0:0:
360,192,206145,1,8,0:0:0:0:
169,281,206339,1,0,1:0:0:0:
330,348,206533,1,0,0:0:0:0:
169,281,206726,2,0,L|152:191,1,90.9999952316285,8|0,0:0|1:0,0:0:0:0:
376,104,207113,1,0,0:0:0:0:
119,15,207307,1,8,0:0:0:0:
376,104,207500,102,0,L|392:14,1,90.9999952316285,0|0,1:0|0:0,0:0:0:0:
135,103,207887,1,0,0:0:0:0:
360,192,208081,1,0,1:0:0:0:
169,281,208274,2,0,L|152:191,1,90.9999952316285,8|0,0:0|0:0,0:0:0:0:
326,372,208662,2,0,L|343:282,1,90.9999952316285,0|0,1:0|1:0,0:0:0:0:
328,71,209049,5,0,0:0:0:0:
256,224,209242,1,8,0:0:0:0:
184,71,209436,2,0,P|181:49|185:25,2,45.4999976158143,0|0|0,1:0|0:0|0:0,0:0:0:0:
360,192,209823,1,8,0:0:0:0:
152,192,210016,1,0,1:0:0:0:
328,71,210210,2,0,P|328:28|304:-12,1,90.9999952316285
169,282,210597,101,0,1:0:0:0:
256,132,210791,1,0,0:0:0:0:
343,282,210984,1,0,0:0:0:0:
152,192,211178,1,0,1:0:0:0:
256,373,211371,5,8,0:0:0:0:
360,192,211565,1,0,0:0:0:0:
169,281,211758,2,0,L|152:191,1,90.9999952316285,0|0,1:0|1:0,0:0:0:0:
334,325,212145,101,0,0:0:0:0:
338,303,212242,1,0,0:0:0:0:
343,282,212338,1,8,0:0:0:0:
135,103,212533,1,0,1:0:0:0:
256,252,212726,1,0,0:0:0:0:
376,104,212920,6,0,L|393:14,1,90.9999952316285,8|0,0:0|1:0,0:0:0:0:
256,132,213307,1,0,0:0:0:0:
343,281,213500,1,8,0:0:0:0:
135,103,213694,102,0,L|118:13,1,90.9999952316285,0|0,1:2|0:0,0:0:0:0:
376,104,214081,1,0,0:0:0:0:
152,192,214274,1,0,1:0:0:0:
343,281,214468,2,0,L|360:191,1,90.9999952316285,8|0,0:0|0:0,0:0:0:0:
182,348,214855,70,0,L|167:269,1,79.6249965870381,0|0,1:0|1:0,0:0:0:0:
328,372,215242,2,0,L|345:282,1,68.2499990272522,0|8,0:0|0:0,0:0:0:0:
152,192,215629,53,0,1:2:0:0:
376,103,215822,1,0,0:0:0:0:
135,103,216016,2,0,L|118:13,1,90.9999952316285,8|0,0:0|1:0,0:0:0:0:
344,282,216403,2,0,L|376:103,1,181.999990463257,0|0,0:0|1:0,0:0:0:0:
152,192,216984,1,0,0:0:0:0:
344,282,217178,101,0,0:0:0:0:
182,348,217371,1,0,1:0:0:0:
344,282,217565,2,0,L|360:193,1,90.9999952316285,8|0,0:0|0:0,0:0:0:0:
136,104,217952,1,0,1:0:0:0:
256,148,218145,1,0,1:0:0:0:
161,235,218339,5,0,0:0:0:0:
157,213,218436,1,0,0:0:0:0:
152,192,218532,1,8,0:0:0:0:
344,282,218726,1,0,1:0:0:0:
182,348,218920,1,0,0:0:0:0:
327,371,219113,2,0,L|344:282,1,90.9999952316285,8|0,0:0|1:0,0:0:0:0:
136,104,219500,1,0,0:0:0:0:
360,192,219694,1,8,0:0:0:0:
185,370,219887,102,0,L|168:280,1,90.9999952316285,0|0,1:3|0:0,0:0:0:0:
344,281,220274,2,0,L|360:192,1,90.9999952316285,0|0,0:0|1:0,0:0:0:0:
152,192,220662,2,0,L|119:14,1,181.999990463257,8|0,0:0|1:0,0:0:0:0:
256,150,221242,1,0,1:0:0:0:
376,103,221436,2,0,L|392:14,1,90.9999952316285,0|8,0:0|0:0,0:0:0:0:
152,192,221823,5,0,1:0:0:0:
344,282,222016,1,0,0:0:0:0:
185,370,222210,2,0,L|168:281,1,90.9999952316285,8|0,0:0|1:0,0:0:0:0:
344,281,222597,2,0,L|360:192,1,90.9999952316285
136,104,222984,2,0,L|119:14,1,90.9999952316285,0|0,1:0|0:0,0:0:0:0:
256,192,223371,101,0,0:0:0:0:
185,370,223565,1,0,1:0:0:0:
344,282,223758,2,0,L|362:184,1,90.9999952316285,8|0,0:0|0:0,0:0:0:0:
168,280,224145,1,0,1:0:0:0:
327,371,224339,1,0,1:0:0:0:
152,192,224533,5,0,0:0:0:0:
148,170,224630,1,0,0:0:0:0:
143,149,224726,1,8,0:0:0:0:
256,308,224920,2,0,L|274:210,1,90.9999952316285,0|0,1:0|0:0,0:0:0:0:
48,68,225307,2,0,L|64:157,1,90.9999952316285,8|0,0:0|1:0,0:0:0:0:
80,247,225694,1,0,0:0:0:0:
219,129,225887,1,8,0:0:0:0:
135,102,226081,38,0,L|151:191,1,90.9999952316285,0|0,1:0|0:0,0:0:0:0:
283,67,226468,2,0,P|245:44|200:42,1,90.9999952316285,0|0,0:0|1:0,0:0:0:0:
303,152,226855,2,0,P|384:177|453:116,1,181.999990463257,8|0,0:0|1:0,0:0:0:0:
368,92,227436,1,0,1:0:0:0:
500,192,227629,6,0,P|484:232|488:280,1,90.9999952316285,0|8,0:0|0:0,0:0:0:0:
335,313,228016,2,0,P|319:271|285:241,1,90.9999952316285,0|0,1:0|0:0,0:0:0:0:
89,245,228403,1,8,0:0:0:0:
248,321,228597,1,0,1:0:0:0:
324,162,228791,2,0,B|338:131|338:131|327:74,1,90.9999952316285
75,89,229178,102,0,B|106:80|136:85|162:102|162:102|162:102|189:119|221:122|250:115,1,181.999990463257,0|0,1:0|0:0,0:0:0:0:
221,30,229758,1,0,1:0:0:0:
105,174,229952,2,0,L|124:273,1,90.9999952316285,8|0,0:0|0:0,0:0:0:0:
323,148,230339,37,6,1:2:0:0:
88,85,230533,1,0,1:0:0:0:
190,203,230726,85,0,0:0:0:0:
190,203,230823,1,0,0:0:0:0:
190,203,230920,1,8,0:0:0:0:
53,322,231113,2,0,L|35:232,1,90.9999952316285,0|0,1:0|0:0,0:0:0:0:
175,115,231500,1,8,0:0:0:0:
3,54,231694,1,0,1:0:0:0:
258,146,231887,21,6,0:0:0:0:
35,233,232081,1,8,0:0:0:0:
244,59,232274,70,0,B|280:50|308:71|308:71|336:91|373:83,1,136.499992847443,0|0,1:0|0:0,0:0:0:0:
436,36,232662,2,0,P|400:9|355:8,1,90.9999952316285,0|0,0:0|1:0,0:0:0:0:
190,203,233049,2,0,L|225:382,1,181.999990463257,8|0,0:0|1:0,0:0:0:0:
320,320,233629,1,0,1:0:0:0:
122,263,233823,2,0,L|139:352,1,90.9999952316285,0|8,0:0|0:0,0:0:0:0:
280,218,234210,5,0,1:0:0:0:
160,104,234403,1,0,0:0:0:0:
243,304,234597,2,0,P|282:313|334:294,1,90.9999952316285,8|0,0:0|1:0,0:0:0:0:
375,133,234984,1,0,0:0:0:0:
187,228,235177,1,0,0:0:0:0:
408,248,235371,70,0,L|484:240,1,76.4399978607788,2|6,0:0|0:0,0:0:0:0:
472,256,238468,86,0,B|368:268|368:268|340:252,1,136.499992847443,0|0,1:0|0:0,0:0:0:0:
306,180,238855,2,0,P|346:172|398:196,1,90.9999952316285,0|0,0:0|1:0,0:0:0:0:
176,336,239242,2,0,P|93:353|29:287,1,181.999990463257,8|0,0:0|1:0,0:0:0:0:
174,80,239823,1,0,1:0:0:0:
116,269,240016,5,0,0:0:0:0:
90,63,240210,1,8,0:0:0:0:
202,252,240403,2,0,P|199:297|176:336,1,90.9999952316285,0|0,1:0|0:0,0:0:0:0:
144,188,240791,1,8,0:0:0:0:
288,237,240984,1,0,1:0:0:0:
90,353,241178,2,0,L|72:263,1,90.9999952316285
150,130,241565,102,0,P|66:151|4:90,1,181.999990463257,0|0,1:0|0:0,0:0:0:0:
90,63,242145,1,0,1:0:0:0:
212,197,242339,2,0,L|194:286,1,90.9999952316285,8|0,0:0|0:0,0:0:0:0:
125,226,242726,1,0,1:0:0:0:
297,166,242920,1,0,1:0:0:0:
161,49,243113,5,0,0:0:0:0:
161,49,243210,1,0,0:0:0:0:
161,49,243307,1,8,0:0:0:0:
281,257,243500,2,0,L|380:246,1,90.9999952316285,0|0,1:0|0:0,0:0:0:0:
492,59,243887,2,0,L|402:50,1,90.9999952316285,8|0,0:0|1:0,0:0:0:0:
227,183,244274,2,0,L|318:174,1,90.9999952316285,0|8,0:0|0:0,0:0:0:0:
470,343,244662,102,0,L|290:325,1,136.499992847443,0|0,1:0|0:0,0:0:0:0:
334,329,245049,1,0,0:0:0:0:
413,218,245242,1,0,1:0:0:0:
262,278,245436,2,0,P|248:319|253:365,1,90.9999952316285,8|0,0:0|0:0,0:0:0:0:
493,254,245823,1,0,1:0:0:0:
419,338,246016,1,0,1:0:0:0:
493,254,246210,2,0,P|498:209|484:166,1,90.9999952316285,0|8,0:0|0:0,0:0:0:0:
277,103,246597,5,0,1:0:0:0:
413,218,246791,1,0,0:0:0:0:
245,278,246984,1,8,0:0:0:0:
333,181,247178,1,0,1:0:0:0:
155,269,247371,2,0,L|65:260,1,90.9999952316285
277,103,247758,2,0,L|367:94,1,90.9999952316285,0|0,1:0|0:0,0:0:0:0:
224,29,248145,101,0,0:0:0:0:
282,191,248339,1,0,1:0:0:0:
443,134,248533,2,0,P|455:94|435:42,1,90.9999952316285,8|0,0:0|0:0,0:0:0:0:
203,151,248920,1,0,1:0:0:0:
369,179,249113,1,0,1:0:0:0:
261,308,249307,5,0,0:0:0:0:
261,308,249403,1,0,0:0:0:0:
261,308,249500,1,8,0:0:0:0:
277,103,249694,2,0,L|268:13,1,90.9999952316285,0|0,1:0|0:0,0:0:0:0:
444,220,250081,2,0,L|435:310,1,90.9999952316285,8|0,0:0|1:0,0:0:0:0:
269,206,250468,1,0,0:0:0:0:
443,115,250662,1,8,0:0:0:0:
328,296,250855,38,0,P|264:316|168:240,2,181.999990463257,2|0|8,0:0|0:0|0:0,0:0:0:0:
377,200,251823,1,0,0:0:0:0:
298,123,252016,2,0,P|273:161|269:206,1,90.9999952316285,2|0,0:0|0:0,0:0:0:0:
436,291,252403,1,0,0:0:0:0:
426,103,252597,1,8,0:0:0:0:
269,206,252791,2,0,P|280:249|310:283,1,90.9999952316285,2|0,0:0|0:0,0:0:0:0:
328,120,253178,2,0,P|264:100|168:176,1,181.999990463257,10|0,0:0|0:0,0:0:0:0:
181,265,253758,1,0,0:0:0:0:
80,114,253952,5,2,0:0:0:0:
269,206,254145,1,0,0:0:0:0:
94,323,254339,2,0,B|44:280|44:280|60:208,1,136.499992847443
59,211,254726,1,8,0:0:0:0:
181,265,254920,1,0,0:0:0:0:
73,343,255113,2,0,L|28:338,2,45.4999976158143,2|0|0,0:0|0:0|0:0,0:0:0:0:
270,255,255500,101,0,0:0:0:0:
270,255,255597,1,0,0:0:0:0:
270,255,255694,1,8,0:0:0:0:
95,128,255887,2,0,L|86:218,1,90.9999952316285,2|0,0:0|0:0,0:0:0:0:
358,241,256274,2,0,P|303:173|217:183,1,181.999990463257,10|0,0:0|0:0,0:0:0:0:
181,313,256855,1,8,0:0:0:0:
306,173,257049,6,0,L|288:-7,1,136.499992847443,2|0,0:0|0:0,0:0:0:0:
292,37,257436,1,0,0:0:0:0:
416,93,257629,1,0,0:0:0:0:
224,160,257823,2,0,L|215:69,1,90.9999952316285,8|0,0:0|0:0,0:0:0:0:
407,184,258210,2,0,L|398:274,1,90.9999952316285,2|0,0:0|0:0,0:0:0:0:
213,368,258597,101,0,0:0:0:0:
311,216,258791,1,8,0:0:0:0:
213,368,258984,2,0,P|176:356|112:348,1,90.9999952316285,2|0,0:0|0:0,0:0:0:0:
224,160,259371,2,0,P|269:121|361:126,1,136.499992847443,10|0,0:0|0:0,0:0:0:0:
407,184,259758,2,0,L|398:274,1,90.9999952316285,2|0,0:0|0:0,0:0:0:0:
213,368,260145,86,0,L|204:278,1,72.7999961853028,2|0,0:0|0:0,0:0:0:0:
64,298,260533,2,0,L|119:250,1,72.7999961853028
35,135,260920,2,0,L|199:176,1,145.599992370606,0|2,0:0|0:0,0:0:0:0:
176,170,261500,1,0,0:0:0:0:
332,292,261694,54,0,P|343:326|348:362,1,72.7999961853028
407,184,262081,2,0,P|439:196|471:216,1,72.7999961853028,2|0,0:0|0:0,0:0:0:0:
292,96,262468,2,0,P|355:61|425:40,1,145.599992370606,2|0,0:0|0:0,0:0:0:0:
425,39,263049,1,0,0:0:0:0:
206,142,263242,22,0,L|215:233,1,90.9999952316285,0|0,1:0|0:0,0:0:0:0:
385,246,263629,1,0,0:0:0:0:
224,324,263823,1,0,1:0:0:0:
370,333,264016,2,0,B|417:335|452:302,1,90.9999952316285,8|0,0:0|0:0,0:0:0:0:
129,211,264403,5,0,1:0:0:0:
302,276,264597,1,0,1:0:0:0:
144,297,264791,2,0,B|96:299|61:266,1,90.9999952316285,0|8,0:0|0:0,0:0:0:0:
388,77,265178,101,0,1:0:0:0:
215,142,265371,1,0,0:0:0:0:
373,164,265565,2,0,B|420:166|455:133,1,90.9999952316285,8|0,0:0|1:0,0:0:0:0:
126,28,265952,5,0,0:0:0:0:
299,93,266146,1,0,0:0:0:0:
140,114,266340,2,0,B|92:116|57:83,1,90.9999952316285,0|0,1:0|0:0,0:0:0:0:
388,77,266726,101,0,0:3:0:0:
215,142,266919,1,0,1:0:0:0:
374,163,267113,2,0,B|421:165|456:132,1,90.9999952316285,8|0,0:0|0:0,0:0:0:0:
126,28,267500,5,2,1:3:0:0:
299,93,267694,1,0,1:0:0:0:
80,172,267887,2,0,L|71:127,2,45.4999976158143,0|0|8,0:0|0:0|0:0,0:0:0:0:
304,204,268274,101,0,1:0:0:0:
97,261,268468,1,0,0:0:0:0:
287,293,268662,2,0,L|304:203,1,90.9999952316285,8|0,0:0|1:0,0:0:0:0:
89,34,269049,2,0,L|107:124,1,90.9999952316285,0|8,0:0|0:0,0:0:0:0:
220,234,269436,6,0,L|229:189,2,45.4999976158143,0|0|0,1:0|0:0|0:0,0:0:0:0:
63,277,269823,1,0,0:0:0:0:
287,293,270016,1,0,1:0:0:0:
107,124,270210,1,8,0:0:0:0:
202,323,270403,1,0,0:0:0:0:
327,142,270597,1,0,1:0:0:0:
154,199,270791,1,0,1:0:0:0:
291,320,270984,102,0,L|280:371,2,45.4999976158143,0|0|8,0:0|0:0|0:0,0:0:0:0:
279,66,271371,1,0,1:0:0:0:
220,234,271565,1,0,0:0:0:0:
395,201,271758,2,0,L|413:111,1,90.9999952316285,8|0,0:0|1:0,0:0:0:0:
188,101,272145,1,0,0:0:0:0:
327,142,272339,1,0,0:0:0:0:
147,240,272533,37,0,1:0:0:0:
128,46,272726,1,0,0:0:0:0:
352,224,272920,1,0,0:0:0:0:
321,28,273113,1,0,1:0:0:0:
394,305,273307,53,8,0:0:0:0:
413,111,273500,1,0,0:0:0:0:
200,287,273694,1,0,1:0:0:0:
220,93,273887,1,0,1:0:0:0:
379,208,274081,21,0,0:0:0:0:
379,208,274178,1,0,0:0:0:0:
379,208,274274,1,8,0:0:0:0:
210,190,274468,2,0,L|107:179,1,90.9999952316285,0|0,1:0|0:0,0:0:0:0:
277,132,274855,1,8,0:0:0:0:
157,21,275049,1,0,1:0:0:0:
277,132,275242,2,0,B|304:173|293:218,1,90.9999952316285,0|8,0:0|0:0,0:0:0:0:
120,180,275629,37,0,1:0:0:0:
187,122,275823,1,0,0:0:0:0:
120,180,276016,2,0,B|93:139|104:91,1,90.9999952316285,0|0,0:0|1:0,0:0:0:0:
256,192,276403,2,0,L|217:386,1,181.999990463257,8|2,0:0|1:3,0:0:0:0:
177,133,276984,1,0,1:0:0:0:
335,251,277178,2,0,L|317:340,1,90.9999952316285,0|8,0:0|0:0,0:0:0:0:
256,192,277565,5,0,1:0:0:0:
421,221,277758,1,0,0:0:0:0:
365,65,277952,2,0,L|347:154,1,90.9999952316285,8|0,0:0|1:0,0:0:0:0:
445,125,278339,1,0,0:0:0:0:
267,94,278533,1,2,0:0:0:0:
335,251,278726,2,0,L|421:221,1,90.9999952316285,2|0,1:3|0:0,0:0:0:0:
179,123,279113,102,0,B|135:101|88:117,1,90.9999952316285,0|0,0:0|1:0,0:0:0:0:
74,337,279500,2,0,L|247:279,1,181.999990463257,8|0,0:0|1:0,0:0:0:0:
129,196,280081,1,0,1:0:0:0:
270,251,280274,2,0,L|265:300,2,45.4999976158143,0|0|8,0:0|0:0|0:0,0:0:0:0:
389,156,280662,5,0,1:0:0:0:
247,101,280855,1,0,0:0:0:0:
349,235,281049,2,0,B|394:251|438:229,1,90.9999952316285,8|0,0:0|1:0,0:0:0:0:
286,21,281436,2,0,B|241:5|197:27,1,90.9999952316285,0|8,0:0|0:0,0:0:0:0:
198,27,281726,1,0,0:0:0:0:
198,27,281823,37,0,1:0:0:0:
297,174,282016,1,0,0:0:0:0:
375,15,282210,1,0,0:0:0:0:
209,180,282403,1,0,1:0:0:0:
437,229,282597,5,8,0:0:0:0:
247,101,282791,1,0,0:0:0:0:
231,329,282984,1,0,1:0:0:0:
342,165,283178,1,0,1:0:0:0:
178,54,283371,101,0,0:0:0:0:
303,262,283565,1,8,0:0:0:0:
421,50,283758,1,0,1:0:0:0:
271,116,283952,1,0,0:0:0:0:
402,213,284145,6,0,B|449:202|492:199,1,90.9999952316285,8|0,0:2|1:0,0:0:0:0:
354,372,284533,2,0,B|310:369|265:359,1,90.9999952316285,0|0,0:0|0:3,0:0:0:0:
199,93,284920,21,0,1:0:0:0:
183,288,285113,1,0,0:0:0:0:
394,109,285307,1,0,0:0:0:0:
378,304,285500,1,0,1:0:0:0:
255,42,285694,53,8,0:0:0:0:
278,238,285888,1,0,0:0:0:0:
451,19,286081,1,0,1:0:0:0:
474,215,286274,1,0,1:0:0:0:
292,136,286468,5,0,0:0:0:0:
292,136,286565,1,0,0:0:0:0:
292,136,286662,2,0,L|311:47,1,90.9999952316285,8|0,0:0|1:0,0:0:0:0:
417,265,287049,1,0,0:0:0:0:
176,248,287242,2,0,L|156:159,1,90.9999952316285,8|0,0:0|1:0,0:0:0:0:
331,214,287629,5,2,0:3:0:0:
196,337,287823,1,8,0:0:0:0:
156,159,288016,2,0,L|136:70,1,90.9999952316285,2|0,1:2|0:0,0:0:0:0:
285,241,288403,37,0,0:0:0:0:
196,237,288597,1,0,1:0:0:0:
336,169,288791,2,0,P|373:250|323:322,1,163.799986418152,8|0,0:0|1:0,0:0:0:0:
252,324,289371,1,0,1:0:0:0:
252,324,289758,5,8,0:0:0:0:
397,381,289952,2,0,B|488:370,1,81.8999932090762,0|0,1:0|0:0,0:0:0:0:
285,241,290339,2,0,B|244:259|204:242,1,81.8999932090762,8|0,0:0|1:0,0:0:0:0:
85,131,290726,1,0,0:0:0:0:
245,163,290920,1,0,0:0:0:0:
138,285,291113,1,0,1:0:0:0:
138,285,291500,102,0,B|163:249|206:243,1,81.8999932090762,0|0,0:0|1:0,0:0:0:0:
277,122,291887,2,0,P|216:122|171:83,1,122.849989813614,8|0,0:0|0:0,0:0:0:0:
171,83,292274,2,0,B|190:171,1,81.8999932090762,2|0,1:2|1:0,0:0:0:0:
337,226,292662,1,0,0:0:0:0:
337,226,292758,1,0,0:0:0:0:
337,226,292855,1,8,0:0:0:0:
208,323,293049,5,0,1:0:0:0:
262,194,293242,1,0,0:0:0:0:
346,305,293436,2,0,B|368:342|355:383,1,81.8999932090762,8|0,0:0|1:0,0:0:0:0:
213,266,293823,2,0,B|199:224|222:187,1,81.8999932090762,0|8,0:0|0:0,0:0:0:0:
400,100,294210,38,0,B|441:91,2,40.9499966045381,0|0|0,1:0|0:0|0:0,0:0:0:0:
286,235,294597,1,0,0:0:0:0:
226,69,294791,1,0,1:0:0:0:
343,168,294984,5,8,0:0:0:0:
199,219,295178,1,0,0:0:0:0:
313,85,295371,1,0,1:0:0:0:
373,251,295565,1,0,1:0:0:0:
256,152,295758,101,0,0:0:0:0:
487,116,295952,1,8,0:0:0:0:
402,334,296145,2,0,B|314:315,1,81.8999932090762,0|0,1:0|0:0,0:0:0:0:
432,196,296533,1,8,0:0:0:0:
482,351,296726,1,0,1:0:0:0:
286,235,296920,101,2,0:0:0:0:
487,116,297113,1,0,0:0:0:0:
316,318,297307,70,0,B|275:331|237:310,1,81.8999932090762,0|0,1:0|0:3,0:0:0:0:
256,152,297694,2,0,B|296:138|334:159,1,81.8999932090762,0|0,0:0|1:0,0:0:0:0:
167,221,298081,2,0,L|147:76,1,122.849989813614,8|0,0:0|0:0,0:0:0:0:
151,99,298468,1,0,1:0:0:0:
286,235,298662,1,0,1:0:0:0:
100,283,298855,6,0,L|28:272,1,72.7999961853028,2|0,0:0|0:0,0:0:0:0:
126,191,299242,2,0,L|54:180,1,72.7999961853028
151,99,299629,1,2,0:0:0:0:
151,99,300016,2,0,L|79:88,2,72.7999961853028,2|0|0,0:0|0:0|1:0,0:0:0:0:
256,192,300499,12,0,312403,1:0:0:0:
