osu file format v14

[General]
AudioFilename: audio.ogg
AudioLeadIn: 0
PreviewTime: 115986
Countdown: 0
SampleSet: Soft
StackLeniency: 0.3
Mode: 0
LetterboxInBreaks: 0
WidescreenStoryboard: 1

[Editor]
Bookmarks: 30038,43287,51656,76187,84288,92389,93908,100490,117183,125284,128195,129334,133385,137955
DistanceSpacing: 0.5
BeatDivisor: 4
GridSize: 16
TimelineZoom: 3.099999

[Metadata]
Title:Piss On Your Grave (feat. Kanye West)
TitleUnicode:Piss On Your Grave (feat. Kanye West)
Artist:Travis Scott
ArtistUnicode:Travis Scott
Creator:Visionary
Version:tity's Extra
Source:
Tags:english rap trap hip-hop hip hop psychedelic rock rodeo expanded edition travi$ ralsricat jamesjan3 lurumic ajitani hifumi we vibing tity so help me god ye perero in
BeatmapID:3884680
BeatmapSetID:1882593

[Difficulty]
HPDrainRate:4
CircleSize:3.6
OverallDifficulty:8
ApproachRate:9.4
SliderMultiplier:3.2
SliderTickRate:0.5

[Events]
//Background and Video events
0,0,"gravebg.jpg",0,0
//Break Periods
2,43522,51151
//Storyboard Layer 0 (Background)
//Storyboard Layer 1 (Fail)
//Storyboard Layer 2 (Pass)
//Storyboard Layer 3 (Foreground)
//Storyboard Layer 4 (Overlay)
//Storyboard Sound Samples

[TimingPoints]
1640,521.739130434783,4,2,1,60,1,0
1640,-142.857142857143,4,2,1,60,0,0
2709,521.739130434783,4,2,1,60,1,0
3213,521.739130434783,4,2,1,60,1,0
3604,-100,4,2,99,5,0,0
3734,-100,4,2,1,60,0,0
5169,-100,4,2,99,5,0,0
5310,521.739130434783,4,2,1,60,1,0
5310,-166.666666666667,4,2,1,60,0,0
5701,-166.666666666667,4,2,99,5,0,0
5832,521.739130434783,4,2,1,60,1,0
5832,-142.857142857143,4,2,1,60,0,0
6745,-142.857142857143,4,2,99,5,0,0
6875,-142.857142857143,4,2,1,60,0,0
7266,-142.857142857143,4,2,99,5,0,0
7397,461.538461538462,4,2,1,60,1,0
7911,521.739130434783,4,2,1,60,1,0
7911,-178.571428571429,4,2,1,60,0,0
8944,521.739130434783,4,2,2,60,1,0
9987,-142.857142857143,4,2,1,60,0,0
11067,521.739130434783,4,2,1,60,1,0
11458,-100,4,2,99,5,0,0
11585,521.739130434783,4,2,1,60,1,0
11976,-100,4,2,99,5,0,0
12106,-142.857142857143,4,2,1,60,0,0
13162,495.867768595042,4,2,1,60,1,0
13533,-100,4,2,99,5,0,0
13657,-166.666666666667,4,2,1,60,0,0
14028,-166.666666666667,4,2,99,5,0,0
14193,521.739130434783,4,2,1,60,1,0
15106,-100,4,2,99,5,0,0
15204,-100,4,2,2,60,0,0
15366,-100,4,2,99,5,0,0
15497,-100,4,2,2,60,0,0
15627,-100,4,2,99,5,0,0
15726,-100,4,2,1,60,0,0
15758,-166.666666666667,4,2,1,60,0,0
16149,-166.666666666667,4,2,99,5,0,0
16263,521.739130434783,4,2,1,60,1,0
16523,-250,4,2,1,60,0,0
16784,-100,4,2,1,60,0,0
17306,-142.857142857143,4,2,1,60,0,0
17436,-142.857142857143,4,2,99,5,0,0
17552,545.454545454546,4,2,1,60,1,0
18233,-100,4,2,99,5,0,0
18334,521.739130434783,4,2,1,60,1,0
19311,-100,4,2,99,5,0,0
19442,521.739130434783,4,2,1,60,1,0
19833,-100,4,2,99,5,0,0
19931,521.739130434783,4,2,1,60,1,0
19931,-166.666666666667,4,2,1,60,0,0
20322,-166.666666666667,4,2,99,5,0,0
20420,521.739130434783,4,2,1,60,1,0
20420,-111.111111111111,4,2,1,60,0,0
21333,-111.111111111111,4,2,99,5,0,0
21495,521.739130434783,4,2,1,60,1,0
21495,-125,4,2,1,60,0,0
21625,-125,4,2,99,5,0,0
21755,-125,4,2,1,60,0,0
21885,-125,4,2,99,5,0,0
22016,-125,4,2,1,60,0,0
22146,-125,4,2,99,5,0,0
22277,-125,4,2,1,60,0,0
22407,-125,4,2,99,5,0,0
22536,508.474576271187,4,2,1,60,1,0
23583,540.540540540541,4,2,1,60,1,0
23988,-100,4,2,99,5,0,0
24072,521.739130434783,4,2,1,60,1,0
24072,-142.857142857143,4,2,1,60,0,0
24463,-142.857142857143,4,2,99,5,0,0
24593,-1000,4,2,1,60,0,0
25506,-1000,4,2,99,5,0,0
25637,-100,4,2,2,60,0,0
25767,-100,4,2,99,5,0,0
25898,-100,4,2,2,60,0,0
26028,-100,4,2,99,5,0,0
26158,-111.111111111111,4,2,2,60,0,0
26288,-111.111111111111,4,2,99,5,0,0
26419,-111.111111111111,4,2,2,60,0,0
26549,-111.111111111111,4,2,99,5,0,0
26680,521.739130434783,4,2,1,60,1,0
26680,-142.857142857143,4,2,1,60,0,0
27730,521.739130434783,4,2,1,60,1,0
27730,-113.39542985447,4,2,1,60,0,0
28121,-113.39542985447,4,2,99,5,0,0
28259,521.739130434783,4,2,1,60,1,0
28259,-125,4,2,1,60,0,0
28650,-125,4,2,99,5,0,0
28769,521.739130434783,4,2,1,60,1,0
29682,-100,4,2,99,5,0,0
29812,-100,4,2,1,60,0,0
29942,-100,4,2,99,5,0,0
30073,-100,4,2,1,60,0,0
30203,-100,4,2,99,5,0,0
30334,-100,4,2,1,60,0,0
30464,-100,4,2,99,5,0,0
30595,-100,4,2,1,60,0,0
30725,-100,4,2,99,5,0,0
30855,-500,4,2,1,60,0,0
31899,-90.9090909090909,4,2,2,60,0,0
32290,-90.9090909090909,4,2,99,5,0,0
32421,-90.9090909090909,4,2,1,60,0,0
32508,-100,4,2,1,60,0,0
32855,-100,4,2,99,5,0,0
32930,521.739130434783,4,2,1,60,1,0
33060,-125,4,2,1,60,0,0
33451,631.578947368422,4,2,1,60,1,0
33451,-142.857142857143,4,2,1,60,0,0
33608,-142.857142857143,4,2,99,5,0,0
33766,-142.857142857143,4,2,1,60,0,0
33923,-142.857142857143,4,2,99,5,0,0
33986,521.739130434783,4,2,1,60,1,0
33986,-90.9090909090909,4,2,1,60,0,0
34116,-90.9090909090909,4,2,99,5,0,0
34246,-90.9090909090909,4,2,1,60,0,0
34507,-76.9230769230769,4,2,1,60,0,0
34898,-76.9230769230769,4,2,99,5,0,0
35029,-76.9230769230769,4,2,1,60,0,0
35290,-76.9230769230769,4,2,2,60,0,0
35551,-76.9230769230769,4,2,1,60,0,0
36072,-71.4285714285714,4,2,1,60,0,0
36463,-71.4285714285714,4,2,99,5,0,0
36594,-71.4285714285714,4,2,1,60,0,0
37377,-250,4,2,1,60,0,0
37638,-166.666666666667,4,2,1,60,0,0
37769,-166.666666666667,4,2,2,60,0,0
38029,-166.666666666667,4,2,1,60,0,0
38159,-100,4,2,1,60,0,0
38290,-100,4,2,2,60,0,0
38681,-62.5,4,2,3,60,0,0
38812,-62.5,4,2,1,60,0,0
39203,-58.8235294117647,4,2,2,60,0,0
40247,-58.8235294117647,4,2,1,60,0,0
40637,-58.8235294117647,4,2,99,5,0,0
40768,-125,4,2,1,60,0,0
41160,-125,4,2,2,60,0,0
41290,-100,4,2,1,60,0,0
41421,-100,4,2,2,60,0,0
41551,-100,4,2,1,60,0,0
41942,-100,4,2,2,60,0,0
42203,-100,4,2,1,60,0,0
42464,-100,4,2,2,60,0,0
42855,-100,4,2,1,60,0,0
43322,522.875816993464,4,2,1,40,1,0
51691,506.329113924051,4,2,3,70,1,0
51691,-250.000000000001,4,2,3,70,0,0
52703,-250.000000000001,4,2,2,70,0,0
52956,-250.000000000001,4,2,3,70,0,0
53209,-250.000000000001,4,2,4,70,0,0
53652,-250.000000000001,4,2,99,5,0,0
53716,-227.272727272727,4,2,4,70,0,0
54728,-227.272727272727,4,2,2,70,0,0
55361,-250,4,2,2,70,0,0
55677,-250,4,2,99,5,0,0
55741,-195.3125,4,2,3,70,0,0
56754,-195.3125,4,2,2,70,0,0
57007,-250,4,2,3,70,0,0
57196,-250,4,2,99,5,0,0
57260,-166.666666666667,4,2,4,70,0,0
57703,-166.666666666667,4,2,99,5,0,0
57766,-181.818181818182,4,2,4,70,0,0
58779,-181.818181818182,4,2,2,70,0,0
59412,-250,4,2,2,70,0,0
59728,-250,4,2,99,5,0,0
59792,-172.413793103448,4,2,3,70,0,0
60804,-172.413793103448,4,2,2,70,0,0
61058,-250,4,2,3,70,0,0
61247,-250,4,2,99,5,0,0
61311,-204.081632653061,4,2,4,70,0,0
61754,-204.081632653061,4,2,99,5,0,0
61817,-166.666666666667,4,2,4,70,0,0
62830,-166.666666666667,4,2,2,70,0,0
63463,-250,4,2,2,70,0,0
63779,-250,4,2,99,5,0,0
63842,-151.515151515152,4,2,3,70,0,0
64855,-151.515151515152,4,2,2,70,0,0
65108,-151.515151515152,4,2,3,70,0,0
65361,-151.515151515152,4,2,4,70,0,0
65488,-250,4,2,4,70,0,0
65804,-250,4,2,99,5,0,0
65868,-136.986301369863,4,2,4,70,0,0
66880,-136.986301369863,4,2,2,70,0,0
67513,-250,4,2,2,70,0,0
67766,-250,4,2,99,5,0,0
67893,520.60737527115,4,2,72,45,1,0
71537,-1000,4,2,72,45,0,0
71970,-1000,4,2,99,5,0,0
72057,-1000,4,2,72,45,0,0
72578,-714.285714285714,4,2,72,45,0,0
74140,-588.235294117647,4,2,72,45,0,0
75702,-1000,4,2,72,45,0,0
76135,-1000,4,2,99,5,0,0
76222,506.329113924051,4,2,3,85,1,0
76222,-66.6666666666667,4,2,3,85,0,0
76306,-66.6666666666667,4,2,99,5,0,0
76390,-66.6666666666667,4,2,3,85,0,0
76475,-66.6666666666667,4,2,4,85,0,0
76643,-66.6666666666667,4,2,99,5,0,0
76728,-40,4,2,4,85,0,0
76917,-40,4,2,99,5,0,0
76981,-43.4782608695652,4,2,4,85,0,0
77170,-43.4782608695652,4,2,99,5,0,0
77234,-43.4782608695652,4,2,4,85,0,0
77297,-43.4782608695652,4,2,99,5,0,0
77487,-43.4782608695652,4,2,3,85,0,0
77676,-43.4782608695652,4,2,99,5,0,0
77740,-38.4615384615385,4,2,5,85,0,0
78183,-38.4615384615385,4,2,99,5,0,0
78247,-38.4615384615385,4,2,4,85,0,0
78500,-47.6190476190476,4,2,4,85,0,0
78689,-47.6190476190476,4,2,99,5,0,0
78753,-38.4615384615385,4,2,4,85,0,0
78942,-38.4615384615385,4,2,99,5,0,0
79006,-58.8235294117647,4,2,6,85,0,0
79195,-58.8235294117647,4,2,99,5,0,0
79259,-166.666666666667,4,2,7,85,0,0
79448,-166.666666666667,4,2,99,5,0,0
79513,-40,4,2,4,85,0,0
79702,-40,4,2,99,5,0,0
79766,-40,4,2,5,85,0,0
79829,-40,4,2,4,85,0,0
80019,-40,4,2,3,85,0,0
80082,-40,4,2,4,85,0,0
80272,-58.8235294117647,4,2,3,85,0,0
80356,-58.8235294117647,4,2,99,5,0,0
80441,-58.8235294117647,4,2,3,85,0,0
80525,-58.8235294117647,4,2,4,85,0,0
80694,-58.8235294117647,4,2,99,5,0,0
80778,-33.8983050847458,4,2,4,85,0,0
80967,-33.8983050847458,4,2,99,5,0,0
81032,-38.4615384615385,4,2,4,85,0,0
81221,-38.4615384615385,4,2,99,5,0,0
81285,-40,4,2,4,85,0,0
81348,-40,4,2,99,5,0,0
81538,-40,4,2,8,85,0,0
81727,-40,4,2,99,5,0,0
81791,-40,4,2,5,85,0,0
82234,-40,4,2,99,5,0,0
82297,-40,4,2,4,85,0,0
82740,-40,4,2,99,5,0,0
82804,-34.4827586206897,4,2,4,85,0,0
82993,-34.4827586206897,4,2,99,5,0,0
83057,-58.8235294117647,4,2,6,85,0,0
83246,-58.8235294117647,4,2,99,5,0,0
83310,-83.3333333333333,4,2,7,85,0,0
83373,-83.3333333333333,4,2,4,85,0,0
83816,-83.3333333333333,4,2,5,85,0,0
83859,-83.3333333333333,4,2,4,85,0,0
84070,-45.4545454545455,4,2,3,85,0,0
84112,-45.4545454545455,4,2,4,85,0,0
84259,-45.4545454545455,4,2,99,5,0,0
84323,-111.111111111111,4,2,3,85,0,0
84407,-111.111111111111,4,2,99,5,0,0
84492,-111.111111111111,4,2,3,85,0,0
84576,-111.111111111111,4,2,4,85,0,0
84913,-111.111111111111,4,2,99,5,0,0
84998,-111.111111111111,4,2,4,85,0,0
85251,-111.111111111111,4,2,99,5,0,0
85335,-111.111111111111,4,2,4,85,0,0
85419,-111.111111111111,4,2,99,5,0,0
85504,-66.6666666666667,4,2,4,85,0,0
85589,-66.6666666666667,4,2,3,85,0,0
85673,-52.6315789473684,4,2,3,85,0,0
85799,-52.6315789473684,4,2,99,5,0,0
85842,-40,4,2,5,85,0,0
86285,-40,4,2,99,5,0,0
86348,-90.9090909090909,4,2,4,85,0,0
86411,-90.9090909090909,4,2,99,5,0,0
86517,-90.9090909090909,4,2,4,85,0,0
86854,-37.037037037037,4,2,4,85,0,0
87043,-37.037037037037,4,2,99,5,0,0
87108,-47.6190476190476,4,2,6,85,0,0
87297,-47.6190476190476,4,2,99,5,0,0
87361,-833.333333333333,4,2,7,85,0,0
87614,-833.333333333333,4,2,4,85,0,0
87804,-833.333333333333,4,2,99,5,0,0
87867,-100,4,2,5,85,0,0
87930,-100,4,2,4,85,0,0
88120,-100,4,2,3,85,0,0
88184,-100,4,2,4,85,0,0
88373,-89.2857142857143,4,2,3,85,0,0
88457,-89.2857142857143,4,2,99,5,0,0
88542,-70.4225352112676,4,2,3,85,0,0
88627,-70.4225352112676,4,2,4,85,0,0
88711,-60.790273556231,4,2,4,85,0,0
88795,-60.790273556231,4,2,99,5,0,0
88880,-60.790273556231,4,2,4,85,0,0
89049,-80.3212851405623,4,2,4,85,0,0
89386,-125,4,2,4,85,0,0
89470,-125,4,2,99,5,0,0
89555,-68.0272108843537,4,2,4,85,0,0
89639,-68.0272108843537,4,2,8,85,0,0
89724,-62.5,4,2,8,85,0,0
89808,-62.5,4,2,99,5,0,0
89892,-34.4827586206897,4,2,5,85,0,0
90335,-34.4827586206897,4,2,99,5,0,0
90399,-34.4827586206897,4,2,4,85,0,0
90567,-83.3333333333333,4,2,4,85,0,0
90988,-83.3333333333333,4,2,99,5,0,0
91158,-83.3333333333333,4,2,6,85,0,0
91326,-47.6190476190476,4,2,6,85,0,0
91360,-34.4827586206897,4,2,99,85,0,0
91369,-34.4827586206897,4,2,99,5,0,0
91411,-34.4827586206897,4,2,7,85,0,0
91475,-34.4827586206897,4,2,4,85,0,0
91728,-34.4827586206897,4,2,99,5,0,0
91918,-83.3333333333333,4,2,5,85,0,0
91960,-83.3333333333333,4,2,4,85,0,0
92171,-83.3333333333333,4,2,3,85,0,0
92213,-83.3333333333333,4,2,4,85,0,0
93943,-36.7647058823529,4,2,5,85,0,0
94386,-36.7647058823529,4,2,99,5,0,0
94449,-90.9090909090909,4,2,4,85,0,0
94533,-90.9090909090909,4,2,99,5,0,0
94618,-90.9090909090909,4,2,4,85,0,0
94871,-90.9090909090909,4,2,99,5,0,0
94956,-34.4827586206897,4,2,4,85,0,0
95145,-34.4827586206897,4,2,99,5,0,0
95209,-32.258064516129,4,2,6,85,0,0
95398,-32.258064516129,4,2,99,5,0,0
95462,-76.9230769230769,4,2,7,85,0,0
95546,-76.9230769230769,4,2,99,5,0,0
95631,-76.9230769230769,4,2,7,85,0,0
95715,-76.9230769230769,4,2,4,85,0,0
95884,-76.9230769230769,4,2,99,5,0,0
95968,-100,4,2,5,85,0,0
96032,-100,4,2,4,85,0,0
96222,-100,4,2,3,85,0,0
96285,-100,4,2,4,85,0,0
96475,-80,4,2,3,85,0,0
96559,-80,4,2,99,5,0,0
96643,-80,4,2,3,85,0,0
96728,-80,4,2,4,85,0,0
96812,-68.9655172413793,4,2,4,85,0,0
96896,-68.9655172413793,4,2,99,5,0,0
96980,-68.9655172413793,4,2,4,85,0,0
97487,-100,4,2,4,85,0,0
97655,-100,4,2,99,5,0,0
97740,-35.84229390681,4,2,8,85,0,0
97929,-35.84229390681,4,2,99,5,0,0
97994,-83.3333333333333,4,2,5,85,0,0
98078,-83.3333333333333,4,2,99,5,0,0
98162,-83.3333333333333,4,2,5,85,0,0
98415,-83.3333333333333,4,2,99,5,0,0
98500,-83.3333333333333,4,2,4,85,0,0
99006,-40,4,2,4,85,0,0
99195,-40,4,2,99,5,0,0
99259,-50.251256281407,4,2,6,85,0,0
99448,-50.251256281407,4,2,99,5,0,0
99513,-76.9230769230769,4,2,7,85,0,0
99576,-76.9230769230769,4,2,4,85,0,0
100019,-83.3333333333333,4,2,5,85,0,0
100061,-83.3333333333333,4,2,4,85,0,0
100272,-83.3333333333333,4,2,3,85,0,0
100314,-83.3333333333333,4,2,4,85,0,0
100525,519.48051948052,4,2,2,70,1,0
100654,-100,4,2,1,70,0,0
100914,-100,4,2,2,70,0,0
101563,-142.857142857143,4,2,2,70,0,0
102537,-142.857142857143,4,2,99,5,0,0
102602,-250,4,2,2,70,0,0
103576,-250,4,2,99,5,0,0
103641,-1000,4,2,2,70,0,0
104615,-1000,4,2,99,5,0,0
104680,-1000,4,2,2,70,0,0
104810,-125,4,2,1,70,0,0
105070,-125,4,2,2,70,0,0
106693,-125,4,2,99,5,0,0
106758,-200,4,2,2,70,0,0
107732,-200,4,2,99,5,0,0
107797,-200,4,2,2,70,0,0
108866,527.472527472528,4,2,2,70,1,0
108965,-100,4,2,1,70,0,0
109229,-100,4,2,2,70,0,0
109525,-142.857142857143,4,2,2,70,0,0
109887,527.472527472527,4,2,2,70,1,0
109887,-133.333333333333,4,2,2,70,0,0
110947,545.454545454546,4,2,2,70,1,0
110947,-142.857142857143,4,2,2,70,0,0
111969,-142.857142857143,4,2,99,5,0,0
112037,-153.846153846154,4,2,2,70,0,0
112991,-153.846153846154,4,2,99,5,0,0
113026,527.472527472528,4,2,2,70,1,0
113157,-100,4,2,1,70,0,0
113421,-100,4,2,2,70,0,0
114080,-187.160771102377,4,2,2,70,0,0
115069,-187.160771102377,4,2,99,5,0,0
115135,-125,4,2,2,70,0,0
116058,-125,4,2,72,70,0,0
117218,506.329113924051,4,2,3,90,1,1
117218,-55.5555555555556,4,2,3,90,0,1
117302,-55.5555555555556,4,2,99,5,0,1
117386,-55.5555555555556,4,2,3,90,0,1
117471,-55.5555555555556,4,2,4,90,0,1
117639,-55.5555555555556,4,2,99,5,0,1
117724,-34.4827586206897,4,2,4,90,0,1
117913,-34.4827586206897,4,2,99,5,0,1
117977,-40,4,2,4,90,0,1
118166,-40,4,2,99,5,0,1
118230,-200,4,2,4,90,0,1
118419,-200,4,2,99,5,0,1
118483,-36.101083032491,4,2,3,90,0,1
118672,-36.101083032491,4,2,99,5,0,1
118736,-54.9450549450549,4,2,5,90,0,1
118820,-54.9450549450549,4,2,99,5,0,1
118905,-54.9450549450549,4,2,5,90,0,1
119158,-54.9450549450549,4,2,99,5,0,1
119243,-35.0877192982456,4,2,4,90,0,1
119432,-35.0877192982456,4,2,99,5,0,1
119496,-35.0877192982456,4,2,4,90,0,1
119685,-35.0877192982456,4,2,99,5,0,1
119749,-58.8235294117647,4,2,4,90,0,1
119938,-58.8235294117647,4,2,99,5,0,1
120002,-71.4285714285714,4,2,6,90,0,1
120255,-52.6315789473684,4,2,7,90,0,1
120339,-52.6315789473684,4,2,99,5,0,1
120424,-52.6315789473684,4,2,7,90,0,1
120509,-52.6315789473684,4,2,4,90,0,1
120593,-51.0204081632653,4,2,4,90,0,1
120677,-51.0204081632653,4,2,99,5,0,1
120762,-51.0204081632653,4,2,5,90,0,1
120825,-51.0204081632653,4,2,4,90,0,1
121015,-51.0204081632653,4,2,3,90,0,1
121078,-51.0204081632653,4,2,4,90,0,1
121268,-55.5555555555556,4,2,3,90,0,1
121352,-55.5555555555556,4,2,99,5,0,1
121437,-52.6315789473684,4,2,3,90,0,1
121521,-52.6315789473684,4,2,4,90,0,1
121606,-50,4,2,4,90,0,1
121690,-50,4,2,99,5,0,1
121774,-34.4827586206897,4,2,4,90,0,1
121963,-34.4827586206897,4,2,99,5,0,1
122028,-34.4827586206897,4,2,4,90,0,1
122217,-34.4827586206897,4,2,99,5,0,1
122281,-200,4,2,4,90,0,1
122470,-200,4,2,99,5,0,1
122534,-31.25,4,2,8,90,0,1
122723,-31.25,4,2,99,5,0,1
122787,-55.5555555555556,4,2,5,90,0,1
122871,-55.5555555555556,4,2,99,5,0,1
122956,-55.5555555555556,4,2,5,90,0,1
123209,-55.5555555555556,4,2,99,5,0,1
123293,-33.3333333333333,4,2,4,90,0,1
123482,-33.3333333333333,4,2,99,5,0,1
123547,-200,4,2,4,90,0,1
123736,-200,4,2,99,5,0,1
123800,-43.4782608695652,4,2,4,90,0,1
123989,-43.4782608695652,4,2,99,5,0,1
124053,-43.4782608695652,4,2,6,90,0,1
124306,-83.3333333333333,4,2,7,90,0,1
124369,-83.3333333333333,4,2,4,90,0,1
124812,-83.3333333333333,4,2,5,90,0,1
124855,-83.3333333333333,4,2,4,90,0,1
125066,-83.3333333333333,4,2,3,90,0,1
125108,-83.3333333333333,4,2,4,90,0,1
125319,-250,4,2,3,90,0,1
125403,-250,4,2,99,5,0,1
125488,-250,4,2,3,90,0,1
125572,-250,4,2,4,90,0,1
125740,-250,4,2,99,5,0,1
125825,-43.4782608695652,4,2,4,90,0,1
126014,-43.4782608695652,4,2,99,5,0,1
126078,-43.4782608695652,4,2,4,90,0,1
126267,-43.4782608695652,4,2,99,5,0,1
126331,-333.333333333333,4,2,4,90,0,1
126520,-333.333333333333,4,2,99,5,0,1
126585,-47.6190476190476,4,2,3,90,0,1
126774,-47.6190476190476,4,2,99,5,0,1
126838,-250,4,2,5,90,0,1
126922,-250,4,2,99,5,0,1
127007,-250,4,2,5,90,0,1
127259,-250,4,2,99,5,0,1
127344,-40,4,2,4,90,0,1
127533,-40,4,2,99,5,0,1
127597,-250,4,2,4,90,0,1
127786,-250,4,2,99,5,0,1
127850,-38.4615384615385,4,2,4,90,0,1
128039,-38.4615384615385,4,2,99,5,0,1
128104,-38.4615384615385,4,2,4,90,0,1
128230,-38.4615384615385,4,2,4,90,0,0
129369,-200,4,2,3,90,0,1
129453,-200,4,2,99,5,0,1
129538,-200,4,2,3,90,0,1
129623,-200,4,2,4,90,0,1
129791,-200,4,2,99,5,0,1
129876,-40,4,2,4,90,0,1
130065,-40,4,2,99,5,0,1
130129,-40,4,2,4,90,0,1
130318,-40,4,2,99,5,0,1
130382,-142.857142857143,4,2,4,90,0,1
130571,-142.857142857143,4,2,99,5,0,1
130635,-40.8163265306122,4,2,8,90,0,1
130824,-40.8163265306122,4,2,99,5,0,1
130888,-55.5555555555556,4,2,5,90,0,1
130972,-55.5555555555556,4,2,99,5,0,1
131057,-55.5555555555556,4,2,5,90,0,1
131310,-55.5555555555556,4,2,99,5,0,1
131395,-33.4448160535117,4,2,4,90,0,1
131584,-33.4448160535117,4,2,99,5,0,1
131648,-500,4,2,4,90,0,1
131837,-500,4,2,99,5,0,1
131901,-33.4448160535117,4,2,4,90,0,1
132090,-33.4448160535117,4,2,99,5,0,1
132154,-33.4448160535117,4,2,6,90,0,1
132407,-40.8163265306122,4,2,7,90,0,1
132471,-40.8163265306122,4,2,4,90,0,1
132724,-40.8163265306122,4,2,99,5,0,1
132914,-83.3333333333333,4,2,5,90,0,1
132956,-83.3333333333333,4,2,4,90,0,1
133167,-83.3333333333333,4,2,3,90,0,1
133209,-83.3333333333333,4,2,4,90,0,1
133420,-83.3333333333333,4,2,2,75,0,0
133547,-142.857142857143,4,2,1,75,0,0
133800,-142.857142857143,4,2,2,75,0,0
134432,533.333333333334,4,2,2,75,1,0
135498,525.164113785558,4,2,2,75,1,0
135498,-151.515151515152,4,2,2,75,0,0
136482,-151.515151515152,4,2,99,5,0,0
136548,-158.730158730159,4,2,2,75,0,0
137532,-158.730158730159,4,2,99,5,0,0
137598,482.897384305835,4,2,2,75,1,0
137718,-83.3333333333333,4,2,2,75,0,0
137729,-83.3333333333333,4,2,1,75,0,0
137992,-83.3333333333333,4,2,2,75,0,0
138101,503.14465408805,4,2,2,75,1,0
138226,-111.111111111111,4,2,2,75,0,0
138648,525.164113785558,4,2,2,75,1,0
138648,-142.857142857143,4,2,2,75,0,0
139632,-142.857142857143,4,2,99,5,0,0
139698,-200,4,2,2,75,0,0
140682,-200,4,2,99,5,0,0
140748,-181.818181818182,4,2,2,75,0,0
141732,-181.818181818182,4,2,99,5,0,0
141799,498.960498960499,4,2,2,75,1,0
141923,-100,4,2,1,75,0,0
142173,-100,4,2,2,75,0,0
142796,534.521158129176,4,2,2,75,1,0
142796,-142.857142857143,4,2,2,75,0,0
143863,516.129032258065,4,2,2,75,1,0
144830,-100,4,2,99,5,0,0
144895,-200,4,2,2,75,0,0
145862,-200,4,2,99,5,0,0
145927,526.315789473685,4,2,2,75,1,0
145927,-222.222222222222,4,2,2,75,0,0
146058,-222.222222222222,4,2,1,75,0,0
146321,-222.222222222222,4,2,2,75,0,0
146979,-166.666666666667,4,2,2,75,0,0
147965,-166.666666666667,4,2,99,5,0,0
148032,-250,4,2,2,75,0,0
148689,-250,4,2,99,5,0,0
150137,506.329113924051,4,2,2,75,1,0

[Colours]
Combo1 : 146,220,165
Combo2 : 208,221,170
Combo3 : 156,205,133
Combo4 : 225,200,162

[HitObjects]
44,351,1640,6,1,B|102:347|147:279|172:190|275:146|310:207|302:236,1,336,2|0,3:2|3:0,0:0:0:0:
218,303,2709,2,1,P|141:260|58:232,1,160,10|0,2:0|2:0,0:0:0:0:
9,180,3213,2,1,B|-18:176|-29:249|47:227|84:157|106:81|175:106,1,240,2|0,2:0|2:0,0:0:0:0:
237,0,3734,2,1,P|195:164|163:323,1,320,2|2,3:2|2:0,0:0:0:0:
90,379,4778,2,1,B|45:376|96:335|223:319|270:282|266:184,1,240,10|0,2:0|0:0,0:0:0:0:
289,179,5310,2,1,B|325:142|373:166|432:227|367:213|332:259|343:235,1,144,2|0,2:2|0:0,0:0:0:0:
370,330,5832,6,1,B|361:301|356:303|303:316|298:321|273:363|263:365|226:352|224:346|229:295|226:286|184:259|178:256|153:279|139:307|136:304|101:298|107:302|101:297|111:248|105:230|77:220|71:224|51:247|31:240|23:212|37:180|62:172,1,392,2|0,3:2|0:0,0:0:0:0:
89,123,6875,2,1,B|112:122|132:128|125:144|98:148|78:168|113:186|138:183|147:199|127:221|100:213|94:216|96:234|137:246|128:274,1,168,10|0,2:0|0:0,0:0:0:0:
69,341,7397,1,2,2:0:0:0:
69,341,7627,1,0,3:0:0:0:
236,179,7911,2,1,P|287:105|248:186,1,268.799999999999,2|0,3:2|3:0,0:0:0:0:
147,37,8944,2,1,B|217:18|159:152|301:208|410:181|501:163|534:234|393:285,1,480,10|0,2:0|3:3,0:0:0:0:
289,339,9987,6,1,B|271:255|168:310|233:229|204:177|291:32,1,336,2|0,3:2|3:0,0:0:0:0:
363,27,11067,2,1,B|405:-19|380:-20|454:-14|435:54|385:67|347:54|306:60|276:114,1,240,10|0,2:0|0:0,0:0:0:0:
151,130,11585,2,1,B|96:98|119:90|51:118|90:178|141:175|174:151|214:144|260:186,1,240,2|0,2:0|2:0,0:0:0:0:
378,152,12106,2,1,B|221:207|177:245|96:229|51:249|56:274,1,336,2|0,3:2|3:0,0:0:0:0:
109,361,13162,2,1,B|167:287|124:218|34:209|25:246|37:196|62:157|72:161,1,240,10|0,2:0|0:0,0:0:0:0:
148,174,13657,2,1,B|119:147|150:98|215:91|222:118|213:82|195:54|207:89,1,144,2|0,2:0|0:0,0:0:0:0:
84,10,14193,6,1,B|70:-8|34:9|12:53|13:56|49:148|55:146|101:88|108:87|184:118|189:126|157:214|158:219|199:275|209:273|271:184|283:184|334:251|336:262|300:333|331:358|369:345|386:318,1,560,2|0,3:2|0:0,0:0:0:0:
434,184,15236,2,1,B|417:179|393:187|393:187|385:212|361:218,1,80,10|0,2:0|0:0,0:0:0:0:
251,338,15497,2,1,B|234:342|210:334|210:334|202:309|178:303,1,80,0|0,0:0|0:0,0:0:0:0:
49,193,15758,2,1,B|46:221|119:207|124:164|144:135|194:155,1,144,2|0,2:0|0:0,0:0:0:0:
238,187,16263,1,2,3:2:0:0:
238,187,16523,2,1,P|249:167|255:162,2,21.3333333333333,8|8|8,2:0|0:0|0:0,0:0:0:0:
211,260,16784,2,1,P|196:189|160:90,1,160,10|0,2:0|3:0,0:0:0:0:
319,345,17306,2,1,P|332:281|340:260,1,56,10|0,2:0|0:0,0:0:0:0:
384,234,17552,2,1,P|372:195|365:156,1,80,4|4,2:3|2:3,0:0:0:0:
308,91,17824,2,1,B|285:97|275:92|271:87|323:33|349:6|424:1|462:32|457:44|419:34|424:109,1,240,6|0,2:3|2:0,0:0:0:0:
455,171,18334,6,1,B|399:198|290:153|293:143|287:64|191:40|166:86,1,320,2|2,3:2|2:0,0:0:0:0:
173,76,19181,2,1,P|186:117|194:156,1,80,0|0,0:0|0:0,0:0:0:0:
231,291,19442,2,1,B|171:368|83:351|85:256|212:247|230:279,1,240,8|0,2:0|0:0,0:0:0:0:
288,238,19931,2,1,B|321:281|374:271|373:214|297:208|296:221,1,144,2|0,2:0|0:0,0:0:0:0:
64,153,20420,2,1,B|46:169|65:229|69:230|136:186|137:180|155:183|157:186|170:262|176:265|186:276|198:278|253:202|261:199|302:200|306:206|294:311|298:320|336:326|352:328|375:295|425:213|510:282|466:336,1,504,2|0,3:2|0:0,0:0:0:0:
415,372,21495,6,1,P|375:317|356:297,1,64,10|0,2:0|0:0,0:0:0:0:
364,224,21755,2,1,P|317:240|293:241,1,64,0|0,2:0|0:0,0:0:0:0:
228,305,22016,2,1,P|202:247|182:226,1,64,2|0,2:0|0:0,0:0:0:0:
202,142,22277,2,1,P|155:165|130:166,1,64,0|0,3:0|0:0,0:0:0:0:
32,179,22536,6,1,B|172:190|344:219|345:218|349:217|352:218|354:222|354:225|374:259|384:222|383:196|431:182|443:248|459:284|465:287|472:286|515:251,1,480,2|0,3:2|3:0,0:0:0:0:
462,158,23583,2,1,B|473:143|445:117|372:146|341:227|331:288|289:274,1,240,10|0,2:0|0:0,0:0:0:0:
324,344,24072,2,1,B|336:339|330:313|276:301|226:336|197:368|178:343,1,168,2|0,2:0|2:0,0:0:0:0:
110,382,24593,6,1,B|102:371|109:364|114:357|108:350|98:353|97:353|95:348|95:343|95:332,1,56,2|0,3:2|0:0,0:0:0:0:
12,342,25637,6,1,P|84:315|129:300,1,80,10|0,2:0|0:0,0:0:0:0:
131,181,25898,2,1,P|189:230|226:260,1,80,0|0,2:0|0:0,0:0:0:0:
209,357,26158,2,1,P|252:306|277:274,1,72.0000000000001,0|0,2:0|0:0,0:0:0:0:
305,224,26419,2,1,P|322:255|341:286,1,72.0000000000001,0|0,3:0|0:0,0:0:0:0:
407,349,26680,6,1,P|147:240|76:214,1,336,2|0,3:2|3:0,0:0:0:0:
63,301,27730,2,1,B|60:348|134:293|138:203|146:138|162:164,1,211.648741318775,10|0,2:0|0:0,0:0:0:0:
256,128,28259,2,1,B|282:167|190:156|142:80|102:28|101:58,1,192,2|0,2:0|2:0,0:0:0:0:
0,175,28769,2,1,B|132:235|169:102|141:15|247:63|254:63|320:107|343:91|343:91|348:54|324:37|353:53|341:146|361:53|317:-9|368:55|340:164|371:53|323:-10|376:55|345:173|379:56|329:-20|382:57|346:175|386:59|328:-33|391:58|349:185|400:58|344:-29|406:62|355:189|447:11,1,560,2|0,3:2|0:0,0:0:0:0:
289,0,29812,6,1,P|308:119|311:155,1,80,10|0,2:0|0:0,0:0:0:0:
245,231,30073,2,1,P|238:192|231:152,1,80,0|0,2:0|0:0,0:0:0:0:
385,77,30334,2,1,P|363:174|352:230,1,80,2|0,3:2|0:0,0:0:0:0:
146,196,30595,2,1,P|140:235|133:275,1,80,0|0,3:0|0:0,0:0:0:0:
288,372,30855,6,1,P|279:340|282:374,1,96,2|0,3:2|3:3,0:0:0:0:
377,338,31899,6,1,B|361:348|266:387|245:302|252:225|143:212|146:240,1,264,10|0,2:0|0:0,0:0:0:0:
63,293,32421,1,2,3:2:0:0:
63,293,32508,2,1,B|81:298|183:305|103:216|154:165|211:179,1,213.333333333333,0|0,0:0|0:0,0:0:0:0:
354,98,32930,1,2,3:2:0:0:
354,98,33060,2,1,B|345:108|290:154|299:70|249:62|223:94,1,128,0|8,0:0|2:2,0:0:0:0:
142,26,33451,2,1,P|155:62|160:84,1,56,10|0,2:0|0:0,0:0:0:0:
98,130,33766,2,1,P|116:166|123:190,1,56,0|0,3:0|0:0,0:0:0:0:
73,301,33986,2,1,B|101:282|127:261|173:258,1,88,10|0,2:0|0:0,0:0:0:0:
238,160,34246,2,1,B|257:187|275:216|317:234,1,88,4|4,2:3|2:3,0:0:0:0:
347,371,34507,2,1,B|387:343|377:272|274:295|238:243|288:133|320:79,1,312,6|0,2:3|0:0,0:0:0:0:
375,22,35029,6,1,B|381:24|302:97|228:80|199:88|187:168,3,208,2|2|2|0,3:2|2:3|2:0|3:0,0:0:0:0:
102,52,36072,2,1,B|156:92|270:60|356:131|408:235,1,336,10|0,2:0|2:0,0:0:0:0:
389,202,36594,1,2,2:0:0:0:
223,296,36855,1,8,3:0:0:0:
250,224,36986,1,8,2:0:0:0:
383,345,37116,1,2,3:2:0:0:
383,345,37377,2,1,P|418:322|421:321,1,32,8|8,2:3|2:3,0:0:0:0:
355,252,37638,2,1,P|364:224|372:193,1,47.9999999999999,6|4,2:3|2:3,0:0:0:0:
355,252,38029,1,4,2:3:0:0:
271,351,38159,2,1,P|226:329|180:317,3,80,10|4|8|8,2:0|2:3|2:3|2:3,0:0:0:0:
174,233,38681,2,1,B|162:231|152:214|115:240|102:284|69:291|61:282,3,128,10|4|0|8,2:0|2:3|3:0|2:0,0:0:0:0:
173,125,39203,6,1,P|148:200|67:475,3,272,2|2|2|0,3:2|3:0|3:2|3:0,0:0:0:0:
35,58,40246,2,1,B|-23:69|-34:154|84:169|297:91|297:221|257:268,1,408,10|0,2:0|2:0,0:0:0:0:
158,360,40768,2,1,B|94:332|138:254|213:233|216:188|192:164,1,192,2|4,3:2|2:3,0:0:0:0:
106,73,41290,2,1,B|74:87|52:110|68:142,1,80,2|8,3:2|2:3,0:0:0:0:
0,215,41551,2,1,B|6:228|6:228|65:255|74:287,1,80,8|8,2:3|2:3,0:0:0:0:
172,189,41812,2,1,B|177:195|177:195|226:196|262:168,1,80,6|4,2:3|2:3,0:0:0:0:
288,343,42072,2,1,P|365:290|394:292,1,80,0|4,3:0|2:3,0:0:0:0:
396,168,42333,1,10,2:0:0:0:
475,121,42464,2,1,P|348:93|190:60,2,240,4|8|8,2:3|2:3|2:2,0:0:0:0:
475,121,43322,5,0,2:0:0:0:
332,337,51691,6,1,B|342:341|196:336|232:200|242:161|171:199|153:234|122:235,1,255.999999999999,4|2,2:3|2:3,0:0:0:0:
120,299,52956,5,8,2:3:0:0:
120,299,53209,5,4,2:3:0:0:
132,309,53336,2,1,P|199:293|222:289,1,79.9999999999997,0|0,2:0|2:0,0:0:0:0:
248,379,53716,6,1,B|207:302|245:254|279:250|334:217|280:120,1,281.6,0|2,2:0|2:3,0:0:0:0:
281,123,55235,5,0,2:0:0:0:
270,134,55361,2,1,P|215:121|187:118,1,80,0|0,2:0|2:0,0:0:0:0:
72,160,55741,6,1,P|220:134|402:113,1,327.68,4|2,2:3|2:3,0:0:0:0:
405,123,57007,6,1,B|399:127|393:133|405:138|404:147|407:156|395:167,1,48,8|0,2:3|2:0,0:0:0:0:
449,235,57260,6,1,B|398:255|385:194|342:132|315:187,1,168,4|0,2:3|2:0,0:0:0:0:
244,308,57766,6,1,B|261:304|287:309|287:309|297:312|377:187|490:65,1,352,0|2,2:0|2:3,0:0:0:0:
483,71,59032,5,0,0:0:0:0:
483,71,59285,5,0,2:0:0:0:
449,6,59412,2,1,P|406:8|387:47,1,80,0|0,2:0|2:0,0:0:0:0:
461,175,59792,6,1,B|498:121|432:30|305:27|285:82|288:91|365:97|418:80|453:176|443:196,1,371.200000000001,4|2,2:3|2:3,0:0:0:0:
368,197,61058,6,1,B|368:206|368:216|352:224|356:242,1,48,8|0,2:3|2:0,0:0:0:0:
356,325,61311,6,1,B|365:301|347:275|300:259|286:227|295:205,1,137.2,4|0,2:3|2:0,0:0:0:0:
512,311,61817,6,1,B|492:313|477:325|477:325|331:269|130:227,1,383.999999999999,0|2,2:0|2:3,0:0:0:0:
144,230,63336,1,0,2:0:0:0:
87,283,63463,2,1,B|78:278|78:278|73:238|63:210,1,80,0|0,2:0|2:0,0:0:0:0:
141,96,63842,6,1,B|58:60|-7:128|-39:208|20:246|124:323|190:256|133:217|62:188|111:130,1,422.399999999999,4|2,2:3|2:3,0:0:0:0:
101,145,65108,5,8,2:3:0:0:
101,145,65361,5,4,2:3:0:0:
112,156,65488,2,1,B|156:147|192:144,1,80,0|0,2:0|2:0,0:0:0:0:
289,91,65868,6,1,B|343:59|379:94|355:140|312:184|204:68|111:142|147:216|206:277|227:268|235:245|235:245|252:194|300:159,1,467.2,0|2,2:0|2:3,0:0:0:0:
364,186,67387,5,0,2:0:0:0:
415,244,67513,2,1,P|394:268|363:272,1,64,0|0,2:0|0:0,0:0:0:0:
208,41,67893,5,2,0:0:0:0:
205,27,68066,5,2,0:0:0:0:
214,34,68240,5,2,0:0:0:0:
200,36,68413,5,2,0:0:0:0:
208,41,69454,5,2,0:0:0:0:
204,26,69628,5,2,0:0:0:0:
214,34,69801,5,2,0:0:0:0:
199,37,69975,5,2,0:0:0:0:
208,42,71016,5,2,0:0:0:0:
203,23,71190,5,2,0:0:0:0:
219,32,71363,5,2,0:0:0:0:
193,37,71537,6,1,L|219:31,1,26.6666666666667,2|0,0:0|0:0,0:0:0:0:
208,48,72057,5,2,0:0:0:0:
201,16,72231,5,2,0:0:0:0:
228,32,72404,5,2,0:0:0:0:
183,39,72578,6,1,L|229:30,1,44.8,2|0,0:0|0:0,0:0:0:0:
216,80,73619,5,2,0:0:0:0:
207,30,73793,5,2,0:0:0:0:
238,53,73966,5,2,0:0:0:0:
184,63,74140,6,1,L|239:52,1,54.4,2|0,0:0|0:0,0:0:0:0:
381,376,75181,5,2,0:0:0:0:
379,378,75355,5,2,0:0:0:0:
381,376,75528,5,2,0:0:0:0:
377,378,75702,6,1,B|378:375|378:375|378:373|378:373|377:374|377:374|379:372|379:372|379:370|379:370|377:372|377:372|381:369|381:369|380:366|380:366|381:362,1,26.6666666666667,2|0,0:0|0:0,0:0:0:0:
395,129,76222,6,1,B|402:111|443:195|414:207,1,80,6|0,1:3|0:0,0:0:0:0:
250,122,76390,2,1,B|263:93|282:81|326:77|328:86,1,80,0|2,0:0|2:0,0:0:0:0:
350,257,76559,2,1,B|318:260|298:249|273:213|279:207,1,80,0|0,0:0|0:0,0:0:0:0:
479,245,76728,6,1,P|339:209|177:178,1,300,2|0,1:2|2:0,0:0:0:0:
0,84,76981,6,1,B|25:56|96:74|86:132|80:152|64:157|44:176|62:246|124:265|169:232,1,276,2|0,2:0|0:0,0:0:0:0:
180,170,77234,6,1,P|193:121|219:47,1,92,10|0,2:0|0:0,0:0:0:0:
218,18,77487,6,1,P|178:150|151:285,1,276,10|0,2:3|2:0,0:0:0:0:
108,352,77740,6,1,B|124:366|71:359|55:377|41:369|50:350|28:126|46:264|37:198|136:87|258:108|353:99|319:226|328:229|331:235|327:252|301:258|304:341|207:289|215:279|271:179|167:157|89:222,1,727.999999999999,6|0,2:3|0:0,0:0:0:0:
155,277,78247,5,2,2:0:0:0:
159,290,78500,6,1,P|180:189|233:28,1,252,2|0,2:0|0:0,0:0:0:0:
101,0,78753,6,1,B|110:15|118:36|118:36|238:74|368:166,1,312,10|0,2:3|0:0,0:0:0:0:
68,252,79006,6,1,B|81:256|96:265|96:265|190:226|263:222,1,204,10|0,1:3|0:0,0:0:0:0:
255,214,79259,6,1,P|272:208|254:217,1,71.9999999999999,14|0,2:3|0:0,0:0:0:0:
312,325,79513,6,1,B|359:345|400:323|386:308|409:191|496:247|477:367|358:363|315:329,1,300,2|0,1:2|2:0,0:0:0:0:
232,373,79766,6,1,P|220:341|226:375,3,100,2|2|2|2,2:0|2:0|2:0|2:0,0:0:0:0:
214,333,80019,6,1,P|226:365|220:331,3,100,10|2|2|2,2:3|2:0|2:0|2:0,0:0:0:0:
225,351,80272,6,1,B|260:310|260:310|242:245,1,90.6666666666667,6|0,1:3|0:0,0:0:0:0:
84,207,80441,2,1,B|101:258|101:258|166:275,1,90.6666666666667,0|2,0:0|2:0,0:0:0:0:
302,124,80610,2,1,B|249:113|249:113|201:161,1,90.6666666666667,0|0,0:0|0:0,0:0:0:0:
111,384,80778,6,1,P|132:144|146:29,1,354,2|0,1:2|2:0,0:0:0:0:
35,88,81032,6,1,B|9:120|35:169|96:155|96:155|140:143|140:143|196:128|247:173|214:226,1,312,2|0,2:0|0:0,0:0:0:0:
157,298,81285,6,1,P|108:279|58:266,1,100,10|0,2:0|0:0,0:0:0:0:
12,333,81538,2,1,P|214:258|378:220,1,300,10|0,2:3|2:0,0:0:0:0:
388,110,81791,6,1,B|423:103|460:47|463:45|469:44|476:49|476:62|452:94|461:120|419:119|349:174|226:126|188:290|253:225|198:473|434:438|476:416|493:371|339:309|297:159|363:181|423:149,1,700,6|0,1:3|0:0,0:0:0:0:
492,212,82297,5,2,2:0:0:0:
498,220,82551,6,1,B|484:221|463:227|463:227|281:139|179:116,1,300,2|0,2:0|0:0,0:0:0:0:
99,0,82804,6,1,B|46:62|86:139|154:151|158:137|160:123|225:153|254:223|219:280|181:303,1,348,10|0,2:3|0:0,0:0:0:0:
37,372,83057,2,1,B|11:329|42:287|84:287|85:295|85:304|126:292|150:254|134:217|129:202,1,204,10|0,1:3|0:0,0:0:0:0:
45,152,83310,6,1,P|26:161|30:191,3,48,14|2|2|2,2:3|2:0|2:0|2:0,0:0:0:0:
56,160,83563,5,2,1:2:0:0:
236,294,83816,6,1,L|261:286,1,24,2|0,2:0|2:2,0:0:0:0:
248,302,83880,6,1,L|273:294,1,24,2|0,0:0|2:2,0:0:0:0:
236,320,83943,6,1,L|211:312,1,24,2|0,2:0|2:2,0:0:0:0:
226,331,84006,6,1,L|201:323,1,24,2|0,0:0|2:2,0:0:0:0:
191,377,84070,6,1,B|173:335|173:335|308:225|308:225|293:182,1,264,10|0,2:3|0:0,0:0:0:0:
248,58,84323,6,1,B|233:69|218:93|242:108,1,48,6|0,1:3|0:0,0:0:0:0:
382,191,84576,5,2,0:0:0:0:
369,155,84703,1,2,0:0:0:0:
338,122,84829,2,1,L|366:47,1,71.9999978027344,2|0,1:2|0:0,0:0:0:0:
174,199,85082,5,2,0:0:0:0:
164,229,85209,1,0,0:0:0:0:
255,309,85335,6,1,P|245:264|228:232,1,48,10|0,2:0|0:0,0:0:0:0:
401,216,85504,6,1,P|355:219|319:230,1,80.0000030517579,0|10,0:0|2:3,0:0:0:0:
198,374,85673,6,1,P|113:338|49:328,1,152,0|0,0:0|0:0,0:0:0:0:
3,258,85842,6,1,B|-5:244|-10:308|33:384|60:364|60:364|79:269|132:239|226:222|231:229|231:229|231:204|144:188|124:127|127:107|126:108|114:98|114:98|101:97|90:118|41:229|150:266,1,700,6|0,2:3|0:0,0:0:0:0:
192,341,86348,6,1,B|233:343|209:347|242:348|252:326,1,44,2|0,2:0|0:0,0:0:0:0:
375,159,86517,6,1,B|356:177|348:209|359:217,1,58.6666666666667,0|2,0:0|2:0,0:0:0:0:
476,290,86686,5,0,0:0:0:0:
482,300,86854,6,1,B|467:301|452:315|452:315|355:224|172:171,1,324,10|0,2:3|0:0,0:0:0:0:
503,64,87108,2,1,B|493:58|483:48|483:48|377:78|243:88,1,252,10|0,1:3|0:0,0:0:0:0:
264,93,87361,6,1,P|257:82|268:89,1,33.6,14|0,2:3|2:0,0:0:0:0:
135,27,87867,6,1,P|137:21|175:20,3,40,2|2|2|2,2:0|2:0|2:0|2:0,0:0:0:0:
124,31,88120,2,1,P|121:25|150:0,3,40,10|2|2|2,2:3|2:0|2:0|2:0,0:0:0:0:
129,43,88373,6,1,P|118:70|108:112,1,59.7333333333333,6|0,1:3|0:0,0:0:0:0:
0,122,88542,6,1,B|0:126|7:133|7:133|11:149|23:203,1,75.7333333333333,0|2,0:0|2:0,0:0:0:0:
140,218,88711,6,1,B|137:225|122:235|122:235|113:257|95:309,1,87.7333333333333,0|0,0:0|0:0,0:0:0:0:
22,358,88880,5,2,1:2:0:0:
172,142,89049,2,1,P|212:153|260:164,2,66.4000030648805,0|2|0,0:0|2:0|0:0,0:0:0:0:
7,209,89386,6,1,B|10:210|15:203|15:203|79:219|83:221,1,42.6666666666667,10|0,2:0|0:0,0:0:0:0:
158,143,89555,6,1,P|197:139|243:126,1,78.3999963513185,0|10,0:0|2:3,0:0:0:0:
287,273,89724,6,1,P|340:286|372:290,1,85.3333333333333,0|0,0:0|0:0,0:0:0:0:
368,142,89892,6,1,B|379:71|455:125|490:63|473:28|493:23|493:23|498:49|556:82|530:164|435:162|447:174|454:195|433:214|392:220|321:153|289:304|326:437|412:452|275:446|385:246|503:336|497:285|499:187|387:249,1,811.999999999999,6|0,1:3|0:0,0:0:0:0:
316,198,90399,5,2,2:0:0:0:
483,300,90567,2,1,P|467:330|455:365,1,63.9999980468751,0|2,0:0|2:0,0:0:0:0:
294,173,90736,5,0,0:0:0:0:
475,300,90904,2,1,P|456:328|441:362,1,63.9999980468751,10|0,2:3|0:0,0:0:0:0:
295,147,91158,5,10,1:3:0:0:
459,308,91327,2,1,P|436:333|418:361,1,55.9999982910157,0|1,0:0|0:0,0:0:0:0:
314,128,91411,6,1,B|275:167|278:205|274:219|380:261,1,116,14|2,2:3|2:0,0:0:0:0:
276,239,91538,2,1,B|329:252|360:231|375:226|358:115,1,116,10|2,2:0|2:0,0:0:0:0:
384,221,91665,2,1,B|369:168|334:151|324:141|235:211,1,116,2|0,1:2|0:0,0:0:0:0:
27,348,91918,6,1,L|52:340,1,24,2|0,2:0|2:0,0:0:0:0:
24,336,91981,6,1,L|-1:344,1,24,2|0,2:0|2:0,0:0:0:0:
20,344,92044,6,1,L|28:369,1,24,2|0,2:0|2:0,0:0:0:0:
31,340,92108,6,1,L|23:315,1,24,2|0,2:0|2:0,0:0:0:0:
27,348,92171,5,10,2:3:0:0:
34,342,93943,6,1,B|69:379|160:340|34:419|-78:396|-19:309|-95:204|-21:237|80:180|137:218|154:264|157:269|181:294|238:264|275:133|152:110|152:110|143:125|167:154|145:211|70:205|91:264,1,761.600000000001,6|0,2:3|2:0,0:0:0:0:
151,357,94449,6,1,B|162:355|181:363|199:347|182:320,1,58.6666666666667,2|0,2:0|0:0,0:0:0:0:
42,137,94618,1,0,0:0:0:0:
271,191,94787,6,1,B|261:187|249:170|225:163|203:174,1,58.6666666666667,0|0,0:0|0:0,0:0:0:0:
0,230,94956,6,1,B|16:233|26:244|26:244|114:181|378:119,1,348,10|0,2:3|0:0,0:0:0:0:
440,93,95209,6,1,B|474:85|494:59|514:-31|337:-84|220:74|328:215|412:212|442:195,1,372,10|0,1:3|2:0,0:0:0:0:
384,191,95462,6,1,B|385:184|389:179|389:179|379:163|355:95,1,69.3333333333333,14|0,2:3|0:0,0:0:0:0:
266,30,95631,6,1,B|259:32|253:31|253:31|244:48|197:103,1,69.3333301595054,0|2,0:0|1:2,0:0:0:0:
77,196,95800,6,1,B|82:200|84:206|84:206|118:212|167:240,1,69.3333301595054,0|0,0:0|0:0,0:0:0:0:
226,329,95968,6,1,P|211:303|226:292,3,40,2|2|2|2,2:0|2:0|2:0|2:0,0:0:0:0:
235,348,96222,2,1,P|205:342|206:324,3,40,10|2|2|2,2:3|2:0|2:0|2:0,0:0:0:0:
249,356,96475,6,1,B|255:347|255:347|265:296|276:256,1,66.6666666666667,6|0,1:3|0:0,0:0:0:0:
171,173,96643,1,0,0:0:0:0:
362,309,96812,6,1,B|357:303|352:304|352:304|339:263|328:225,1,77.3333356933594,0|0,0:0|0:0,0:0:0:0:
177,149,96980,1,2,1:2:0:0:
426,235,97150,6,1,B|420:229|415:231|415:231|395:193|377:158,1,77.3333356933594,0|2,0:0|2:0,0:0:0:0:
162,122,97319,1,0,0:0:0:0:
263,0,97487,6,1,P|250:49|243:112,1,106.666666666667,10|0,2:0|0:0,0:0:0:0:
277,373,97740,2,1,P|252:204|214:24,1,334.8,10|0,2:3|2:0,0:0:0:0:
158,0,97994,6,1,B|150:9|139:14|135:39|148:68,1,64,6|0,1:3|0:0,0:0:0:0:
329,156,98162,1,0,0:0:0:0:
140,14,98331,6,1,B|135:25|126:33|131:58|153:81,1,64,0|0,0:0|0:0,0:0:0:0:
336,138,98500,1,2,2:0:0:0:
124,28,98669,6,1,B|123:40|118:50|131:72|160:86,1,64,0|2,0:0|2:0,0:0:0:0:
328,123,98837,1,0,0:0:0:0:
142,312,99006,6,1,B|89:323|117:376|196:394|296:350|304:228|227:158,1,300,10|0,2:3|0:0,0:0:0:0:
317,118,99259,6,1,B|359:108|356:156|304:195|216:195|171:109|204:33,1,238.8,10|0,1:3|0:0,0:0:0:0:
261,16,99513,6,1,P|285:18|296:46,3,52,14|2|2|2,2:3|2:0|2:0|2:2,0:0:0:0:
252,23,99766,5,2,1:2:0:0:
473,366,100019,6,1,L|448:358,1,24,2|0,2:0|2:2,0:0:0:0:
476,354,100082,6,1,L|501:362,1,24,2|0,0:0|2:2,0:0:0:0:
480,362,100146,6,1,L|472:387,1,24,2|0,2:0|2:2,0:0:0:0:
469,358,100209,6,1,L|477:333,1,24,2|0,0:0|2:2,0:0:0:0:
473,366,100272,5,10,2:3:0:0:
354,168,100525,5,8,3:0:0:0:
290,128,100654,1,8,2:3:0:0:
256,261,100784,1,4,2:3:0:0:
230,214,100914,1,4,2:3:0:0:
145,231,101044,5,4,3:0:0:0:
124,254,101174,1,4,2:3:0:0:
94,167,101304,1,0,0:0:0:0:
79,174,101434,1,4,2:3:0:0:
0,193,101563,6,1,P|321:243|421:271,1,420,8|0,3:2|0:0,0:0:0:0:
418,277,102602,6,1,P|281:303|181:331,1,240,0|0,3:0|2:0,0:0:0:0:
175,336,103641,6,1,P|183:303|188:276,1,60,0|0,3:0|2:0,0:0:0:0:
189,266,104680,5,8,3:0:0:0:
158,193,104810,2,1,B|153:187|146:182|146:182|140:142|132:113,1,64,8|4,2:3|2:3,0:0:0:0:
330,12,105070,5,4,2:3:0:0:
358,84,105200,1,4,3:0:0:0:
342,106,105330,2,1,B|333:122|336:135|342:147|330:177,2,64,4|0|4,2:3|0:0|2:3,0:0:0:0:
512,140,105719,6,1,B|491:123|366:80|311:179|324:209|210:324|77:219,1,480,8|0,3:2|2:0,0:0:0:0:
77,212,106758,6,1,B|93:206|178:209|189:282|174:297|216:392|321:360,1,300,0|0,3:0|0:0,0:0:0:0:
314,354,107797,5,0,3:0:0:0:
433,76,108866,5,8,3:0:0:0:
384,138,108997,2,1,P|339:148|296:165,2,80,8|4|4,2:3|2:3|2:3,0:0:0:0:
218,144,109393,5,4,3:0:0:0:
227,190,109525,2,1,P|214:214|205:240,2,55.9999999999999,4|0|4,2:3|0:0|2:3,0:0:0:0:
125,384,109887,6,1,B|118:297|86:245|100:232|86:204|58:211|43:162|56:134,1,240.000000000001,8|0,3:2|3:0,0:0:0:0:
263,43,110947,6,1,B|246:32|216:47|212:39|213:32|235:24|249:3|334:-5|357:21|372:15|401:91|372:127|344:141|304:115|272:118|222:109|240:175|250:165|227:205|255:235|306:219|311:212,1,420,0|0,3:0|2:0,0:0:0:0:
452,130,112037,6,1,B|435:125|414:103|414:103|275:144|95:184,1,364,0|0,3:0|0:0,0:0:0:0:
87,172,113026,6,1,P|76:134|103:100,2,80,8|8|4,3:0|2:3|2:3,0:0:0:0:
197,245,113421,5,4,2:3:0:0:
207,321,113553,1,4,3:0:0:0:
193,327,113685,2,1,P|153:324|130:287,1,80,4|0,2:3|0:0,0:0:0:0:
338,364,113949,5,4,2:3:0:0:
344,375,114080,2,1,B|291:387|234:360|214:280|229:271|214:202|141:178|94:219,1,320.58,8|0,3:2|2:0,0:0:0:0:
27,362,115135,6,1,P|163:305|470:215,1,448,0|2,3:0|2:0,0:0:0:0:
462,223,116190,5,2,0:0:0:0:
493,127,116366,5,2,0:0:0:0:
493,127,116454,1,2,0:0:0:0:
482,100,116542,5,2,0:0:0:0:
386,45,116718,5,2,0:0:0:0:
253,66,116894,5,2,0:0:0:0:
177,197,117069,5,2,0:0:0:0:
261,383,117218,6,1,P|267:319|284:256,1,95.9999999999999,6|0,1:3|0:0,0:0:0:0:
253,287,117386,6,1,P|264:333|282:378,1,95.9999999999999,0|2,0:0|2:0,0:0:0:0:
296,369,117555,6,1,P|264:332|237:293,1,95.9999999999999,0|0,0:0|0:0,0:0:0:0:
113,305,117724,6,1,B|98:325|117:360|196:401|212:329|233:235|224:225|198:214|238:140|316:155|349:200|310:248,1,348,2|0,1:2|2:0,0:0:0:0:
415,264,117977,2,1,B|390:276|390:276|298:211|140:166,1,300,2|0,2:0|0:0,0:0:0:0:
152,168,118230,6,1,P|129:168|150:177,1,60,10|0,2:0|0:0,0:0:0:0:
65,216,118483,6,1,B|20:272|-4:372|-4:372|-2:378|-2:378|30:267|147:179,1,332.4,10|0,2:3|2:0,0:0:0:0:
199,46,118736,6,1,B|228:34|247:50|330:131,1,97.0666666666667,6|0,2:3|0:0,0:0:0:0:
280,99,118905,6,1,B|249:101|236:79|186:-25,1,97.0666666666667,0|0,0:0|2:0,0:0:0:0:
231,24,119074,6,1,B|261:31|266:56|282:171,1,97.0666666666667,0|0,0:0|0:0,0:0:0:0:
169,200,119243,6,1,B|150:214|113:166|220:57|232:25|425:57|437:132|357:151|343:98,1,342,2|0,2:0|0:0,0:0:0:0:
83,107,119496,6,1,P|245:159|402:228,1,342,2|0,2:0|0:0,0:0:0:0:
355,369,119749,6,1,P|251:329|267:241,1,204,10|0,2:3|0:0,0:0:0:0:
267,249,120002,2,1,B|282:256|282:256|279:296|255:325|219:323|196:303,1,112,10|0,1:3|2:0,0:0:0:0:
85,352,120255,6,1,B|90:349|99:347|99:347|115:271|145:206,1,101.333333333333,14|0,2:3|0:0,0:0:0:0:
170,162,120424,2,1,B|171:168|173:176|173:176|118:231|81:291,1,101.333333333333,0|2,0:0|1:2,0:0:0:0:
1,257,120593,2,1,B|6:260|12:266|12:266|64:243|98:239,1,104.533333333333,0|0,0:0|0:0,0:0:0:0:
205,340,120762,5,2,2:0:0:0:
210,342,120825,5,2,2:0:0:0:
212,348,120888,5,2,2:0:0:0:
209,354,120952,5,2,2:0:0:0:
204,356,121015,5,10,2:3:0:0:
198,353,121078,5,2,2:0:0:0:
197,347,121142,5,2,2:0:0:0:
197,342,121205,5,2,2:0:0:0:
210,342,121268,6,1,B|215:335|215:335|318:317,1,95.9999999999999,6|0,1:3|0:0,0:0:0:0:
367,266,121437,6,1,B|363:274|363:274|269:318,1,101.333333333333,0|2,0:0|2:0,0:0:0:0:
231,364,121606,6,1,B|231:355|231:355|311:288,1,106.666666666667,0|0,0:0|0:0,0:0:0:0:
417,329,121774,6,1,B|379:393|314:378|285:318|298:274|308:269|344:244|337:174|263:133|188:182|223:232,1,348,2|0,1:2|2:0,0:0:0:0:
125,251,122028,2,1,P|334:183|506:157,1,348,2|0,2:0|0:0,0:0:0:0:
449,161,122281,6,1,P|470:158|449:163,1,60,10|0,2:0|0:0,0:0:0:0:
386,66,122534,6,1,B|285:92|285:92|274:100|274:100|302:248|302:248|356:264|356:264|330:346,1,384,10|0,2:3|2:0,0:0:0:0:
252,384,122787,6,1,L|234:276,1,95.9999999999999,6|0,1:3|0:0,0:0:0:0:
223,279,122956,2,1,L|239:374,1,95.9999999999999,0|0,0:0|2:0,0:0:0:0:
225,363,123125,2,1,L|210:269,1,95.9999999999999,0|0,0:0|0:0,0:0:0:0:
170,78,123293,6,1,B|102:29|-16:90|-6:186|-6:186|23:125|96:129|111:160,1,360,2|0,2:0|0:0,0:0:0:0:
104,261,123547,6,1,P|68:224|74:205,1,60,2|0,2:0|0:0,0:0:0:0:
251,159,123800,6,1,B|241:170|230:185|230:185|117:216|-30:340,1,276,10|0,2:3|0:0,0:0:0:0:
18,300,124053,1,10,1:3:0:0:
80,358,124180,1,0,2:0:0:0:
246,273,124306,6,1,P|265:282|261:312,3,48,14|2|2|2,2:3|2:0|2:0|2:0,0:0:0:0:
235,281,124559,5,2,1:2:0:0:
23,38,124812,6,1,L|-2:30,1,24,2|0,2:0|2:2,0:0:0:0:
26,26,124876,6,1,L|51:34,1,24,2|0,0:0|2:2,0:0:0:0:
30,34,124939,6,1,L|22:59,1,24,2|0,2:0|2:2,0:0:0:0:
19,30,125002,6,1,L|27:5,1,24,2|0,0:0|2:2,0:0:0:0:
23,38,125066,5,10,2:3:0:0:
0,202,125319,6,1,L|5:233,1,21.3333333333333,6|0,1:3|0:0,0:0:0:0:
47,195,125488,2,1,L|52:226,1,21.3333333333333,0|2,0:0|2:0,0:0:0:0:
94,188,125656,2,1,L|99:219,1,21.3333333333333,0|0,0:0|0:0,0:0:0:0:
176,172,125825,6,1,B|162:186|156:203|156:203|77:210|-5:307|15:380,1,276,2|0,1:2|0:0,0:0:0:0:
251,278,126078,6,1,B|237:264|231:247|231:247|152:240|70:143|90:70,1,276,2|0,2:0|0:0,0:0:0:0:
86,90,126331,6,1,P|87:76|82:88,1,36,10|0,2:0|2:0,0:0:0:0:
3,147,126585,6,1,B|59:179|112:102|106:98|93:88|120:-2|212:29,1,252,10|0,2:3|2:0,0:0:0:0:
293,128,126838,6,1,L|314:124,1,21.3333333333333,6|0,2:3|0:0,0:0:0:0:
300,175,127007,2,1,L|321:171,1,21.3333333333333,0|0,0:0|2:0,0:0:0:0:
307,222,127175,2,1,L|328:218,1,21.3333333333333,0|0,0:0|0:0,0:0:0:0:
404,82,127344,6,1,B|435:117|417:201|340:160|239:112|177:285|248:357,1,300,2|0,2:0|0:0,0:0:0:0:
218,261,127597,2,1,P|229:276|221:258,1,48,2|0,2:0|0:0,0:0:0:0:
368,346,127850,6,1,B|352:349|339:367|339:367|245:298|0:221,1,312,10|0,2:3|0:0,0:0:0:0:
223,78,128104,2,1,B|218:86|214:92|214:92|156:114|31:194,1,208,2|0,1:2|2:0,0:0:0:0:
289,78,129369,6,1,L|284:50,1,26.6666666666667,6|0,1:3|0:0,0:0:0:0:
235,86,129538,2,1,L|230:58,1,26.6666666666667,0|2,0:0|2:0,0:0:0:0:
160,98,129707,2,1,L|155:70,1,26.6666666666667,0|0,0:0|0:0,0:0:0:0:
71,31,129876,6,1,P|227:79|411:136,1,300,2|0,1:2|0:0,0:0:0:0:
455,173,130129,6,1,B|497:163|532:88|414:22|334:121|339:196|384:236,1,300,2|0,2:0|0:0,0:0:0:0:
389,244,130382,6,1,B|402:244|413:262|413:262|415:243|403:228|381:233,1,83.9999999999999,10|0,2:0|2:0,0:0:0:0:
510,346,130635,6,1,B|484:337|474:349|474:349|371:258|267:237|267:237|255:207|243:197,1,294,10|0,2:3|2:0,0:0:0:0:
238,145,130888,6,1,B|209:133|209:133|171:140|154:193,1,95.9999999999999,6|0,1:3|0:0,0:0:0:0:
152,187,131057,2,1,B|182:189|182:189|217:171|216:115,1,95.9999999999999,0|0,0:0|2:0,0:0:0:0:
212,122,131226,2,1,B|182:130|182:130|157:161|178:212,1,95.9999999999999,0|0,0:0|0:0,0:0:0:0:
70,235,131395,6,1,B|63:248|96:281|220:250|194:205|182:172|155:86|272:34|325:98|304:129,1,358.8,2|0,2:0|0:0,0:0:0:0:
313,133,131648,2,1,P|305:137|306:155,1,24,2|0,2:0|2:0,0:0:0:0:
361,257,131901,6,1,B|334:262|311:272|311:272|169:159|11:102,1,358.8,10|0,2:3|2:0,0:0:0:0:
48,116,132154,5,10,1:3:0:0:
149,66,132281,1,0,2:0:0:0:
193,275,132407,6,1,P|158:277|115:227,1,98.0000000000001,14|2,2:3|2:0,0:0:0:0:
126,222,132534,2,1,P|151:182|198:176,1,98.0000000000001,10|2,2:0|2:0,0:0:0:0:
208,194,132661,2,1,P|229:236|211:280,1,98.0000000000001,2|0,1:2|0:0,0:0:0:0:
22,353,132914,6,1,L|-3:345,1,24,2|0,2:0|2:0,0:0:0:0:
25,341,132977,6,1,L|50:349,1,24,2|0,2:0|2:0,0:0:0:0:
29,349,133040,6,1,L|21:374,1,24,2|0,2:0|2:0,0:0:0:0:
18,345,133104,6,1,L|26:320,1,24,2|0,2:0|2:0,0:0:0:0:
22,353,133167,5,2,2:0:0:0:
105,207,133420,5,8,3:0:0:0:
161,261,133547,2,1,P|194:233|229:217,1,55.9999999999999,8|4,2:3|2:3,0:0:0:0:
286,358,133800,5,4,2:3:0:0:
316,330,133926,1,4,3:0:0:0:
308,319,134053,2,1,P|300:276|303:238,1,55.9999999999999,4|0,2:3|0:0,0:0:0:0:
389,147,134306,1,4,2:3:0:0:
383,135,134432,2,1,B|366:125|366:125|340:143|134:223|58:228,1,320,8|0,3:2|3:0,0:0:0:0:
67,116,135498,6,1,B|63:96|50:95|50:95|97:72|249:130|250:220|180:232|170:224|169:218|168:210|164:205|138:222|94:247|99:295|127:318,1,395.999999999999,0|0,3:0|2:0,0:0:0:0:
165,380,136548,6,1,P|132:184|93:-9,1,377.999999999999,0|0,3:0|2:0,0:0:0:0:
97,8,137598,5,8,3:0:0:0:
40,107,137718,2,1,P|48:147|62:228,1,96,8|4,2:3|2:3,0:0:0:0:
219,92,137960,5,4,2:3:0:0:
266,153,138101,1,4,3:0:0:0:
254,175,138226,2,1,P|248:207|236:272,2,72.0000000000001,4|0|4,2:3|0:0|2:3,0:0:0:0:
380,267,138648,6,1,B|317:319|251:315|190:238|197:145|179:108|86:111|39:171,1,420,8|0,3:2|2:0,0:0:0:0:
37,183,139698,2,1,B|74:226|120:230|170:184|176:118|201:97|267:110|282:154,1,300,0|0,3:0|2:0,0:0:0:0:
298,254,140748,6,1,B|280:252|264:253|264:253|182:167|27:69,1,330,2|0,3:0|0:0,0:0:0:0:
20,77,141799,5,8,3:0:0:0:
100,0,141923,2,1,P|137:20|137:74,1,80,8|4,2:3|2:3,0:0:0:0:
11,103,142173,5,4,2:3:0:0:
183,157,142297,1,4,3:0:0:0:
194,170,142422,2,1,P|144:210|109:196,2,80,4|0|4,2:3|0:0|2:3,0:0:0:0:
190,70,142796,6,1,B|216:299|210:61|232:305,1,224,8|0,3:2|3:0,0:0:0:0:
123,308,143863,6,1,B|118:355|66:391|-24:326|71:245|113:171|238:171|384:195|469:241|477:266|412:308|352:303|366:219,1,600,0|0,3:0|2:0,0:0:0:0:
378,114,144895,6,1,B|391:93|423:88|449:140|387:154|350:178|293:149|232:104|203:63|206:50|245:46|271:62|246:97,1,300,0|0,3:0|2:0,0:0:0:0:
244,89,145927,6,1,B|246:107|251:115|254:137,2,36,8|8|4,3:0|2:3|2:3,0:0:0:0:
297,187,146321,5,4,2:3:0:0:
308,201,146453,1,4,3:0:0:0:
300,205,146584,2,1,B|298:223|293:231|290:253,2,36,4|0|4,2:3|0:0|2:3,0:0:0:0:
355,373,146979,6,1,P|259:250|51:261,1,359.999999999999,8|0,3:2|2:0,0:0:0:0:
73,264,148032,6,1,P|123:259|172:163,1,160,0|0,3:0|2:0,0:0:0:0:
173,170,150137,5,0,2:0:0:0:
