osu file format v14

[General]
AudioFilename: audio.ogg
AudioLeadIn: 0
PreviewTime: 115986
Countdown: 0
SampleSet: Soft
StackLeniency: 0.7
Mode: 0
LetterboxInBreaks: 0
WidescreenStoryboard: 1

[Editor]
Bookmarks: 26645,32386,43287,51656,76187,93908,108769,109358,122752,128195,129334,133385,148128
DistanceSpacing: 0.5
BeatDivisor: 4
GridSize: 32
TimelineZoom: 2.4

[Metadata]
Title:Piss On Your Grave (feat. Kanye West)
TitleUnicode:Piss On Your Grave (feat. Kanye West)
Artist:Travis Scott
ArtistUnicode:Travis Scott
Creator:Visionary
Version:Hifumi's Hard
Source:
Tags:english rap trap hip-hop hip hop psychedelic rock rodeo expanded edition travi$ ralsricat jamesjan3 lurumic ajitani hifumi we vibing tity so help me god ye perero in
BeatmapID:3969895
BeatmapSetID:1882593

[Difficulty]
HPDrainRate:4
CircleSize:3.6
OverallDifficulty:6
ApproachRate:7.6
SliderMultiplier:1.6
SliderTickRate:0.5

[Events]
//Background and Video events
0,0,"gravebg.jpg",0,0
//Break Periods
//Storyboard Layer 0 (Background)
//Storyboard Layer 1 (Fail)
//Storyboard Layer 2 (Pass)
//Storyboard Layer 3 (Foreground)
//Storyboard Layer 4 (Overlay)
//Storyboard Sound Samples

[TimingPoints]
1640,521.739130434783,4,2,1,60,1,0
2031,-100,4,2,99,5,0,0
2161,-100,4,2,1,60,0,0
2553,-100,4,2,99,5,0,0
2709,521.739130434783,4,2,1,60,1,0
3213,521.739130434783,4,2,1,60,1,0
4126,-100,4,2,99,5,0,0
4256,-100,4,2,1,60,0,0
4647,-100,4,2,99,5,0,0
4778,-100,4,2,1,60,0,0
5310,521.739130434783,4,2,1,60,1,0
5701,-100,4,2,99,5,0,0
5832,521.739130434783,4,2,1,60,1,0
7266,-100,4,2,99,5,0,0
7397,461.538461538462,4,2,1,60,1,0
7911,521.739130434783,4,2,1,60,1,0
8944,521.739130434783,4,2,2,60,1,0
9987,-100,4,2,1,60,0,0
10378,-100,4,2,99,5,0,0
10509,-100,4,2,1,60,0,0
10900,-100,4,2,99,5,0,0
11067,521.739130434783,4,2,1,60,1,0
11585,521.739130434783,4,2,1,60,1,0
12498,-100,4,2,99,5,0,0
12628,-100,4,2,1,60,0,0
13019,-100,4,2,99,5,0,0
13162,495.867768595042,4,2,1,60,1,0
14029,-100,4,2,99,5,0,0
14193,521.739130434783,4,2,1,60,1,0
16263,521.739130434783,4,2,1,60,1,0
17306,-94.3396226415094,4,2,1,60,0,0
17552,545.454545454546,4,2,1,60,1,0
18334,521.739130434783,4,2,1,60,1,0
19442,521.739130434783,4,2,1,60,1,0
19833,-100,4,2,99,5,0,0
19931,521.739130434783,4,2,1,60,1,0
20420,521.739130434783,4,2,1,60,1,0
21495,521.739130434783,4,2,1,60,1,0
21625,-100,4,2,99,5,0,0
21755,-100,4,2,1,60,0,0
21886,-100,4,2,99,5,0,0
22016,-100,4,2,1,60,0,0
22147,-100,4,2,99,5,0,0
22277,-100,4,2,1,60,0,0
22408,-100,4,2,99,5,0,0
22536,508.474576271187,4,2,1,60,1,0
23583,540.540540540541,4,2,1,60,1,0
23988,-100,4,2,99,5,0,0
24072,521.739130434783,4,2,1,60,1,0
24463,-100,4,2,99,5,0,0
24593,-100,4,2,1,60,0,0
25637,-100,4,2,2,60,0,0
25767,-100,4,2,99,5,0,0
25898,-100,4,2,2,60,0,0
26028,-100,4,2,99,5,0,0
26158,-100,4,2,2,60,0,0
26289,-100,4,2,99,5,0,0
26419,-100,4,2,2,60,0,0
26550,-100,4,2,99,5,0,0
26680,521.739130434783,4,2,1,60,1,0
27071,-100,4,2,99,5,0,0
27201,-100,4,2,1,60,0,0
27730,521.739130434783,4,2,1,60,1,0
28259,521.739130434783,4,2,1,60,1,0
28769,521.739130434783,4,2,1,60,1,0
29942,-100,4,2,99,5,0,0
30073,-100,4,2,1,60,0,0
30203,-100,4,2,99,5,0,0
30334,-100,4,2,1,60,0,0
30464,-100,4,2,99,5,0,0
30595,-100,4,2,1,60,0,0
30725,-100,4,2,99,5,0,0
30855,-100,4,2,1,60,0,0
31899,-100,4,2,2,60,0,0
32421,-100,4,2,1,60,0,0
32930,521.739130434783,4,2,1,60,1,0
33321,-100,4,2,99,5,0,0
33451,631.578947368422,4,2,1,60,1,0
33924,-100,4,2,99,5,0,0
33986,521.739130434783,4,2,1,60,1,0
34246,-100,4,2,1,60,0,0
34507,-100,4,2,1,60,0,0
34768,-100,4,2,1,60,0,0
35029,-90.9090909090909,4,2,1,60,0,0
35289,-90.9090909090909,4,2,2,60,0,0
35551,-90.9090909090909,4,2,1,60,0,0
36464,-90.9090909090909,4,2,99,5,0,0
36594,-90.9090909090909,4,2,1,60,0,0
37768,-90.9090909090909,4,2,2,60,0,0
38028,-90.9090909090909,4,2,1,60,0,0
38289,-90.9090909090909,4,2,2,60,0,0
38681,-90.9090909090909,4,2,3,60,0,0
38811,-90.9090909090909,4,2,1,60,0,0
39203,-90.9090909090909,4,2,2,60,0,0
40246,-90.9090909090909,4,2,1,60,0,0
40638,-90.9090909090909,4,2,99,5,0,0
40768,-90.9090909090909,4,2,1,60,0,0
41159,-90.9090909090909,4,2,2,60,0,0
41290,-90.9090909090909,4,2,1,60,0,0
41420,-90.9090909090909,4,2,2,60,0,0
41550,-90.9090909090909,4,2,1,60,0,0
41942,-90.9090909090909,4,2,2,60,0,0
42203,-90.9090909090909,4,2,1,60,0,0
42464,-90.9090909090909,4,2,2,60,0,0
43116,-90.9090909090909,4,2,1,60,0,0
43322,522.875816993464,4,2,1,40,1,0
43322,-125,4,2,1,40,0,0
51691,506.329113924051,4,2,3,70,1,0
51691,-86.9565217391304,4,2,3,70,0,0
52703,-86.9565217391304,4,2,2,70,0,0
52956,-86.9565217391304,4,2,3,70,0,0
53209,-86.9565217391304,4,2,4,70,0,0
54728,-86.9565217391304,4,2,2,70,0,0
55741,-86.9565217391304,4,2,3,70,0,0
56754,-86.9565217391304,4,2,2,70,0,0
57007,-86.9565217391304,4,2,3,70,0,0
57260,-86.9565217391304,4,2,4,70,0,0
58779,-86.9565217391304,4,2,2,70,0,0
59792,-86.9565217391304,4,2,3,70,0,0
60804,-86.9565217391304,4,2,2,70,0,0
61058,-86.9565217391304,4,2,3,70,0,0
61311,-86.9565217391304,4,2,4,70,0,0
62830,-86.9565217391304,4,2,2,70,0,0
63842,-86.9565217391304,4,2,3,70,0,0
64855,-86.9565217391304,4,2,2,70,0,0
65108,-86.9565217391304,4,2,3,70,0,0
65361,-86.9565217391304,4,2,4,70,0,0
66880,-86.9565217391304,4,2,2,70,0,0
67893,520.60737527115,4,2,2,45,1,0
67893,-125,4,2,2,45,0,0
76222,506.329113924051,4,2,3,85,1,0
76222,-76.9230769230769,4,2,3,85,0,0
76728,-76.9230769230769,4,2,4,85,0,0
77487,-76.9230769230769,4,2,3,85,0,0
77740,-76.9230769230769,4,2,5,85,0,0
78247,-76.9230769230769,4,2,4,85,0,0
79006,-76.9230769230769,4,2,6,85,0,0
79259,-76.9230769230769,4,2,7,85,0,0
79766,-76.9230769230769,4,2,5,85,0,0
79829,-76.9230769230769,4,2,4,85,0,0
80019,-76.9230769230769,4,2,3,85,0,0
80082,-76.9230769230769,4,2,4,85,0,0
80272,-76.9230769230769,4,2,3,85,0,0
80778,-76.9230769230769,4,2,4,85,0,0
81538,-76.9230769230769,4,2,8,85,0,0
81791,-76.9230769230769,4,2,5,85,0,0
82297,-76.9230769230769,4,2,4,85,0,0
83057,-76.9230769230769,4,2,6,85,0,0
83310,-76.9230769230769,4,2,7,85,0,0
83373,-76.9230769230769,4,2,4,85,0,0
83816,-76.9230769230769,4,2,5,85,0,0
83942,-76.9230769230769,4,2,4,85,0,0
84069,-76.9230769230769,4,2,3,85,0,0
84829,-76.9230769230769,4,2,4,85,0,0
85589,-76.9230769230769,4,2,3,85,0,0
85842,-76.9230769230769,4,2,5,85,0,0
86348,-76.9230769230769,4,2,4,85,0,0
87108,-76.9230769230769,4,2,6,85,0,0
87361,-76.9230769230769,4,2,7,85,0,0
87867,-76.9230769230769,4,2,5,85,0,0
87930,-76.9230769230769,4,2,4,85,0,0
88120,-76.9230769230769,4,2,3,85,0,0
88183,-76.9230769230769,4,2,4,85,0,0
88373,-76.9230769230769,4,2,3,85,0,0
88880,-76.9230769230769,4,2,4,85,0,0
89639,-76.9230769230769,4,2,8,85,0,0
89892,-76.9230769230769,4,2,5,85,0,0
90399,-76.9230769230769,4,2,4,85,0,0
91158,-76.9230769230769,4,2,6,85,0,0
91411,-76.9230769230769,4,2,7,85,0,0
91538,-76.9230769230769,4,2,4,85,0,0
91918,-76.9230769230769,4,2,5,85,0,0
92044,-76.9230769230769,4,2,4,85,0,0
92171,-76.9230769230769,4,2,3,85,0,0
93943,-76.9230769230769,4,2,5,85,0,0
94449,-76.9230769230769,4,2,4,85,0,0
95209,-76.9230769230769,4,2,6,85,0,0
95462,-76.9230769230769,4,2,7,85,0,0
95968,-76.9230769230769,4,2,5,85,0,0
96031,-76.9230769230769,4,2,4,85,0,0
96221,-76.9230769230769,4,2,3,85,0,0
96284,-76.9230769230769,4,2,4,85,0,0
96475,-76.9230769230769,4,2,3,85,0,0
96981,-76.9230769230769,4,2,4,85,0,0
97740,-76.9230769230769,4,2,8,85,0,0
97994,-76.9230769230769,4,2,5,85,0,0
98500,-76.9230769230769,4,2,4,85,0,0
99259,-76.9230769230769,4,2,6,85,0,0
99513,-76.9230769230769,4,2,7,85,0,0
99576,-76.9230769230769,4,2,4,85,0,0
100019,-76.9230769230769,4,2,5,85,0,0
100145,-76.9230769230769,4,2,4,85,0,0
100272,-76.9230769230769,4,2,3,85,0,0
100525,519.48051948052,4,2,2,70,1,0
100525,-76.9230769230769,4,2,2,70,0,0
102602,-100,4,2,2,70,0,0
104809,-100,4,2,1,70,0,0
105069,-100,4,2,2,70,0,0
108866,527.472527472528,4,2,2,70,1,0
109887,527.472527472527,4,2,2,70,1,0
110947,545.454545454546,4,2,2,70,1,0
113026,527.472527472528,4,2,2,70,1,0
113157,-100,4,2,1,70,0,0
113421,-100,4,2,2,70,0,0
117218,506.329113924051,4,2,3,90,1,1
117724,-76.9230769230769,4,2,4,90,0,1
118483,-76.9230769230769,4,2,3,90,0,1
118736,-76.9230769230769,4,2,5,90,0,1
119243,-76.9230769230769,4,2,4,90,0,1
120002,-76.9230769230769,4,2,6,90,0,1
120255,-76.9230769230769,4,2,7,90,0,1
120762,-76.9230769230769,4,2,5,90,0,1
120825,-76.9230769230769,4,2,4,90,0,1
121015,-76.9230769230769,4,2,3,90,0,1
121078,-76.9230769230769,4,2,4,90,0,1
121268,-76.9230769230769,4,2,3,90,0,1
121774,-76.9230769230769,4,2,4,90,0,1
122534,-76.9230769230769,4,2,8,90,0,1
122787,-76.9230769230769,4,2,5,90,0,1
123293,-76.9230769230769,4,2,4,90,0,1
124053,-76.9230769230769,4,2,6,90,0,1
124306,-76.9230769230769,4,2,7,90,0,1
124369,-76.9230769230769,4,2,4,90,0,1
124812,-76.9230769230769,4,2,5,90,0,1
124938,-76.9230769230769,4,2,4,90,0,1
125065,-76.9230769230769,4,2,3,90,0,1
125825,-76.9230769230769,4,2,4,90,0,1
126585,-76.9230769230769,4,2,3,90,0,1
126838,-76.9230769230769,4,2,5,90,0,1
127344,-76.9230769230769,4,2,4,90,0,1
129369,-76.9230769230769,4,2,3,90,0,1
129875,-76.9230769230769,4,2,4,90,0,1
130635,-76.9230769230769,4,2,8,90,0,1
130888,-76.9230769230769,4,2,5,90,0,1
131394,-76.9230769230769,4,2,4,90,0,1
132407,-76.9230769230769,4,2,7,90,0,1
132534,-76.9230769230769,4,2,4,90,0,1
132914,-76.9230769230769,4,2,5,90,0,1
133040,-76.9230769230769,4,2,4,90,0,1
133167,-76.9230769230769,4,2,3,90,0,1
133420,-100,4,2,2,75,0,1
133546,-100,4,2,1,75,0,1
133799,-100,4,2,2,75,0,1
134432,533.333333333334,4,2,2,75,1,0
135498,525.164113785558,4,2,2,75,1,0
137598,482.897384305835,4,2,2,75,1,0
138101,503.14465408805,4,2,2,75,1,0
138648,525.164113785558,4,2,2,75,1,0
141799,498.960498960499,4,2,2,75,1,0
141923,-100,4,2,1,75,0,0
142173,-100,4,2,2,75,0,0
142796,534.521158129176,4,2,2,75,1,0
143863,516.129032258065,4,2,2,75,1,0
145927,526.315789473685,4,2,2,75,1,0
145927,-200,4,2,2,75,0,0
146058,-200,4,2,1,75,0,0
146321,-200,4,2,2,75,0,0
146979,-100,4,2,2,75,0,0
150137,506.329113924051,4,2,2,75,1,0

[Colours]
Combo1 : 146,220,165
Combo2 : 208,221,170
Combo3 : 156,205,133
Combo4 : 225,200,162

[HitObjects]
75,190,1640,6,1,P|100:154|70:58,1,120,2|0,3:2|0:0,0:0:0:0:
73,73,2161,2,1,P|121:93|219:95,1,120,2|0,2:2|0:0,0:0:0:0:
206,91,2709,1,10,2:2:0:0:
430,108,3213,2,1,B|417:60|417:60|412:23,1,80,2|0,0:0|0:0,0:0:0:0:
330,137,3734,6,1,P|381:141|446:195,1,120,2|0,3:2|0:0,0:0:0:0:
439,199,4256,2,1,P|412:246|404:326,1,120,2|0,0:0|0:0,0:0:0:0:
407,329,4778,2,1,P|447:344|428:313,1,80,10|0,0:0|0:0,0:0:0:0:
267,276,5310,2,1,B|171:287|240:277|129:291,1,120,2|0,0:0|0:0,0:0:0:0:
127,290,5832,6,1,B|162:317|187:303|187:303|246:216|246:216|267:205|326:228,1,240,2|0,0:0|0:0,0:0:0:0:
420,193,6875,2,1,P|370:193|316:144,1,120,10|0,0:0|0:0,0:0:0:0:
305,136,7397,2,1,P|354:93|334:17,1,120,2|0,0:0|0:0,0:0:0:0:
331,42,7911,6,1,B|298:35|298:35|351:16,1,80,2|0,0:0|0:0,0:0:0:0:
187,122,8432,2,1,B|220:115|220:115|167:96,1,80,2|0,0:0|0:0,0:0:0:0:
72,21,8944,2,1,B|98:60|77:148|47:126|28:180|68:249,1,240,10|0,2:2|3:3,0:0:0:0:
194,267,9987,6,1,P|125:264|67:313,1,120,2|0,3:2|0:0,0:0:0:0:
75,303,10509,2,1,P|60:254|19:169,1,120,2|0,2:2|0:0,0:0:0:0:
23,172,11067,1,10,2:2:0:0:
164,56,11585,2,1,B|121:52|121:52|77:60,1,80,2|0,2:2|0:0,0:0:0:0:
206,165,12106,6,1,P|206:96|246:55,1,120,2|0,3:0|0:0,0:0:0:0:
251,50,12628,2,1,P|311:87|382:62,1,120,0|0,0:0|0:0,0:0:0:0:
366,63,13162,2,1,P|406:52|385:89,1,80,10|0,2:2|0:0,0:0:0:0:
313,192,13657,2,1,B|368:186|368:186|374:188|374:188|444:180,1,120,2|0,2:2|0:0,0:0:0:0:
451,176,14193,6,1,B|396:142|358:180|328:245|451:332,1,240,2|0,3:2|0:0,0:0:0:0:
492,201,15236,2,1,P|461:165|450:198,1,80,10|0,0:0|0:0,0:0:0:0:
342,155,15758,2,0,P|373:119|384:152,1,80,2|0,2:0|3:0,0:0:0:0:
472,45,16263,5,0,3:0:0:0:
336,26,16523,2,1,L|343:-13,2,26.6666666666667,8|8|8,0:0|0:0|0:0,0:0:0:0:
328,33,16784,2,1,P|277:56|234:72,1,80,8|0,0:0|0:0,0:0:0:0:
172,121,17306,2,1,P|161:80|151:42,1,80,10|4,0:0|2:3,0:0:0:0:
254,183,17824,1,6,2:3:0:0:
264,152,18097,1,0,3:3:0:0:
289,291,18334,6,1,B|208:304|218:234|120:272,1,160,2|2,3:2|2:2,0:0:0:0:
15,321,19116,1,0,3:3:0:0:
36,297,19442,2,1,P|48:232|22:158,1,120,8|0,0:0|0:0,0:0:0:0:
30,169,19931,2,1,P|46:120|77:84,1,80,0|0,0:0|0:0,0:0:0:0:
198,36,20420,6,1,B|146:26|146:26|152:61|152:61|153:75|153:75|165:126|165:126|205:129|205:129|214:128|214:128|266:129,1,240,2|0,3:2|3:3,0:0:0:0:
350,41,21495,2,1,P|375:38|398:41,1,40,10|0,0:0|0:0,0:0:0:0:
400,28,21755,2,1,P|419:43|433:61,1,40,0|0,0:0|0:0,0:0:0:0:
444,60,22016,2,1,P|447:85|444:108,1,40,2|0,0:0|0:0,0:0:0:0:
457,110,22277,2,1,P|441:129|423:143,1,40,0|0,0:0|0:0,0:0:0:0:
415,145,22536,6,1,P|347:134|365:34,1,160,2|2,3:2|0:0,0:0:0:0:
242,134,23298,2,1,L|252:175,1,40,0|0,0:0|0:0,0:0:0:0:
255,191,23583,2,1,P|216:212|177:282,1,120,10|0,2:2|0:0,0:0:0:0:
180,285,24072,2,1,P|206:338|276:354,1,120,2|0,2:2|0:0,0:0:0:0:
276,352,24593,6,1,B|317:334|317:334|384:349|384:349|387:353|387:353|462:369|462:369|508:347,1,240,2|0,3:2|3:3,0:0:0:0:
504,195,25637,2,1,B|479:186|479:186|447:180,1,40,10|0,2:2|0:0,0:0:0:0:
452,192,25898,2,1,B|427:201|427:201|395:207,1,40,0|0,0:0|0:0,0:0:0:0:
403,191,26158,2,1,B|378:182|378:182|346:176,1,40,0|0,0:0|0:0,0:0:0:0:
353,190,26419,2,1,B|328:199|328:199|296:205,1,40,0|0,3:3|0:0,0:0:0:0:
298,201,26680,6,1,B|261:181|261:181|248:139|282:93,1,120,2|0,3:2|0:0,0:0:0:0:
280,92,27201,2,1,P|333:74|366:84,1,80,2|0,2:2|3:3,0:0:0:0:
210,15,27730,2,1,B|170:23|170:23|166:26|166:26|111:40,1,80,10|0,2:2|0:0,0:0:0:0:
55,136,28259,2,1,B|46:109|46:109|42:104|42:104|38:83,2,53.3333333333333,2|0|0,2:2|0:0|0:0,0:0:0:0:
39,148,28769,6,1,B|80:156|80:156|84:159|84:159|141:173,1,80,2|0,3:2|0:0,0:0:0:0:
197,247,29290,2,1,B|205:205|205:205|208:201|208:201|222:144,1,80,2|0,2:2|3:3,0:0:0:0:
124,342,29812,2,1,P|99:345|76:342,1,40,10|0,2:2|0:0,0:0:0:0:
74,355,30072,2,1,P|55:340|41:322,1,40,0|0,0:0|0:0,0:0:0:0:
30,323,30333,2,1,P|27:298|30:275,1,40,2|0,2:2|0:0,0:0:0:0:
17,273,30594,2,1,P|33:254|51:240,1,40,0|0,3:3|0:0,0:0:0:0:
59,238,30855,6,1,B|83:197|69:159|48:174|33:112|52:85,1,160,2|2,3:2|2:2,0:0:0:0:
190,24,31638,1,0,3:3:0:0:
215,43,31899,2,1,L|169:38,1,40,10|0,2:2|0:0,0:0:0:0:
338,119,32421,2,1,L|292:124,1,40,2|0,3:2|0:0,0:0:0:0:
434,26,32930,6,1,P|478:12|508:77,1,120,2|0,3:2|0:0,0:0:0:0:
508,79,33451,2,1,P|489:137|501:204,1,120,2|0,3:2|0:0,0:0:0:0:
496,201,33986,2,1,P|471:195|448:195,1,40,10|0,2:2|0:0,0:0:0:0:
447,183,34246,2,1,P|426:195|410:212,1,40,4|4,2:3|2:3,0:0:0:0:
400,210,34507,2,1,P|394:234|394:257,1,40,6|0,2:3|0:0,0:0:0:0:
382,258,34768,2,1,P|395:278|412:294,1,40,0|0,3:3|0:0,0:0:0:0:
418,301,35029,6,1,P|476:282|515:275,1,88.000002685547,2|2,3:2|2:3,0:0:0:0:
326,346,35551,1,2,2:2:0:0:
309,314,35812,1,0,3:3:0:0:
396,209,36072,2,1,P|341:214|264:155,1,132.00000402832,10|0,2:2|0:0,0:0:0:0:
267,161,36594,2,1,P|285:104|279:52,1,88.000002685547,2|10,2:2|2:2,0:0:0:0:
277,59,36986,1,8,0:0:0:0:
267,44,37116,5,2,3:2:0:0:
123,103,37377,2,1,L|66:91,1,44.0000013427735,8|8,2:3|2:3,0:0:0:0:
62,98,37638,1,6,2:3:0:0:
46,106,37768,2,1,P|16:171|26:221,1,88.000002685547,4|4,2:3|2:3,0:0:0:0:
19,203,38159,2,1,P|33:227|48:240,1,44.0000013427735,10|4,2:2|2:3,0:0:0:0:
50,254,38420,2,1,P|76:261|96:259,1,44.0000013427735,8|8,2:3|2:3,0:0:0:0:
108,267,38681,2,1,P|131:253|144:238,1,44.0000013427735,10|4,2:2|2:3,0:0:0:0:
156,230,38942,2,1,P|162:204|160:183,1,44.0000013427735,0|8,3:3|2:2,0:0:0:0:
151,172,39203,6,1,B|132:153|137:127|137:127|216:143,1,88.000002685547,2|2,3:2|3:3,0:0:0:0:
266,42,39725,1,2,3:2:0:0:
223,54,39986,1,0,3:3:0:0:
335,136,40246,2,1,B|403:154|392:89|487:120,1,132.00000402832,10|0,2:2|0:0,0:0:0:0:
478,110,40768,2,1,P|431:109|441:190,1,132.00000402832,2|4,3:2|2:3,0:0:0:0:
435,193,41290,6,1,P|449:218|460:249,3,44.0000013427735,2|8|8|8,3:2|2:3|2:3|2:3,0:0:0:0:
458,249,41812,2,1,P|444:274|433:305,3,44.0000013427735,6|4|0|4,2:3|2:3|3:3|2:3,0:0:0:0:
440,305,42333,1,10,2:2:0:0:
442,322,42464,2,1,B|420:344|372:339|372:339|307:301|307:301|265:295|215:343,1,220.000006713867,4|0,2:3|3:3,0:0:0:0:
76,348,43322,6,1,B|136:335|136:335|97:230|97:230|101:222|101:222|55:111|55:111|149:111,1,384,0|0,0:0|0:0,0:0:0:0:
312,138,45413,6,1,B|266:146|266:146|259:153|259:153|220:162|220:162|252:82|183:32|183:32|250:34|250:34|256:39|256:39|348:42,1,384,0|0,0:0|0:0,0:0:0:0:
91,228,47505,6,1,B|170:235|170:235|175:243|175:243|360:265|360:265|367:262|367:262|471:273,1,384,0|0,0:0|0:0,0:0:0:0:
423,63,49596,6,1,B|384:45|384:10|421:-25|487:-24|527:13|527:13|505:95|505:95|507:101|507:101|480:199,1,384,0|0,0:0|0:0,0:0:0:0:
100,162,51691,6,1,P|150:151|218:98,1,122.666669006348,4|0,2:3|0:0,0:0:0:0:
293,72,52197,2,1,P|277:42|265:3,2,61.3333345031739,0|0|0,0:0|0:0|0:0,0:0:0:0:
356,135,52703,1,2,2:3:0:0:
501,38,52956,5,8,2:3:0:0:
466,24,53209,2,1,B|474:80|496:113|487:172,1,122.666669006348,4|0,2:3|0:0,0:0:0:0:
425,209,53716,6,1,P|486:205|475:294,1,122.666669006348,0|0,0:0|0:0,0:0:0:0:
423,323,54222,2,1,P|453:329|482:336,2,61.3333345031739,0|0|0,0:0|0:0|0:0,0:0:0:0:
350,271,54728,2,1,P|319:277|290:284,2,61.3333345031739,2|0|0,2:3|0:0|0:0,0:0:0:0:
406,199,55235,2,1,P|345:222|293:165,1,122.666669006348,0|0,0:0|0:0,0:0:0:0:
238,121,55741,6,1,B|261:100|261:100|222:80,2,61.3333345031739,4|0|0,2:3|0:0|0:0,0:0:0:0:
177,187,56247,2,1,P|153:177|38:151,1,122.666669006348,0|0,0:0|0:0,0:0:0:0:
0,204,56754,1,2,2:3:0:0:
99,322,57007,1,8,2:3:0:0:
130,302,57260,2,1,B|153:281|153:281|114:261,2,61.3333345031739,4|0|0,2:3|0:0|0:0,0:0:0:0:
214,361,57766,6,1,P|238:351|342:328,1,122.666669006348,0|0,0:0|0:0,0:0:0:0:
425,361,58273,2,1,P|407:308|398:260,1,92.0000017547608,0|0,0:0|0:0,0:0:0:0:
448,115,58779,2,1,B|463:96|463:96|495:123,2,61.3333345031739,2|0|0,2:3|0:0|0:0,0:0:0:0:
369,165,59285,2,1,P|345:155|232:131,1,122.666669006348,0|0,0:0|0:0,0:0:0:0:
152,138,59792,6,1,B|147:116|147:116|162:76,2,61.3333345031739,4|0|0,2:3|0:0|0:0,0:0:0:0:
102,23,60298,2,1,B|170:34|170:34|173:38|173:38|240:49,1,122.666669006348,0|0,0:0|0:0,0:0:0:0:
315,62,60804,1,2,2:3:0:0:
466,225,61058,1,8,2:3:0:0:
435,204,61311,2,1,B|430:182|430:182|445:142,2,61.3333345031739,4|0|0,2:3|0:0|0:0,0:0:0:0:
512,106,61817,6,1,B|444:117|444:117|441:121|441:121|351:137,1,122.666669006348,0|0,0:0|0:0,0:0:0:0:
345,55,62323,2,1,P|312:95|308:149,1,92.0000017547608,0|0,0:0|0:0,0:0:0:0:
452,309,62830,2,1,B|474:304|474:304|514:319,2,61.3333345031739,2|0|0,2:3|0:0|0:0,0:0:0:0:
397,356,63336,2,1,B|408:288|408:288|412:285|412:285|429:188,1,122.666669006348,0|0,0:0|0:0,0:0:0:0:
455,161,63842,6,1,P|416:203|341:189,1,122.666669006348,4|0,2:3|0:0,0:0:0:0:
272,146,64349,2,1,P|285:111|292:78,2,61.3333345031739,0|0|0,0:0|0:0|0:0,0:0:0:0:
225,231,64855,1,2,2:3:0:0:
36,84,65108,5,8,2:3:0:0:
60,56,65361,2,1,P|102:36|146:115,1,122.666669006348,4|0,2:3|0:0,0:0:0:0:
110,162,65868,6,1,B|76:206|76:206|77:215|78:245|81:301,1,122.666669006348,0|0,0:0|0:0,0:0:0:0:
60,372,66374,2,1,L|-16:361,2,61.3333345031739,0|0|0,0:0|0:0|0:0,0:0:0:0:
146,342,66880,2,1,L|222:331,2,61.3333345031739,2|0|0,2:3|0:0|0:0,0:0:0:0:
79,272,67387,2,1,P|68:196|100:126,1,122.666669006348,0|0,0:0|0:0,0:0:0:0:
148,85,67893,6,1,B|194:70|232:27|232:27|227:115|227:115|224:120|224:120|214:218|214:218|270:183|321:189,1,384,0|0,0:0|0:0,0:0:0:0:
499,327,69975,6,1,B|454:294|369:299|398:381|316:410|248:375|248:375|223:318|281:262,1,384,0|0,0:0|0:0,0:0:0:0:
478,99,72057,6,1,P|463:180|376:46,1,384,0|0,0:0|0:0,0:0:0:0:
274,296,74140,6,1,B|232:345|232:345|142:308|142:308|136:298|136:298|57:259|57:259,1,256,0|0,0:0|0:0,0:0:0:0:
494,65,76222,6,1,B|421:60|439:126|347:113,1,138.666660319011,6|0,1:3|0:0,0:0:0:0:
250,92,76728,2,1,P|305:91|313:171,1,138.666660319011,2|0,1:2|0:0,0:0:0:0:
229,186,77234,1,10,2:2:0:0:
481,301,77487,1,10,2:3:0:0:
452,331,77740,2,1,B|400:308|400:308|374:334|374:334|307:343,1,138.666660319011,6|0,2:3|0:0,0:0:0:0:
226,361,78247,6,1,P|281:334|245:265,1,138.666660319011,2|0,2:2|0:0,0:0:0:0:
166,287,78753,1,10,2:3:0:0:
17,96,79006,1,10,1:3:0:0:
42,142,79259,2,1,P|46:108|52:74,2,69.3333301595054,14|0|0,2:3|0:0|0:0,0:0:0:0:
148,163,79766,2,1,L|143:136,6,25.9999988098145,2|2|2|2|10|2|2,2:2|2:2|2:2|2:2|2:3|2:2|2:2,0:0:0:0:
151,137,80272,6,1,P|238:114|309:67,1,138.666660319011,6|0,1:3|0:0,0:0:0:0:
354,15,80778,2,1,B|319:57|319:57|318:110|318:110|344:167,1,138.666660319011,2|0,1:2|0:0,0:0:0:0:
238,216,81285,6,1,L|295:227,1,51.999997619629,10|0,2:2|0:0,0:0:0:0:
450,182,81538,6,1,L|393:193,1,51.999997619629,10|0,2:3|0:0,0:0:0:0:
286,315,81791,6,1,P|351:315|432:373,1,138.666660319011,6|0,1:3|0:0,0:0:0:0:
512,323,82297,6,1,P|454:341|455:246,1,138.666660319011,2|0,2:2|0:0,0:0:0:0:
497,229,82804,1,10,2:3:0:0:
298,37,83057,1,10,1:3:0:0:
324,69,83310,2,1,L|367:63,4,25.9999988098145,14|2|2|2|2,2:3|2:2|2:2|2:2|1:2,0:0:0:0:
459,27,83816,2,1,L|416:21,4,25.9999988098145,2|0|2|0|10,2:2|0:0|2:2|0:0|2:3,0:0:0:0:
319,156,84323,6,1,B|264:175|258:95|188:106,1,138.666660319011,6|0,1:3|0:0,0:0:0:0:
115,68,84829,2,1,P|148:16|159:-12,2,69.3333301595054,2|0|0,1:2|0:0|0:0,0:0:0:0:
32,104,85335,1,10,2:2:0:0:
145,281,85589,1,10,2:3:0:0:
172,249,85842,2,1,L|252:238,2,69.3333301595054,6|0|0,2:3|0:0|0:0,0:0:0:0:
107,176,86348,6,1,P|62:161|49:266,1,138.666660319011,2|0,2:2|0:0,0:0:0:0:
60,292,86854,1,10,2:3:0:0:
312,181,87108,1,10,1:3:0:0:
278,155,87361,2,1,B|256:133|256:133|356:87,1,138.666660319011,14|0,2:3|0:0,0:0:0:0:
418,27,87867,2,1,L|412:-16,6,25.9999988098145,2|2|2|2|10|2|2,2:2|2:2|2:2|2:2|2:3|2:2|2:2,0:0:0:0:
422,8,88373,6,1,P|366:56|425:137,1,138.666660319011,6|0,1:3|0:0,0:0:0:0:
418,207,88880,2,1,L|338:196,2,69.3333301595054,2|0|0,1:2|0:0|0:0,0:0:0:0:
503,155,89386,1,10,2:2:0:0:
226,46,89639,1,10,2:3:0:0:
266,34,89892,2,1,P|239:108|232:183,1,138.666660319011,6|0,1:3|0:0,0:0:0:0:
206,277,90399,6,1,P|202:196|171:121,1,138.666660319011,2|0,2:2|0:0,0:0:0:0:
67,76,90905,2,1,P|117:73|180:41,1,103.999995239258,10|10,2:3|1:3,0:0:0:0:
335,45,91411,5,14,2:3:0:0:
301,59,91538,5,10,2:2:0:0:
263,73,91665,5,2,1:2:0:0:
438,115,91918,6,1,L|463:111,4,25.9999988098145,2|0|2|0|10,2:2|0:0|2:2|0:0|2:3,0:0:0:0:
42,73,93943,6,1,P|79:34|163:72,1,138.666660319011,6|0,2:3|0:0,0:0:0:0:
217,150,94449,2,1,B|146:141|146:141|106:173|117:242,1,138.666660319011,2|0,2:2|0:0,0:0:0:0:
105,280,94956,1,10,2:3:0:0:
400,359,95209,1,10,1:3:0:0:
427,327,95462,2,1,B|449:305|449:305|318:331,1,138.666660319011,14|0,2:3|0:0,0:0:0:0:
244,371,95968,2,1,L|240:345,6,25.9999988098145,2|2|2|2|10|2|2,2:2|2:2|2:2|2:2|2:3|2:2|2:2,0:0:0:0:
230,341,96475,6,1,P|261:266|255:205,1,138.666660319011,6|0,1:3|0:0,0:0:0:0:
290,119,96981,2,1,P|245:127|198:133,2,69.3333301595054,2|0|0,1:2|0:0|0:0,0:0:0:0:
364,193,97487,6,1,L|354:244,1,51.999997619629,10|0,2:2|0:0,0:0:0:0:
464,159,97740,6,1,L|454:107,1,51.999997619629,10|0,2:3|0:0,0:0:0:0:
512,305,97994,6,1,B|448:293|448:293|377:334,1,138.666660319011,6|0,1:3|0:0,0:0:0:0:
296,365,98500,6,1,P|221:362|227:277,1,138.666660319011,2|0,2:2|0:0,0:0:0:0:
286,266,99006,1,10,2:3:0:0:
44,105,99259,1,10,1:3:0:0:
82,89,99513,2,1,L|78:115,4,25.9999988098145,14|2|2|2|2,2:3|2:2|2:2|2:2|1:2,0:0:0:0:
31,280,100019,2,1,L|27:254,4,25.9999988098145,2|0|2|0|10,2:2|0:0|2:2|0:0|2:3,0:0:0:0:
268,149,100525,6,1,P|245:126|266:166,3,138.666660319011,8|4|4|8,3:3|3:0|3:0|3:2,0:0:0:0:
326,18,102602,6,1,P|305:97|359:284,1,280,0|0,3:3|0:0,0:0:0:0:
424,371,103641,2,1,P|357:319|155:342,1,280,0|0,3:3|0:0,0:0:0:0:
62,355,104680,2,1,L|69:310,3,40,8|8|4|4,3:3|2:3|2:3|2:3,0:0:0:0:
141,254,105200,2,1,L|134:209,3,40,4|4|0|4,3:3|2:3|0:0|2:3,0:0:0:0:
70,156,105719,6,1,P|119:182|317:113,1,280,8|0,3:2|0:0,0:0:0:0:
428,144,106758,6,1,P|379:170|397:22,1,320,0|0,3:3|3:3,0:0:0:0:
422,39,108866,6,1,L|415:89,3,40,8|4|4|4,3:0|2:3|2:3|2:3,0:0:0:0:
342,125,109393,2,1,L|347:164,3,40,4|4|0|4,3:0|2:3|0:0|2:3,0:0:0:0:
415,233,109887,1,8,3:2:0:0:
112,253,110947,6,1,P|160:235|114:352,1,280,0|0,3:3|0:0,0:0:0:0:
52,332,112037,2,1,P|83:278|90:105,1,240,0|0,3:3|0:0,0:0:0:0:
164,32,113026,2,1,L|223:39,3,40,8|8|4|4,3:3|2:3|2:3|2:3,0:0:0:0:
273,91,113553,2,1,L|332:84,3,40,4|4|0|4,3:3|2:3|0:0|2:3,0:0:0:0:
403,36,114080,6,1,P|350:72|471:165,1,280,8|0,3:2|0:0,0:0:0:0:
503,88,115135,2,1,P|411:99|342:122,1,160,0|0,3:3|3:3,0:0:0:0:
122,50,117218,5,6,1:3:0:0:
61,125,117386,1,0,0:0:0:0:
157,134,117555,1,0,0:0:0:0:
122,50,117724,6,1,B|112:96|112:96|113:126|113:126|94:223,1,138.666660319011,2|0,1:2|0:0,0:0:0:0:
30,255,118230,1,10,2:2:0:0:
352,358,118483,1,10,2:3:0:0:
276,158,118736,5,6,2:3:0:0:
337,233,118904,1,0,0:0:0:0:
241,242,119073,1,0,0:0:0:0:
276,158,119243,6,1,B|286:204|286:204|285:234|285:234|304:331,1,138.666660319011,2|0,2:2|0:0,0:0:0:0:
226,361,119749,1,10,2:3:0:0:
402,46,120002,1,10,1:3:0:0:
438,79,120255,2,1,L|344:65,1,69.3333301595054,14|0,2:3|0:0,0:0:0:0:
287,15,120593,1,0,0:0:0:0:
219,84,120762,2,1,L|226:131,6,25.9999988098145,2|2|2|2|10|2|2,2:2|2:2|2:2|2:2|2:3|2:2|2:2,0:0:0:0:
230,145,121268,5,6,1:3:0:0:
245,241,121437,1,0,0:0:0:0:
149,256,121606,1,0,0:0:0:0:
132,160,121774,6,1,B|123:104|123:104|132:87|132:87|120:23,1,138.666660319011,2|0,1:2|0:0,0:0:0:0:
43,85,122281,6,1,L|31:20,1,51.999997619629,10|0,2:2|0:0,0:0:0:0:
203,10,122534,6,1,L|212:61,1,51.999997619629,10|0,2:3|0:0,0:0:0:0:
267,151,122787,5,6,1:3:0:0:
252,247,122956,1,0,0:0:0:0:
348,262,123125,1,0,0:0:0:0:
365,166,123293,6,1,B|374:110|374:110|365:93|365:93|377:29,1,138.666660319011,2|0,2:2|0:0,0:0:0:0:
462,77,123800,1,10,2:3:0:0:
282,335,124053,1,10,1:3:0:0:
304,360,124306,2,1,L|351:353,4,25.9999988098145,14|2|2|2|2,2:3|2:2|2:2|2:2|1:2,0:0:0:0:
479,255,124812,2,1,L|432:248,4,25.9999988098145,2|0|2|0|10,2:2|0:0|2:2|0:0|2:3,0:0:0:0:
267,187,125319,5,6,1:3:0:0:
328,112,125488,1,0,0:0:0:0:
371,198,125656,1,0,0:0:0:0:
267,187,125825,6,1,B|126:220|274:195|116:232,1,138.666660319011,2|0,1:2|0:0,0:0:0:0:
77,304,126331,1,10,2:2:0:0:
13,34,126585,1,10,2:3:0:0:
247,44,126838,5,6,2:3:0:0:
186,119,127007,1,0,0:0:0:0:
143,33,127175,1,0,0:0:0:0:
247,44,127344,6,1,B|388:11|240:36|398:-1,1,138.666660319011,2|0,2:2|0:0,0:0:0:0:
450,68,127850,1,10,2:3:0:0:
143,33,128104,1,2,1:2:0:0:
478,308,129369,5,6,1:3:0:0:
403,247,129537,1,0,0:0:0:0:
394,343,129706,1,0,0:0:0:0:
478,308,129875,6,1,B|432:298|432:298|402:299|402:299|305:280,1,138.666660319011,2|0,1:2|0:0,0:0:0:0:
260,342,130382,1,10,2:2:0:0:
473,117,130635,1,10,2:3:0:0:
207,173,130888,5,6,1:3:0:0:
282,112,131056,1,0,0:0:0:0:
291,208,131225,1,0,0:0:0:0:
207,173,131394,6,1,B|253:163|253:163|283:164|283:164|380:145,1,138.666660319011,2|0,2:2|0:0,0:0:0:0:
436,206,131901,1,10,2:3:0:0:
436,205,132070,2,1,P|444:171|447:137,1,69.3333301595054,0|0,0:0|0:0,0:0:0:0:
409,44,132407,5,14,2:3:0:0:
450,50,132534,5,10,2:2:0:0:
496,58,132661,5,2,1:2:0:0:
316,34,132914,6,1,L|291:38,4,25.9999988098145,2|0|2|0|10,2:2|0:0|2:2|0:0|2:3,0:0:0:0:
152,61,133420,6,1,L|145:111,3,40,8|8|4|4,3:3|2:3|2:3|2:3,0:0:0:0:
72,147,133926,2,1,L|77:186,3,40,4|4|0|4,3:3|2:3|0:0|2:3,0:0:0:0:
145,255,134432,1,8,3:2:0:0:
227,328,135498,6,1,P|305:270|463:331,1,280,0|0,3:3|0:0,0:0:0:0:
346,373,136548,2,1,P|338:284|270:91,1,280,0|0,3:3|0:0,0:0:0:0:
359,22,137598,6,1,L|352:72,3,40,8|8|4|4,3:3|2:3|2:3|2:3,0:0:0:0:
432,165,138101,2,1,L|426:125,3,40,4|4|0|4,3:0|2:3|0:0|2:3,0:0:0:0:
503,80,138648,6,1,B|471:63|426:76|426:76|377:152|377:152|343:164|271:123,1,280,8|0,3:2|0:0,0:0:0:0:
240,43,139698,2,1,B|168:34|173:115|69:100|69:100|7:68|78:21,1,280,0|0,3:3|0:0,0:0:0:0:
0,136,140748,6,1,B|46:145|46:145|64:144|64:144|83:161|85:162|122:161|122:161|155:185|160:188|196:173|201:171|271:212,1,280,0|0,3:3|0:0,0:0:0:0:
304,297,141799,6,1,L|354:290,3,40,8|8|4|4,3:3|2:3|2:3|2:3,0:0:0:0:
417,248,142297,2,1,L|467:255,3,40,4|4|0|4,3:3|2:3|0:0|2:3,0:0:0:0:
512,333,142796,1,8,3:2:0:0:
197,312,143863,6,1,P|148:334|156:185,1,280,0|0,3:3|0:0,0:0:0:0:
50,82,144895,2,1,B|41:155|92:199|92:199|242:124,1,280,0|0,3:3|0:0,0:0:0:0:
280,67,145927,6,1,L|315:71,3,20,8|8|4|4,3:3|2:3|2:3|2:3,0:0:0:0:
356,128,146453,2,1,L|391:124,3,20,4|4|0|4,3:3|2:3|0:0|2:3,0:0:0:0:
438,72,146979,6,1,B|406:119|406:119|432:188|432:188|439:196|439:196|492:338,1,280,8|0,3:2|0:0,0:0:0:0:
396,315,148032,2,1,P|424:248|534:243,1,160,0|0,3:3|3:3,0:0:0:0:
6,382,150137,5,0,0:0:0:0:
