osu file format v14

[General]
AudioFilename: audio.mp3
AudioLeadIn: 0
PreviewTime: 99577
Countdown: 0
SampleSet: Soft
StackLeniency: 0.2
Mode: 0
LetterboxInBreaks: 0
WidescreenStoryboard: 1

[Editor]
Bookmarks: 14244,42688,71132,99577,128021,142243
DistanceSpacing: 1.8
BeatDivisor: 4
GridSize: 32
TimelineZoom: 2.5

[Metadata]
Title:Go
TitleUnicode:Go
Artist:Travis Scott & Quavo
ArtistUnicode:Travis Scott & Quavo
Creator:Sing
Version:Master
Source:
Tags:QC Huncho Jack
BeatmapID:1499797
BeatmapSetID:709474

[Difficulty]
HPDrainRate:6
CircleSize:3
OverallDifficulty:8
ApproachRate:9
SliderMultiplier:3.2
SliderTickRate:1

[Events]
//Background and Video events
0,0,"wenjun-lin-.png",0,0
//Break Periods
//Storyboard Layer 0 (Background)
//Storyboard Layer 1 (Fail)
//Storyboard Layer 2 (Pass)
//Storyboard Layer 3 (Foreground)
//Storyboard Layer 4 (Overlay)
//Storyboard Sound Samples

[TimingPoints]
14244,444.444444444444,4,2,1,60,1,0
71577,-133.333333333333,4,2,1,40,0,0
85355,-100,4,2,1,60,0,0

[Colours]
Combo1 : 252,120,97
Combo2 : 254,193,167

[HitObjects]
109,330,14244,5,4,1:0:0:0:
200,347,14466,1,0,0:0:0:0:
169,45,14688,6,0,P|228:121|199:240,1,160,0|0,0:0|0:0,0:0:0:0:
109,330,15132,5,8,0:0:0:0:
200,347,15354,1,0,0:0:0:0:
328,201,15577,6,0,P|303:249|253:279,1,80,0|0,0:0|0:0,0:0:0:0:
109,330,15799,2,0,L|102:272,4,40,8|0|0|0|0,0:0|0:0|0:0|0:0|0:0,0:0:0:0:
200,347,16244,5,8,0:0:0:0:
169,45,16466,6,0,P|228:121|199:240,1,160,0|0,1:0|0:0,0:0:0:0:
109,330,16910,5,8,0:0:0:0:
200,347,17132,1,0,0:0:0:0:
328,201,17355,6,0,P|303:249|253:279,1,80,0|0,1:0|0:0,0:0:0:0:
109,330,17577,5,8,0:0:0:0:
503,301,17799,6,0,P|307:293|174:368,1,320,4|0,1:0|0:0,0:0:0:0:
12,109,18466,5,0,0:0:0:0:
120,145,18577,1,0,0:0:0:0:
229,181,18688,1,8,0:0:0:0:
221,160,18910,5,0,0:0:0:0:
342,103,19021,1,0,0:0:0:0:
466,48,19132,1,0,0:0:0:0:
503,301,19355,6,0,L|515:247,4,40,8|0|0|0|0,0:0|0:0|0:0|0:0|0:0,0:0:0:0:
465,189,19799,1,8,0:0:0:0:
199,346,20021,6,0,L|329:368,2,106.666666666667,0|0|0,1:0|0:0|0:0,0:0:0:0:
342,103,20466,2,0,L|236:120,2,106.666666666667,8|0|0,0:0|0:0|0:0,0:0:0:0:
392,344,20910,6,0,L|410:257,1,80,0|0,1:0|1:0,0:0:0:0:
398,252,21132,5,0,1:0:0:0:
24,376,21355,5,4,1:0:0:0:
0,286,21577,1,0,0:0:0:0:
221,160,21799,6,0,P|110:182|67:231,1,160,0|0,0:0|0:0,0:0:0:0:
24,376,22243,5,8,0:0:0:0:
0,286,22465,1,0,0:0:0:0:
313,302,22688,6,0,P|268:254|219:239,1,80,0|0,0:0|0:0,0:0:0:0:
24,376,22910,2,0,L|77:359,4,40,8|0|0|0|0,0:0|0:0|0:0|0:0|0:0,0:0:0:0:
0,286,23355,5,8,0:0:0:0:
221,160,23577,6,0,P|110:182|67:231,1,160,0|0,1:0|0:0,0:0:0:0:
24,376,24021,5,8,0:0:0:0:
0,286,24243,1,0,0:0:0:0:
313,302,24466,6,0,P|268:254|219:239,1,80,0|0,1:0|0:0,0:0:0:0:
24,376,24688,5,8,0:0:0:0:
456,291,24910,6,0,B|472:334|472:334|381:392|252:329|253:222,1,320,4|0,1:0|0:0,0:0:0:0:
307,178,25577,1,0,0:0:0:0:
172,89,25688,6,0,P|220:89|252:107,2,80,0|8|0,0:0|0:0|0:0,0:0:0:0:
101,41,26021,2,0,P|26:97|-4:189,1,160,0|0,0:0|0:0,0:0:0:0:
151,330,26466,6,0,L|164:263,4,40,8|0|0|0|0,0:0|0:0|0:0|0:0|0:0,0:0:0:0:
62,363,26910,1,8,0:0:0:0:
395,143,27132,5,0,1:0:0:0:
247,103,27355,1,0,0:0:0:0:
176,353,27577,5,8,0:0:0:0:
456,291,27799,1,0,1:0:0:0:
179,36,28021,5,0,1:0:0:0:
156,129,28132,1,0,1:0:0:0:
133,222,28243,6,0,L|232:249,1,80,0|0,1:0|0:0,0:0:0:0:
485,172,28466,5,4,1:0:0:0:
467,82,28688,1,0,0:0:0:0:
203,49,28910,6,0,P|281:2|358:1,1,160,0|0,0:0|0:0,0:0:0:0:
485,172,29355,5,8,0:0:0:0:
467,82,29577,1,0,0:0:0:0:
156,129,29799,6,0,P|207:141|245:176,1,80,0|0,0:0|0:0,0:0:0:0:
485,172,30021,2,0,P|451:189|439:202,4,40,8|0|0|0|0,0:0|0:0|0:0|0:0|0:0,0:0:0:0:
467,82,30466,5,8,0:0:0:0:
203,49,30688,6,0,P|281:2|358:1,1,160,0|0,1:0|0:0,0:0:0:0:
485,172,31133,5,8,0:0:0:0:
467,82,31355,1,0,0:0:0:0:
156,129,31577,6,0,P|207:141|245:176,1,80,0|0,1:0|0:0,0:0:0:0:
485,172,31799,5,8,0:0:0:0:
92,276,32021,6,0,B|40:196|104:107|104:107|149:103|172:156,1,240,4|0,1:0|0:0,0:0:0:0:
327,325,32466,6,0,P|230:325|146:380,1,160,0|0,0:0|0:0,0:0:0:0:
406,262,32799,1,0,0:0:0:0:
512,331,32910,6,0,P|442:363|374:345,2,106.666666666667,8|0|0,0:0|0:0|0:0,0:0:0:0:
239,146,33355,6,0,L|256:244,1,80,0|0,0:0|0:0,0:0:0:0:
41,158,33577,2,0,L|26:217,4,40,8|0|0|0|0,0:0|0:0|0:0|0:0|0:0,0:0:0:0:
66,70,34021,1,8,0:0:0:0:
406,262,34243,5,0,1:0:0:0:
298,256,34354,1,0,0:0:0:0:
202,304,34466,2,0,P|166:373|114:419,1,80,0|0,0:0|0:0,0:0:0:0:
111,249,34688,6,0,P|63:297|-11:330,1,120,8|0,0:0|0:0,0:0:0:0:
17,321,34910,2,0,P|-4:260|-21:231,1,80,0|0,1:0|0:0,0:0:0:0:
262,20,35132,5,0,1:0:0:0:
280,138,35243,1,0,1:0:0:0:
298,256,35355,2,0,L|387:231,1,80,0|0,1:0|0:0,0:0:0:0:
512,20,35577,5,4,1:0:0:0:
422,43,35799,1,0,0:0:0:0:
414,384,36021,6,0,P|374:282|385:191,1,160,0|0,0:0|0:0,0:0:0:0:
512,20,36466,5,8,0:0:0:0:
422,43,36688,1,0,0:0:0:0:
272,240,36910,6,0,P|288:186|332:149,1,80,0|0,0:0|0:0,0:0:0:0:
512,20,37132,2,0,L|524:58,2,40,8|0|0,0:0|0:0|0:0,0:0:0:0:
421,42,37355,6,0,P|457:113|463:193,1,160,4|8,1:0|0:0,0:0:0:0:
414,384,37799,6,0,P|374:282|385:191,1,160,4|0,1:0|0:0,0:0:0:0:
512,20,38243,5,8,0:0:0:0:
422,43,38465,1,0,0:0:0:0:
272,240,38688,6,0,P|279:204|298:174,2,53.3333333333333,0|0|0,1:0|1:0|1:0,0:0:0:0:
217,129,38910,2,0,P|193:140|173:158,2,53.3333333333333,8|0|0,1:2|1:0|1:0,0:0:0:0:
23,105,39132,5,4,1:0:0:0:
0,15,39355,1,0,0:0:0:0:
321,10,39577,6,0,P|221:14|157:53,1,160,0|0,0:0|0:0,0:0:0:0:
23,105,40021,5,8,0:0:0:0:
0,15,40244,1,0,0:0:0:0:
285,167,40466,6,0,P|244:136|179:131,1,80,0|0,0:0|0:0,0:0:0:0:
23,105,40688,2,0,P|59:92|77:81,4,40,8|0|0|0|0,0:0|0:0|0:0|0:0|0:0,0:0:0:0:
0,15,41132,5,8,0:0:0:0:
321,10,41355,6,0,P|221:14|157:53,1,160,0|0,1:0|0:0,0:0:0:0:
23,105,41799,5,8,0:0:0:0:
0,15,42022,1,0,1:0:0:0:
313,302,42243,5,0,1:0:0:0:
188,264,42355,1,0,1:0:0:0:
63,226,42466,1,0,1:0:0:0:
468,61,42688,6,0,B|483:92|483:92|411:122|324:78|316:-19,1,240,4|0,1:0|0:0,0:0:0:0:
322,11,43132,2,0,P|239:50|247:149,1,160,0|0,0:0|0:0,0:0:0:0:
132,384,43577,6,0,P|144:261|13:50,1,320,8|0,0:0|0:0,0:0:0:0:
313,302,44243,6,0,L|242:320,4,40,8|0|0|0|0,0:0|0:0|0:0|0:0|0:0,0:0:0:0:
403,279,44688,1,8,0:0:0:0:
42,361,44910,5,0,1:0:0:0:
132,384,45132,1,0,0:0:0:0:
302,164,45355,6,0,P|231:197|187:263,1,160,8|0,0:0|0:0,0:0:0:0:
317,71,45799,6,0,P|272:55|219:65,1,80,0|0,1:0|0:0,0:0:0:0:
392,127,46021,1,8,0:0:0:0:
132,384,46243,5,4,1:0:0:0:
72,124,46466,1,0,0:0:0:0:
347,177,46688,5,0,0:0:0:0:
313,302,46910,1,0,0:0:0:0:
38,321,47132,6,0,B|2:286|6:237|6:237|155:172|220:348,1,320,8|0,0:0|0:0,0:0:0:0:
463,305,47799,6,0,L|467:361,4,40,8|0|0|0|0,0:0|0:0|0:0|0:0|0:0,0:0:0:0:
455,211,48243,1,8,0:0:0:0:
147,175,48466,5,0,1:0:0:0:
155,81,48688,1,0,0:0:0:0:
512,0,48910,6,0,P|442:7|384:59,1,120,8|0,0:0|0:0,0:0:0:0:
383,23,49132,2,0,P|370:82|382:131,1,80,0|0,1:0|0:0,0:0:0:0:
466,345,49355,5,0,1:0:0:0:
332,322,49466,1,0,1:0:0:0:
198,299,49577,1,0,1:0:0:0:
204,0,49799,5,4,1:0:0:0:
0,47,50021,1,0,0:0:0:0:
193,126,50243,6,0,B|245:145|242:218|242:218|166:95|5:124,1,320,0|8,0:0|0:0,0:0:0:0:
204,0,50910,5,0,0:0:0:0:
0,47,51132,1,0,0:0:0:0:
198,299,51355,6,0,L|188:355,4,40,8|0|0|0|0,0:0|0:0|0:0|0:0|0:0,0:0:0:0:
104,372,51799,1,8,0:0:0:0:
332,322,52021,1,0,1:0:0:0:
10,253,52243,6,0,P|-7:214|6:171,1,80,0|0,0:0|0:0,0:0:0:0:
0,178,52466,2,0,P|72:176|130:254,1,160,8|0,0:0|0:0,0:0:0:0:
154,55,52910,6,0,P|172:16|214:-1,1,80,0|0,1:0|0:0,0:0:0:0:
220,7,53132,1,8,0:0:0:0:
466,345,53355,5,4,1:0:0:0:
308,317,53577,1,0,0:0:0:0:
361,56,53799,6,0,B|430:90|464:210|391:282|391:282|374:233|288:213,1,320,0|8,0:0|0:0,0:0:0:0:
466,345,54466,5,0,0:0:0:0:
308,317,54688,1,0,0:0:0:0:
163,16,54910,6,0,L|151:64,4,40,8|0|0|0|0,0:0|0:0|0:0|0:0|0:0,0:0:0:0:
72,100,55355,1,8,0:0:0:0:
377,25,55577,1,0,1:0:0:0:
308,317,55799,6,0,P|266:281|211:283,1,80,0|0,0:0|0:0,0:0:0:0:
237,263,56021,2,0,P|147:306|122:386,1,160,8|0,0:0|1:0,0:0:0:0:
512,68,56466,5,0,1:0:0:0:
395,40,56577,1,0,1:0:0:0:
278,12,56688,6,0,L|252:112,1,80,0|0,1:0|0:0,0:0:0:0:
124,357,56910,5,4,1:0:0:0:
53,81,57132,1,0,0:0:0:0:
364,338,57355,6,0,B|270:397|198:309|229:300|156:204|17:296,1,320,0|8,0:0|0:0,0:0:0:0:
99,172,58021,5,0,0:0:0:0:
78,266,58243,1,0,0:0:0:0:
304,257,58466,6,0,L|317:191,4,40,8|0|0|0|0,0:0|0:0|0:0|0:0|0:0,0:0:0:0:
371,321,58910,1,8,0:0:0:0:
512,68,59132,6,0,P|471:151|488:216,1,160,0|0,1:0|0:0,0:0:0:0:
442,0,59577,2,0,P|357:38|328:98,1,160,8|0,0:0|0:0,0:0:0:0:
225,305,60021,5,0,1:0:0:0:
112,262,60132,1,0,0:0:0:0:
0,220,60243,6,0,L|25:122,1,80,8|0,0:0|0:0,0:0:0:0:
220,7,60466,5,4,1:0:0:0:
87,79,60688,1,0,0:0:0:0:
412,171,60910,6,0,B|371:181|351:218|351:218|259:244|163:183|179:51,1,320,0|8,0:0|0:0,0:0:0:0:
293,58,61577,5,0,0:0:0:0:
14,28,61799,1,0,0:0:0:0:
225,305,62021,6,0,L|235:256,4,40,8|0|0|0|0,0:0|0:0|0:0|0:0|0:0,0:0:0:0:
147,356,62466,1,8,0:0:0:0:
440,260,62688,5,0,1:0:0:0:
440,260,62910,1,0,0:0:0:0:
14,28,63132,6,0,P|95:54|126:154,1,160,8|0,0:0|1:0,0:0:0:0:
233,16,63466,1,0,0:0:0:0:
220,7,63577,5,0,1:0:0:0:
239,149,63688,1,0,1:0:0:0:
257,291,63799,1,0,1:0:0:0:
456,49,64021,5,4,1:0:0:0:
506,319,64243,2,0,B|488:371|430:376|430:376|426:379|426:379|427:374|427:374|368:257|238:295,1,320,0|0,0:0|0:0,0:0:0:0:
13,357,64910,5,8,0:0:0:0:
37,267,65132,1,0,0:0:0:0:
61,177,65355,1,0,0:0:0:0:
256,290,65577,6,0,L|265:345,2,40,8|0|0,0:0|0:0|0:0,0:0:0:0:
311,219,65799,2,0,P|230:162|147:180,1,160,4|8,1:0|0:0,0:0:0:0:
467,168,66243,2,0,P|441:72|366:32,1,160,4|0,1:0|0:0,0:0:0:0:
430,384,66688,6,0,P|402:322|409:206,1,160,8|0,0:0|0:0,0:0:0:0:
343,84,67021,1,0,0:0:0:0:
364,81,67132,6,0,P|375:57|394:38,2,53.3333333333333,0|0|0,1:0|1:0|1:0,0:0:0:0:
247,0,67355,2,0,P|244:25|251:51,2,53.3333333333333,8|0|0,1:2|1:0|1:0,0:0:0:0:
310,218,67577,5,4,1:0:0:0:
43,67,67799,2,0,B|29:32|-4:20|-4:20|78:-16|191:41|191:186,1,320,0|0,0:0|0:0,0:0:0:0:
262,329,68466,5,8,0:0:0:0:
246,332,68688,1,0,0:0:0:0:
230,335,68910,1,0,0:0:0:0:
490,262,69132,6,0,L|504:316,2,40,8|0|0,0:0|0:0|0:0,0:0:0:0:
512,172,69355,5,0,0:0:0:0:
396,215,69577,1,8,0:0:0:0:
338,370,69799,5,0,1:0:0:0:
154,294,70021,1,0,0:0:0:0:
394,38,70243,6,0,P|330:53|281:123,1,120,8|0,0:0|0:0,0:0:0:0:
276,80,70466,2,0,P|254:134|261:191,1,80,0|0,1:0|0:0,0:0:0:0:
33,371,70688,5,0,1:0:0:0:
230,335,70799,1,0,1:0:0:0:
427,299,70910,1,0,1:0:0:0:
43,67,71132,5,0,0:0:0:0:
505,62,71577,6,0,P|426:73|368:167,1,160.000006103516,0|0,0:0|0:0,0:0:0:0:
375,131,72021,2,0,P|317:114|294:84,1,80.0000030517579,0|0,0:0|0:0,0:0:0:0:
33,371,72466,6,0,P|22:318|63:250,1,80.0000030517579,0|0,0:0|0:0,0:0:0:0:
251,267,72762,2,0,P|150:285|106:343,2,160.000006103516,0|0|0,0:0|0:0|0:0,0:0:0:0:
290,23,73651,6,0,P|304:63|300:120,1,80.0000030517579,0|0,0:0|0:0,0:0:0:0:
199,36,73947,2,0,P|199:75|213:113,1,80.0000030517579,0|0,0:0|0:0,0:0:0:0:
493,248,74243,6,0,P|414:226|301:223,1,160.000006103516,0|0,0:0|0:0,0:0:0:0:
251,267,74688,5,0,0:0:0:0:
47,0,75132,6,0,P|73:39|80:108,1,80.0000030517579,0|0,0:0|0:0,0:0:0:0:
199,36,75429,2,0,P|185:80|137:130,1,80.0000030517579,0|0,0:0|0:0,0:0:0:0:
251,267,75725,6,0,P|277:228|284:159,1,80.0000030517579,0|0,0:0|0:0,0:0:0:0:
403,231,76022,2,0,P|389:186|341:136,1,80.0000030517579,0|0,0:0|0:0,0:0:0:0:
497,27,76318,6,0,P|469:33|405:62,2,80.0000030517579,0|0|0,0:0|0:0|0:0,0:0:0:0:
391,310,76910,6,0,L|406:208,1,80.0000030517579,0|0,0:0|0:0,0:0:0:0:
493,248,77206,2,0,L|481:327,1,80.0000030517579,0|0,0:0|0:0,0:0:0:0:
292,359,77503,5,0,0:0:0:0:
292,359,77651,1,0,0:0:0:0:
199,120,77799,6,0,P|246:208|248:286,1,160.000006103516,0|0,0:0|0:0,0:0:0:0:
33,371,78243,5,0,0:0:0:0:
219,22,78540,5,0,0:0:0:0:
436,0,78688,2,0,P|356:22|298:126,1,160.000006103516,0|0,0:0|0:0,0:0:0:0:
178,206,79132,5,0,0:0:0:0:
262,181,79281,1,0,0:0:0:0:
199,120,79429,1,0,0:0:0:0:
512,359,79577,6,0,P|439:317|309:287,1,160.000006103516,0|0,0:0|0:0,0:0:0:0:
502,101,80021,2,0,P|422:128|315:206,1,160.000006103516,0|0,0:0|0:0,0:0:0:0:
33,371,80466,6,0,P|130:360|157:285,2,160.000006103516,0|0|0,0:0|0:0|0:0,0:0:0:0:
271,219,81206,1,0,0:0:0:0:
269,377,81355,6,0,P|239:281|259:202,1,160.000006103516,0|0,0:0|0:0,0:0:0:0:
0,109,81799,5,0,0:0:0:0:
502,101,82243,5,0,0:0:0:0:
416,79,82392,1,0,0:0:0:0:
330,57,82540,1,0,0:0:0:0:
250,225,82688,6,0,P|258:146|230:72,1,160.000006103516,0|0,0:0|0:0,0:0:0:0:
0,109,83132,2,0,B|-23:76|-8:38|-8:38|95:-9|173:120,1,240.000009155274,0|0,0:0|0:0,0:0:0:0:
512,87,84021,5,0,0:0:0:0:
420,63,84170,1,0,0:0:0:0:
328,40,84318,1,0,0:0:0:0:
135,341,84466,6,0,P|125:262|162:193,1,160.000006103516,0|0,0:0|0:0,0:0:0:0:
243,366,84910,2,0,P|280:296|270:218,1,160.000006103516,0|0,0:0|0:0,0:0:0:0:
0,109,85355,6,0,P|95:95|188:43,1,160,4|0,1:0|0:0,0:0:0:0:
201,0,85799,5,0,0:0:0:0:
201,0,86021,1,0,0:0:0:0:
161,193,86243,6,0,P|252:223|334:290,1,160,8|0,0:0|0:0,0:0:0:0:
485,162,86688,5,0,0:0:0:0:
410,101,86910,2,0,L|421:56,4,40,8|0|0|0|0,0:0|0:0|0:0|0:0|0:0,0:0:0:0:
316,126,87355,1,8,0:0:0:0:
391,187,87577,1,0,1:0:0:0:
31,316,87799,5,0,0:0:0:0:
183,357,88021,1,8,0:0:0:0:
304,259,88243,1,0,0:0:0:0:
152,218,88466,2,0,L|136:155,4,40,0|0|0|0|8,1:0|0:0|0:0|0:0|0:0,0:0:0:0:
506,286,88910,6,0,P|461:221|390:186,1,160,4|0,1:0|0:0,0:0:0:0:
318,243,89355,5,0,0:0:0:0:
318,243,89577,1,0,0:0:0:0:
201,0,89799,6,0,P|243:19|271:65,1,80,8|0,0:0|0:0,0:0:0:0:
423,37,90021,2,0,P|421:138|371:202,1,160,0|0,0:0|0:0,0:0:0:0:
222,349,90466,6,0,L|163:361,4,40,8|0|0|0|0,0:0|0:0|0:0|0:0|0:0,0:0:0:0:
312,329,90910,1,8,0:0:0:0:
38,136,91132,6,0,P|139:86|212:106,1,160,0|0,1:0|0:0,0:0:0:0:
298,0,91577,6,0,P|328:56|316:128,1,120,8|0,0:0|0:0,0:0:0:0:
323,110,91799,2,0,P|274:138|238:185,1,80,0|0,1:0|0:0,0:0:0:0:
62,347,92021,5,0,1:0:0:0:
41,237,92132,1,0,1:0:0:0:
20,127,92243,1,0,1:0:0:0:
457,381,92466,6,0,P|353:353|190:352,1,240,4|0,1:0|0:0,0:0:0:0:
62,347,92910,2,0,B|27:294|62:234|62:234|134:254|145:311,1,240,0|0,0:0|0:0,0:0:0:0:
323,110,93355,5,8,0:0:0:0:
292,217,93577,1,0,0:0:0:0:
401,191,93799,1,0,0:0:0:0:
97,27,94021,6,0,L|108:78,4,40,8|0|0|0|0,0:0|0:0|0:0|0:0|0:0,0:0:0:0:
8,0,94466,1,8,0:0:0:0:
292,217,94688,5,0,1:0:0:0:
32,125,94910,1,0,0:0:0:0:
323,110,95132,5,8,0:0:0:0:
186,155,95243,1,0,0:0:0:0:
49,201,95355,1,0,0:0:0:0:
334,96,95577,5,0,1:0:0:0:
177,127,95688,1,0,0:0:0:0:
20,159,95800,1,8,0:0:0:0:
457,381,96021,6,0,P|463:301|403:231,2,160,4|0|0,1:0|0:0|0:0,0:0:0:0:
215,209,96688,6,0,P|257:203|319:249,1,80
512,89,96910,5,8,0:0:0:0:
417,239,97132,1,0,0:0:0:0:
246,290,97355,1,0,0:0:0:0:
416,23,97577,6,0,L|429:81,4,40,8|0|0|0|0,0:0|0:0|0:0|0:0|0:0,0:0:0:0:
512,89,98021,1,8,0:0:0:0:
457,381,98243,5,0,1:0:0:0:
234,307,98466,1,0,0:0:0:0:
149,38,98688,6,0,P|200:79|218:157,1,120,8|0,0:0|0:0,0:0:0:0:
237,135,98910,2,0,P|229:189|185:229,1,80,0|0,1:0|0:0,0:0:0:0:
17,381,99132,5,0,1:0:0:0:
48,240,99243,1,0,1:0:0:0:
79,99,99355,1,0,1:0:0:0:
403,54,99577,5,4,1:0:0:0:
312,37,99799,1,0,0:0:0:0:
343,339,100021,6,0,P|284:263|313:144,1,160,0|0,0:0|0:0,0:0:0:0:
403,54,100465,5,8,0:0:0:0:
312,37,100687,1,0,0:0:0:0:
184,183,100910,6,0,P|209:135|259:105,1,80,0|0,0:0|0:0,0:0:0:0:
403,54,101132,2,0,L|410:112,4,40,8|0|0|0|0,0:0|0:0|0:0|0:0|0:0,0:0:0:0:
312,37,101577,5,8,0:0:0:0:
343,339,101799,6,0,P|284:263|313:144,1,160,0|0,1:0|0:0,0:0:0:0:
403,54,102243,5,8,0:0:0:0:
312,37,102465,1,0,0:0:0:0:
184,183,102688,6,0,P|209:135|259:105,1,80,0|0,1:0|0:0,0:0:0:0:
403,54,102910,5,8,0:0:0:0:
9,83,103132,6,0,P|205:91|338:16,1,320,4|0,1:0|0:0,0:0:0:0:
500,275,103799,5,0,0:0:0:0:
392,239,103910,1,0,0:0:0:0:
283,203,104021,1,8,0:0:0:0:
291,224,104243,5,0,0:0:0:0:
170,281,104354,1,0,0:0:0:0:
46,336,104465,1,0,0:0:0:0:
9,83,104688,6,0,L|-3:137,4,40,8|0|0|0|0,0:0|0:0|0:0|0:0|0:0,0:0:0:0:
47,195,105132,1,8,0:0:0:0:
313,38,105354,6,0,L|183:16,2,106.666666666667,0|0|0,1:0|0:0|0:0,0:0:0:0:
170,281,105799,2,0,L|276:264,2,106.666666666667,8|0|0,0:0|0:0|0:0,0:0:0:0:
120,40,106243,6,0,L|102:127,1,80,0|0,1:0|1:0,0:0:0:0:
114,132,106465,5,0,1:0:0:0:
488,8,106688,5,4,1:0:0:0:
512,98,106910,1,0,0:0:0:0:
291,224,107132,6,0,P|402:202|445:153,1,160,0|0,0:0|0:0,0:0:0:0:
488,8,107576,5,8,0:0:0:0:
512,98,107798,1,0,0:0:0:0:
199,82,108021,6,0,P|244:130|293:145,1,80,0|0,0:0|0:0,0:0:0:0:
488,8,108243,2,0,L|435:25,4,40,8|0|0|0|0,0:0|0:0|0:0|0:0|0:0,0:0:0:0:
512,98,108688,5,8,0:0:0:0:
291,224,108910,6,0,P|402:202|445:153,1,160,0|0,1:0|0:0,0:0:0:0:
488,8,109354,5,8,0:0:0:0:
512,98,109576,1,0,0:0:0:0:
199,82,109799,6,0,P|244:130|293:145,1,80,0|0,1:0|0:0,0:0:0:0:
488,8,110021,5,8,0:0:0:0:
56,93,110243,6,0,B|40:50|40:50|131:-8|260:55|259:162,1,320,4|0,1:0|0:0,0:0:0:0:
205,206,110910,1,0,0:0:0:0:
340,295,111021,6,0,P|292:295|260:277,2,80,0|8|0,0:0|0:0|0:0,0:0:0:0:
411,343,111354,2,0,P|486:287|516:195,1,160,0|0,0:0|0:0,0:0:0:0:
361,54,111799,6,0,L|348:121,4,40,8|0|0|0|0,0:0|0:0|0:0|0:0|0:0,0:0:0:0:
450,21,112243,1,8,0:0:0:0:
117,241,112465,5,0,1:0:0:0:
265,281,112688,1,0,0:0:0:0:
336,31,112910,5,8,0:0:0:0:
56,93,113132,1,0,1:0:0:0:
333,348,113354,5,0,1:0:0:0:
356,255,113465,1,0,1:0:0:0:
379,162,113576,6,0,L|280:135,1,80,0|0,1:0|0:0,0:0:0:0:
27,212,113799,5,4,1:0:0:0:
45,302,114021,1,0,0:0:0:0:
309,335,114243,6,0,P|231:382|154:383,1,160,0|0,0:0|0:0,0:0:0:0:
27,212,114688,5,8,0:0:0:0:
45,302,114910,1,0,0:0:0:0:
356,255,115132,6,0,P|305:243|267:208,1,80,0|0,0:0|0:0,0:0:0:0:
27,212,115354,2,0,P|61:195|73:182,4,40,8|0|0|0|0,0:0|0:0|0:0|0:0|0:0,0:0:0:0:
45,302,115799,5,8,0:0:0:0:
309,335,116021,6,0,P|231:382|154:383,1,160,0|0,1:0|0:0,0:0:0:0:
27,212,116466,5,8,0:0:0:0:
45,302,116688,1,0,0:0:0:0:
356,255,116910,6,0,P|305:243|267:208,1,80,0|0,1:0|0:0,0:0:0:0:
27,212,117132,5,8,0:0:0:0:
420,108,117354,6,0,B|472:188|408:277|408:277|363:281|340:228,1,240,4|0,1:0|0:0,0:0:0:0:
185,59,117799,6,0,P|282:59|366:4,1,160,0|0,0:0|0:0,0:0:0:0:
106,122,118132,1,0,0:0:0:0:
0,53,118243,6,0,P|70:21|138:39,2,106.666666666667,8|0|0,0:0|0:0|0:0,0:0:0:0:
273,238,118688,6,0,L|256:140,1,80,0|0,0:0|0:0,0:0:0:0:
471,226,118910,2,0,L|486:167,4,40,8|0|0|0|0,0:0|0:0|0:0|0:0|0:0,0:0:0:0:
446,314,119354,1,8,0:0:0:0:
106,122,119576,5,0,1:0:0:0:
214,128,119687,1,0,0:0:0:0:
310,80,119799,2,0,P|346:11|398:-35,1,80,0|0,0:0|0:0,0:0:0:0:
401,135,120021,6,0,P|449:87|523:54,1,120,8|0,0:0|0:0,0:0:0:0:
495,63,120243,2,0,P|516:124|533:153,1,80,0|0,1:0|0:0,0:0:0:0:
250,364,120465,5,0,1:0:0:0:
232,246,120576,1,0,1:0:0:0:
214,128,120688,2,0,L|125:153,1,80,0|0,1:0|0:0,0:0:0:0:
0,364,120910,5,4,1:0:0:0:
90,341,121132,1,0,0:0:0:0:
98,0,121354,6,0,P|138:102|127:193,1,160,0|0,0:0|0:0,0:0:0:0:
0,364,121799,5,8,0:0:0:0:
90,341,122021,1,0,0:0:0:0:
240,144,122243,6,0,P|224:198|180:235,1,80,0|0,0:0|0:0,0:0:0:0:
0,364,122465,2,0,L|-12:326,2,40,8|0|0,0:0|0:0|0:0,0:0:0:0:
91,342,122688,6,0,P|55:271|49:191,1,160,4|8,1:0|0:0,0:0:0:0:
98,0,123132,6,0,P|138:102|127:193,1,160,4|0,1:0|0:0,0:0:0:0:
0,364,123576,5,8,0:0:0:0:
90,341,123798,1,0,0:0:0:0:
240,144,124021,6,0,P|233:180|214:210,2,53.3333333333333,0|0|0,1:0|1:0|1:0,0:0:0:0:
295,255,124243,2,0,P|319:244|339:226,2,53.3333333333333,8|0|0,1:2|1:0|1:0,0:0:0:0:
489,279,124465,5,4,1:0:0:0:
512,369,124688,1,0,0:0:0:0:
191,374,124910,6,0,P|291:370|355:331,1,160,0|0,0:0|0:0,0:0:0:0:
489,279,125354,5,8,0:0:0:0:
512,369,125577,1,0,0:0:0:0:
227,217,125799,6,0,P|268:248|333:253,1,80,0|0,0:0|0:0,0:0:0:0:
489,279,126021,2,0,P|453:292|435:303,4,40,8|0|0|0|0,0:0|0:0|0:0|0:0|0:0,0:0:0:0:
512,369,126465,5,8,0:0:0:0:
191,374,126688,6,0,P|291:370|355:331,1,160,0|0,1:0|0:0,0:0:0:0:
489,279,127132,5,8,0:0:0:0:
512,369,127355,1,0,1:0:0:0:
199,82,127576,5,0,1:0:0:0:
324,120,127688,1,0,1:0:0:0:
449,158,127799,1,0,1:0:0:0:
191,374,128021,5,4,1:0:0:0:
191,374,128243,1,0,0:0:0:0:
191,374,128466,1,0,0:0:0:0:
191,374,128688,1,0,0:0:0:0:
6,258,128910,5,8,0:0:0:0:
27,348,129132,1,0,0:0:0:0:
95,285,129355,1,0,0:0:0:0:
191,374,129577,6,0,L|182:327,3,40,8|0|0|0,0:0|0:0|0:0|0:0,0:0:0:0:
183,334,129799,6,0,P|253:279|347:303,1,160,0|8,0:0|0:0,0:0:0:0:
272,126,130243,2,0,P|354:159|380:252,1,160,0|0,1:0|0:0,0:0:0:0:
496,99,130688,2,0,P|508:187|440:256,1,160,8|0,0:0|0:0,0:0:0:0:
312,372,131132,6,0,P|314:328|354:285,1,80,0|0,1:0|0:0,0:0:0:0:
319,284,131355,1,8,0:0:0:0:
406,64,131577,5,4,1:0:0:0:
406,64,131799,1,0,0:0:0:0:
406,64,132021,1,0,0:0:0:0:
406,64,132243,1,0,0:0:0:0:
183,153,132466,5,8,0:0:0:0:
204,63,132688,1,0,0:0:0:0:
272,126,132911,1,0,0:0:0:0:
366,71,133132,6,0,L|413:62,3,40,8|0|0|0,0:0|0:0|0:0|0:0,0:0:0:0:
272,126,133355,6,0,P|222:202|235:283,1,160,0|8,0:0|0:0,0:0:0:0:
204,63,133799,2,0,P|116:89|74:159,1,160,0|0,1:0|0:0,0:0:0:0:
242,252,134243,6,0,P|303:253|363:301,1,120,8|0,0:0|0:0,0:0:0:0:
369,283,134466,2,0,P|395:338|380:414,1,80,0|0,1:0|0:0,0:0:0:0:
63,384,134688,5,0,1:0:0:0:
86,258,134799,1,0,1:0:0:0:
109,132,134910,1,0,1:0:0:0:
469,241,135132,5,4,1:0:0:0:
469,241,135355,1,0,0:0:0:0:
469,241,135577,1,0,0:0:0:0:
469,241,135799,1,0,0:0:0:0:
366,71,136021,5,8,0:0:0:0:
387,161,136243,1,0,0:0:0:0:
455,98,136466,1,0,0:0:0:0:
369,283,136688,6,0,L|322:274,3,40,8|0|0|0,0:0|0:0|0:0|0:0,0:0:0:0:
273,342,136910,6,0,P|290:246|239:182,1,160,4|8,1:0|0:0,0:0:0:0:
177,355,137355,2,0,P|142:284|163:209,1,160,4|0,1:0|0:0,0:0:0:0:
86,43,137799,5,8,0:0:0:0:
109,132,138021,1,0,0:0:0:0:
318,6,138243,6,0,P|354:22|380:60,2,53.3333333333333,0|0|0,1:0|1:0|1:0,0:0:0:0:
264,105,138466,2,0,P|258:78|245:56,2,53.3333333333333,8|0|0,1:2|1:0|1:0,0:0:0:0:
20,107,138688,5,4,1:0:0:0:
20,107,138910,1,0,0:0:0:0:
20,107,139132,1,0,0:0:0:0:
20,107,139355,1,0,0:0:0:0:
163,209,139577,5,8,0:0:0:0:
156,290,139799,1,0,0:0:0:0:
86,245,140022,1,0,0:0:0:0:
273,342,140243,6,0,L|265:389,3,40,8|0|0|0,0:0|0:0|0:0|0:0,0:0:0:0:
262,322,140466,6,0,P|350:316|401:379,1,160,0|8,0:0|0:0,0:0:0:0:
476,205,140910,2,0,B|501:232|501:232|438:270|338:226|335:134,1,240,0|0,1:0|0:0,0:0:0:0:
318,6,141355,6,0,P|261:8|205:57,1,120,8|0,0:0|0:0,0:0:0:0:
194,44,141577,2,0,P|162:91|179:165,1,80,0|0,1:0|0:0,0:0:0:0:
84,378,141799,5,0,1:0:0:0:
56,216,141910,1,0,1:0:0:0:
29,55,142021,1,0,1:0:0:0:
254,194,142243,5,0,0:0:0:0:
