osu file format v14

[General]
AudioFilename: audio.mp3
AudioLeadIn: 0
PreviewTime: -1
Countdown: 0
SampleSet: Soft
StackLeniency: 0.7
Mode: 0
LetterboxInBreaks: 0
WidescreenStoryboard: 0

[Editor]
Bookmarks: 38184,69168,87758
DistanceSpacing: 1.3
BeatDivisor: 4
GridSize: 4
TimelineZoom: 2

[Metadata]
Title:SpongeBob Fun Song Trap Remix
TitleUnicode:SpongeBob Fun Song Trap Remix
Artist:TrapMusicHDTV
ArtistUnicode:TrapMusicHDTV
Creator:banter
Version:epitome of fun
Source:
Tags:
BeatmapID:1625906
BeatmapSetID:773476

[Difficulty]
HPDrainRate:5
CircleSize:4.2
OverallDifficulty:8
ApproachRate:9
SliderMultiplier:1.4
SliderTickRate:1

[Events]
//Background and Video events
0,0,"sponge.jpg",0,0
Video,0,"SpongeBob Fun Song Trap Remix (youtubemp4.to).mp4"
//Break Periods
//Storyboard Layer 0 (Background)
//Storyboard Layer 1 (Fail)
//Storyboard Layer 2 (Pass)
//Storyboard Layer 3 (Foreground)
//Storyboard Sound Samples

[TimingPoints]
16496,387.296774193548,4,2,0,60,1,0
23854,-50,4,2,0,60,0,0
24241,-100,4,2,0,60,0,0
25791,-83.3333333333333,4,2,0,60,0,0
27340,-83.3333333333333,4,2,0,60,0,1
28114,-83.3333333333333,4,2,0,60,0,0
28889,-95.2380952380952,4,2,0,60,0,0
31987,-71.4285714285714,4,2,0,60,0,1
32181,-76.9230769230769,4,2,0,60,0,1
32568,-76.9230769230769,4,2,0,60,0,0
32762,-76.9230769230769,4,2,0,60,0,0
36635,-100,4,2,0,60,0,0
37797,-125,4,2,0,60,0,0
38184,-76.9230769230769,4,2,0,60,0,0
39733,-57.1428571428571,4,2,0,60,0,0
41282,-62.5,4,2,0,60,0,1
41476,-71.4285714285714,4,2,0,60,0,0
41476,-66.6666666666667,4,2,0,60,0,0
42057,-71.4285714285714,4,2,0,60,0,1
42251,-62.5,4,2,0,60,0,0
42444,-76.9230769230769,4,2,0,60,0,0
42832,-66.6666666666667,4,2,0,60,0,1
43025,-62.5,4,2,0,60,0,0
43219,-66.6666666666667,4,2,0,60,0,1
43413,-62.5,4,2,0,60,0,0
43606,-66.6666666666667,4,2,0,60,0,1
43800,-62.5,4,2,0,60,0,0
43994,-66.6666666666667,4,2,0,60,0,1
44187,-62.5,4,2,0,60,0,0
44381,-100,4,2,0,45,0,0
45930,-117.647058823529,4,2,0,45,0,0
53676,-117.647058823529,4,2,0,60,0,0
55225,-117.647058823529,4,2,0,60,0,0
56774,-68.9655172413793,4,2,0,60,0,1
57065,-64.5161290322579,4,2,0,60,0,0
57162,-68.9655172413793,4,2,0,60,0,0
62584,-117.647058823529,4,2,0,60,0,0
63746,-68.9655172413792,4,2,0,60,0,0
65295,-80,4,2,0,60,0,0
67619,-55.5555555555556,4,2,0,60,0,1
67812,-80,4,2,0,60,0,0
68006,-55.5555555555556,4,2,0,60,0,1
68200,-80,4,2,0,60,0,0
68393,-55.5555555555556,4,2,0,60,0,1
68587,-80,4,2,0,60,0,0
68781,-55.5555555555556,4,2,0,60,0,1
68974,-80,4,2,0,60,0,0
69168,-66.6666666666667,4,2,0,60,0,1
69362,-66.6666666666667,4,2,0,60,0,0
69942,-86.9565217391304,4,2,0,60,0,0
74929,-50,4,2,0,60,0,0
74953,-50,4,1,0,5,0,0
75365,-86.9565217391304,4,2,0,60,0,0
78463,-86.9565217391304,4,2,0,60,0,1
79238,-86.9565217391304,4,2,0,60,0,0
80012,-90.9090909090909,4,2,0,60,0,0
81561,-62.5,4,2,0,60,0,1
81949,-90.9090909090909,4,2,0,60,0,1
82336,-71.4285714285714,4,2,0,60,0,1
86209,-90.9090909090909,4,2,0,60,0,1
86596,-90.9090909090909,4,2,0,60,0,0
87371,-111.111111111111,4,2,0,60,0,0
87758,-83.3333333333333,4,2,0,60,0,1
89307,-60.6060606060606,4,2,0,60,0,1
90856,-111.111111111111,4,2,0,40,0,0
92406,-133.333333333333,4,2,0,40,0,0
93955,-80,4,2,0,50,0,0

[Colours]
Combo1 : 240,223,11
Combo2 : 51,109,232
Combo3 : 40,61,113
Combo4 : 231,211,105

[HitObjects]
199,116,16496,6,0,L|183:37,1,70
365,196,16883,2,0,L|390:120,1,70
122,167,17270,1,0,0:0:0:0:
358,104,17464,1,0,0:0:0:0:
116,76,17657,2,0,L|22:70,1,70
284,129,18045,6,0,L|353:124,1,70,4|0,0:0|0:0,0:0:0:0:
441,143,18432,1,0,0:0:0:0:
373,289,18626,1,0,0:0:0:0:
204,208,18819,2,0,P|191:170|192:126,1,70,8|0,0:0|0:0,0:0:0:0:
352,16,19207,2,0,P|352:50|345:85,1,70
276,150,19594,5,0,0:0:0:0:
441,122,19788,1,0,0:0:0:0:
311,14,19981,2,0,P|266:15|231:30,1,70
333,269,20368,2,0,B|358:227|358:227|358:118,1,140,8|0,0:0|0:0,0:0:0:0:
176,103,21143,5,0,0:0:0:0:
217,186,21337,2,0,P|183:193|148:190,1,70
85,122,21724,1,0,0:0:0:0:
148,15,21918,2,0,P|182:11|216:19,1,70,8|0,0:0|0:0,0:0:0:0:
268,96,22305,2,0,P|302:99|336:91,1,70
435,26,22692,6,0,B|456:70|456:70|446:178,1,140
438,249,23322,1,0,0:0:0:0:
346,137,23467,1,8,0:0:0:0:
438,272,23709,1,0,0:0:0:0:
497,174,23854,2,0,L|504:155,1,17.5
490,189,24241,5,0,0:0:0:0:
387,296,24435,1,0,0:0:0:0:
277,162,24629,2,0,L|206:168,1,70
265,283,25016,1,8,0:0:0:0:
389,111,25210,2,0,L|458:117,1,70
376,233,25597,1,0,0:0:0:0:
290,40,25791,5,0,0:0:0:0:
500,62,25984,1,0,0:0:0:0:
373,256,26178,2,0,B|350:269|320:266|320:266|304:256|287:255|287:255|269:260|250:258,1,125.999996154785
130,170,26565,2,0,B|161:171|183:160|183:160|205:162|221:172|221:172|238:170|251:172,1,125.999996154785,8|0,0:0|0:0,0:0:0:0:
149,283,26953,2,0,B|96:293|96:293|17:281,1,125.999996154785
124,122,27340,5,0,0:0:0:0:
250,258,27533,1,0,0:0:0:0:
225,75,27727,1,0,0:0:0:0:
258,276,27921,1,0,0:0:0:0:
334,93,28114,1,8,0:0:0:0:
266,294,28308,1,0,0:0:0:0:
131,142,28502,1,0,0:0:0:0:
340,77,28695,1,0,0:0:0:0:
192,228,28889,6,0,P|142:243|81:236,1,110.249996635437
319,229,29276,2,0,P|358:267|380:317,1,110.249996635437
256,118,29664,2,0,P|269:65|302:21,1,110.249996635437,8|0,0:0|0:0,0:0:0:0:
142,125,30051,1,0,0:0:0:0:
120,336,31987,6,0,L|133:235,1,97.9999970092774
149,109,32375,1,0,0:0:0:0:
331,248,32568,1,0,0:0:0:0:
130,227,32762,2,0,P|76:209|42:182,1,90.9999958343508
348,47,33149,2,0,P|294:64|260:91,1,90.9999958343508
219,215,33537,5,0,0:0:0:0:
341,23,33730,2,0,L|431:14,1,90.9999958343508
453,133,34118,1,0,0:0:0:0:
258,107,34311,2,0,L|167:98,1,90.9999958343508
21,201,34698,2,0,L|111:192,1,90.9999958343508
281,162,35086,5,0,0:0:0:0:
73,103,35279,2,0,P|65:43|77:6,1,90.9999958343508
177,59,35667,1,0,0:0:0:0:
118,207,35860,2,0,P|57:215|21:203,1,90.9999958343508
73,103,36248,1,0,0:0:0:0:
222,163,36635,6,0,B|277:176|277:176|360:154,1,140
453,121,37264,1,0,0:0:0:0:
335,251,37410,2,0,B|281:266|281:266|222:254,1,105
137,222,37797,2,0,P|103:232|128:256,1,84
446,272,38184,6,0,P|449:227|433:185,1,90.9999958343508
286,0,38571,2,0,P|270:42|273:88,1,90.9999958343508
512,149,38959,2,0,P|484:112|445:90,1,90.9999958343508
312,202,39346,1,0,0:0:0:0:
512,163,39540,1,0,0:0:0:0:
122,90,39733,6,0,L|0:80,1,122.500001168251
167,188,40121,1,0,0:0:0:0:
109,5,40314,1,0,0:0:0:0:
390,90,40508,2,0,L|512:80,1,122.500001168251
345,188,40895,1,0,0:0:0:0:
403,5,41089,1,0,0:0:0:0:
203,309,41282,5,0,0:0:0:0:
167,188,41476,2,0,P|227:182|282:207,1,105.000004005432
309,309,41863,1,0,0:0:0:0:
345,188,42057,2,0,P|285:182|230:207,1,97.9999970092774
81,280,42444,2,0,P|48:225|57:151,1,136.499993751526
185,0,42832,6,0,L|205:122,1,105.000004005432
327,384,43219,2,0,L|307:262,1,105.000004005432
54,157,43606,2,0,L|169:201,1,105.000004005432
457,226,43993,2,0,L|342:182,1,105.000004005432
209,90,44381,6,0,L|139:92,2,70,4|0|0,0:0|0:0|0:0,0:0:0:0:
292,84,44962,1,0,0:0:0:0:
337,153,45155,2,0,L|406:150,1,70,8|0,2:0|0:0,0:0:0:0:
489,144,45543,1,0,0:0:0:0:
362,231,45930,6,0,P|285:216|255:163,1,119.000002269745
337,153,46511,1,0,0:0:0:0:
424,287,46705,2,0,P|395:308|354:316,1,59.5000011348725,8|0,2:0|0:0,0:0:0:0:
442,206,47092,1,0,0:0:0:0:
262,98,47479,6,0,B|300:75|300:75|393:81,1,119.000002269745
452,89,48060,1,0,0:0:0:0:
382,161,48254,2,0,B|323:158,1,59.5000011348725,8|0,2:0|0:0,0:0:0:0:
420,16,48641,1,0,0:0:0:0:
443,220,49028,6,0,B|428:236|405:243|405:243|373:232|330:236,1,119.000002269745
251,241,49658,1,0,0:0:0:0:
382,161,49803,1,8,0:0:0:0:
228,239,50045,1,0,0:0:0:0:
294,318,50190,1,0,0:0:0:0:
205,237,50432,1,0,0:0:0:0:
104,372,50578,6,0,P|46:376|0:341,1,119.000002269745
68,298,51159,1,0,0:0:0:0:
114,233,51352,2,0,P|135:253|147:280,1,59.5000011348725,8|0,0:0|0:0,0:0:0:0:
33,220,51740,1,0,0:0:0:0:
148,306,52127,6,0,B|177:320|210:311|205:302|237:299|264:307,1,119.000002269745
235,384,52708,1,0,0:0:0:0:
181,231,52901,2,0,P|214:225|245:226,1,59.5000011348725,8|0,0:0|0:0,0:0:0:0:
345,281,53289,1,0,0:0:0:0:
271,163,53676,5,0,0:0:0:0:
377,220,53918,2,0,P|404:184|354:196,1,119.000002269745
276,283,54451,1,8,0:0:0:0:
341,162,54838,1,0,0:0:0:0:
382,339,55032,1,0,0:0:0:0:
308,223,55225,6,0,P|255:211|212:209,1,89.2500017023087
411,298,55612,2,0,P|358:309|315:311,1,89.2500017023087
512,220,56000,2,0,P|460:206|417:202,1,89.2500017023087,8|0,0:0|0:0,0:0:0:0:
512,384,56387,1,0,0:0:0:0:
142,264,56774,5,4,0:0:0:0:
279,214,56968,1,0,0:0:0:0:
85,216,57161,5,0,0:0:0:0:
266,288,57355,1,0,0:0:0:0:
30,274,57549,2,0,B|11:228|11:228|24:123,1,152.250004646301,8|0,0:0|0:0,0:0:0:0:
155,21,57936,2,0,B|174:67|174:67|167:118,1,101.500003097534
128,337,58324,5,0,0:0:0:0:
98,142,58517,1,0,0:0:0:0:
135,364,58711,5,0,0:0:0:0:
219,103,58905,1,0,0:0:0:0:
150,247,59098,2,0,B|131:261|104:266|104:266|70:246|70:246|38:241|-1:253,1,152.250004646301,8|0,0:0|0:0,0:0:0:0:
81,348,59485,2,0,B|112:353|143:343|143:343|177:363|177:363|198:347|223:344,1,152.250004646301
378,268,59873,5,0,0:0:0:0:
175,165,60066,1,0,0:0:0:0:
458,293,60260,5,0,0:0:0:0:
81,348,60454,1,0,0:0:0:0:
411,188,60647,2,0,L|537:198,1,101.500003097534,8|0,0:0|0:0,0:0:0:0:
101,188,61035,2,0,L|-25:178,1,101.500003097534
322,95,61422,6,0,L|423:86,1,101.500003097534
240,208,61809,1,0,0:0:0:0:
190,95,62051,1,0,0:0:0:0:
128,190,62197,1,8,0:0:0:0:
189,68,62439,1,0,0:0:0:0:
285,276,62584,2,0,P|329:285|373:276,1,89.2500017023087
255,29,62971,5,0,0:0:0:0:
325,201,63165,1,0,0:0:0:0:
251,0,63358,1,0,0:0:0:0:
173,267,63552,1,0,0:0:0:0:
408,86,63746,2,0,P|458:91|503:114,1,101.500003097534,8|0,0:0|0:0,0:0:0:0:
392,352,64133,2,0,P|346:374|296:380,1,101.500003097534
89,130,64520,5,0,0:0:0:0:
400,221,64714,1,0,0:0:0:0:
20,84,64908,5,0,0:0:0:0:
225,379,65101,1,0,0:0:0:0:
200,87,65295,2,0,L|189:-16,1,87.5,8|0,0:0|0:0,0:0:0:0:
320,0,65585,1,0,0:0:0:0:
256,168,65876,1,0,0:0:0:0:
90,38,66069,5,0,0:0:0:0:
221,73,66263,1,0,0:0:0:0:
13,7,66457,1,0,0:0:0:0:
111,152,66650,1,0,0:0:0:0:
173,0,66844,1,8,2:0:0:0:
100,173,67038,1,0,0:0:0:0:
261,199,67231,1,0,0:0:0:0:
232,94,67425,1,0,0:0:0:0:
157,292,67619,6,0,B|121:345|121:345|66:374,1,125.999996154785
355,292,68006,2,0,B|391:345|391:345|445:374,1,125.999996154785
355,92,68393,1,0,0:0:0:0:
256,368,68587,1,0,0:0:0:0:
157,92,68781,2,0,L|17:72,1,125.999996154785
387,192,69168,6,0,L|504:175,1,105.000004005432,4|0,0:0|0:0,0:0:0:0:
428,107,69555,1,0,0:0:0:0:
302,151,69749,1,0,0:0:0:0:
306,273,69942,2,0,L|392:285,1,80.5000015354157
224,378,70330,2,0,L|311:366,1,80.5000015354157
174,254,70717,5,0,0:0:0:0:
317,251,70911,1,0,0:0:0:0:
118,175,71104,2,0,P|92:205|78:243,1,80.5000015354157
227,160,71492,2,0,P|187:91|113:62,1,161.000003070831
7,135,72266,5,0,0:0:0:0:
78,243,72460,2,0,L|165:232,1,80.5000015354157
117,147,72847,1,0,0:0:0:0:
227,160,73041,2,0,L|314:171,1,80.5000015354157
376,243,73428,2,0,L|463:232,1,80.5000015354157
511,103,73815,6,0,B|415:83|415:83|353:90,1,161.000003070831
254,111,74396,1,0,0:0:0:0:
378,181,74541,1,0,0:0:0:0:
231,114,74783,1,0,0:0:0:0:
348,21,74928,2,0,L|356:15,1,10.062500191927
332,31,75365,5,0,0:0:0:0:
208,117,75558,1,0,0:0:0:0:
97,16,75752,2,0,P|57:11|18:22,1,80.5000015354157
185,120,76139,1,0,0:0:0:0:
273,16,76333,2,0,P|312:11|351:22,1,80.5000015354157
319,144,76720,1,0,0:0:0:0:
60,172,76914,5,0,0:0:0:0:
255,1,77107,1,0,0:0:0:0:
306,256,77301,2,0,B|276:271|240:260|240:260|212:266|212:266|188:259,1,120.750002303124
106,173,77688,2,0,B|103:195|103:195|112:223|112:223|98:259|111:291,1,120.750002303124
169,93,78076,2,0,P|86:75|42:90,1,120.750002303124
19,283,78463,5,0,0:0:0:0:
145,147,78656,1,0,0:0:0:0:
120,330,78850,1,0,0:0:0:0:
153,129,79044,1,0,0:0:0:0:
229,312,79237,1,0,0:0:0:0:
161,111,79431,1,0,0:0:0:0:
26,263,79625,1,0,0:0:0:0:
235,328,79818,1,0,0:0:0:0:
94,187,80012,6,0,B|35:199|35:199|1:243,1,115.50000352478
212,237,80399,2,0,B|231:179|231:179|209:128,1,115.50000352478
109,314,80787,2,0,B|148:359|148:359|203:366,1,115.50000352478
320,308,81174,1,0,0:0:0:0:
105,173,81561,6,0,P|98:124|125:49,1,112,4|0,0:0|0:0,0:0:0:0:
209,128,81949,1,0,0:0:0:0:
196,241,82142,1,0,0:0:0:0:
15,106,82336,2,0,P|53:75|132:61,1,97.9999970092774,8|0,0:0|0:0,0:0:0:0:
216,146,82723,2,0,P|264:148|311:133,1,97.9999970092774
391,42,83111,5,0,0:0:0:0:
271,11,83304,2,0,P|272:59|291:104,1,97.9999970092774
391,151,83691,1,0,0:0:0:0:
511,11,83885,2,0,P|509:59|490:104,1,97.9999970092774,8|0,0:0|0:0,0:0:0:0:
194,89,84272,2,0,P|227:125|271:147,1,97.9999970092774
510,147,84660,5,0,0:0:0:0:
388,40,84853,2,0,L|289:50,1,97.9999970092774
144,65,85241,1,0,0:0:0:0:
227,153,85434,2,0,L|325:142,1,97.9999970092774,8|0,0:0|0:0,0:0:0:0:
470,127,85822,1,0,0:0:0:0:
295,256,86209,6,0,P|218:264|138:239,1,154.000004699707
126,262,86838,1,0,0:0:0:0:
217,370,86984,2,0,P|291:373|346:352,1,115.50000352478,8|0,0:0|0:0,0:0:0:0:
409,328,87371,2,0,B|456:344|456:344|415:363,1,94.499997116089
221,184,87758,6,0,P|231:144|255:110,1,83.9999974365235
407,9,88145,2,0,P|419:49|414:91,1,83.9999974365235
186,43,88533,2,0,P|221:21|262:14,1,83.9999974365235,8|0,0:0|0:0,0:0:0:0:
477,163,88920,1,0,0:0:0:0:
357,106,89114,1,0,0:0:0:0:
300,227,89307,6,0,B|353:246|353:246|410:233,1,115.500001101494
34,163,89695,1,0,0:0:0:0:
140,0,89889,1,0,0:0:0:0:
212,227,90082,2,0,B|158:246|158:246|101:233,1,115.500001101494,8|0,0:0|0:0,0:0:0:0:
477,163,90469,1,0,0:0:0:0:
372,0,90663,1,0,0:0:0:0:
343,134,90856,5,0,0:0:0:0:
256,160,91050,2,0,P|240:187|236:218,1,62.9999980773926
149,75,91437,1,0,0:0:0:0:
235,101,91631,2,0,P|251:128|255:159,1,62.9999980773926
124,233,92018,2,0,P|136:188|171:156,1,94.499997116089
240,305,92406,6,0,L|210:232,1,78.7500030040742
150,339,92793,2,0,L|179:266,1,78.7500030040742
240,372,93180,2,0,L|210:299,1,78.7500030040742
160,384,93568,1,0,0:0:0:0:
