osu file format v14

[General]
AudioFilename: audio.mp3
AudioLeadIn: 0
PreviewTime: -1
Countdown: 0
SampleSet: Normal
StackLeniency: 0.7
Mode: 0
LetterboxInBreaks: 0
WidescreenStoryboard: 1

[Editor]
Bookmarks: 38184,69168,87758
DistanceSpacing: 1.2
BeatDivisor: 4
GridSize: 4
TimelineZoom: 2

[Metadata]
Title:SpongeBob Fun Song Trap Remix
TitleUnicode:SpongeBob Fun Song Trap Remix
Artist:TrapMusicHDTV
ArtistUnicode:TrapMusicHDTV
Creator:banter
Version:Hard
Source:
Tags:
BeatmapID:1630218
BeatmapSetID:773476

[Difficulty]
HPDrainRate:4
CircleSize:3.8
OverallDifficulty:4.5
ApproachRate:6
SliderMultiplier:1.2
SliderTickRate:1

[Events]
//Background and Video events
0,0,"sponge.jpg",0,0
Video,0,"SpongeBob Fun Song Trap Remix (youtubemp4.to).mp4"
//Break Periods
//Storyboard Layer 0 (Background)
//Storyboard Layer 1 (Fail)
//Storyboard Layer 2 (Pass)
//Storyboard Layer 3 (Foreground)
//Storyboard Sound Samples

[TimingPoints]
16496,387.296774193548,4,1,0,50,1,0
18819,-105.263157894737,4,1,0,50,0,0
23467,-111.111111111111,4,1,0,50,0,0
23854,-50,4,1,0,50,0,0
24241,-100,4,1,0,50,0,0
25791,-90.9090909090909,4,1,0,50,0,0
27340,-83.3333333333333,4,1,0,50,0,1
28114,-83.3333333333333,4,1,0,50,0,0
28889,-95.2380952380952,4,1,0,50,0,0
31987,-74.0740740740741,4,1,0,50,0,1
32181,-76.9230769230769,4,1,0,50,0,1
32568,-74.0740740740741,4,1,0,50,0,0
32762,-76.9230769230769,4,1,0,50,0,0
36635,-100,4,1,0,50,0,0
37797,-125,4,1,0,50,0,0
38184,-76.9230769230769,4,1,0,50,0,0
39733,-68.9655172413793,4,1,0,50,0,0
41282,-64.5161290322581,4,1,0,50,0,1
41476,-66.6666666666667,4,1,0,50,0,0
41476,-71.4285714285714,4,1,0,50,0,0
42057,-64.5161290322581,4,1,0,50,0,1
42251,-62.5,4,1,0,50,0,0
42444,-76.9230769230769,4,1,0,50,0,0
42832,-66.6666666666667,4,1,0,50,0,1
43025,-62.5,4,1,0,50,0,0
43219,-66.6666666666667,4,1,0,50,0,1
43413,-62.5,4,1,0,50,0,0
43606,-66.6666666666667,4,1,0,50,0,1
43800,-62.5,4,1,0,50,0,0
43994,-66.6666666666667,4,1,0,50,0,1
44187,-62.5,4,1,0,50,0,0
44381,-105.263157894737,4,1,0,50,0,0
45930,-111.111111111111,4,1,0,50,0,0
55225,-117.647058823529,4,1,0,50,0,0
56774,-68.9655172413793,4,1,0,50,0,1
57065,-64.5161290322579,4,1,0,50,0,0
57162,-68.9655172413793,4,1,0,50,0,0
62584,-117.647058823529,4,1,0,50,0,0
63746,-68.9655172413792,4,1,0,50,0,0
65295,-80,4,1,0,50,0,0
67619,-55.5555555555556,4,1,0,50,0,1
67812,-80,4,1,0,50,0,0
68006,-55.5555555555556,4,1,0,50,0,1
68200,-80,4,1,0,50,0,0
68393,-55.5555555555556,4,1,0,50,0,1
68587,-80,4,1,0,50,0,0
68781,-55.5555555555556,4,1,0,50,0,1
68974,-80,4,1,0,50,0,0
69168,-66.6666666666667,4,1,0,50,0,1
69362,-66.6666666666667,4,1,0,50,0,0
69942,-86.9565217391304,4,1,0,50,0,0
74929,-50,4,1,0,50,0,0
74953,-50,4,1,0,5,0,0
75365,-86.9565217391304,4,1,0,50,0,0
78463,-86.9565217391304,4,1,0,50,0,1
79238,-86.9565217391304,4,1,0,50,0,0
80012,-90.9090909090909,4,1,0,50,0,0
81561,-62.5,4,1,0,50,0,1
81949,-90.9090909090909,4,1,0,50,0,1
82336,-71.4285714285714,4,1,0,50,0,1
86209,-90.9090909090909,4,1,0,50,0,1
86596,-90.9090909090909,4,1,0,50,0,0
87371,-111.111111111111,4,1,0,50,0,0
87758,-83.3333333333333,4,1,0,50,0,1
89307,-60.6060606060606,4,1,0,50,0,1
90856,-111.111111111111,4,1,0,30,0,0
92406,-133.333333333333,4,1,0,30,0,0
93955,-80,4,1,0,50,0,0

[HitObjects]
96,311,16495,6,0,P|138:324|212:316,1,120
159,207,17270,2,0,L|245:220,2,60
104,98,18045,6,0,L|222:115,1,120
332,137,18626,1,0,0:0:0:0:
332,137,18819,2,0,P|321:196|274:232,1,113.999996955872
188,142,19594,2,0,L|245:150,1,56.9999984779358
203,95,19981,2,0,L|146:87,1,56.9999984779358
92,77,20368,2,0,L|76:189,1,113.999996955872
212,233,21143,6,0,P|211:185|205:170,2,56.9999984779358
185,303,21724,1,0,0:0:0:0:
125,258,21918,2,0,P|69:262|22:293,1,113.999996955872
105,371,22692,2,0,P|160:382|213:363,1,113.999996955872
240,253,23467,2,0,P|295:241|348:260,1,107.999996704102
442,192,24241,6,0,P|422:169|411:141,2,60
512,225,24822,1,0,0:0:0:0:
508,304,25016,2,0,P|439:343|380:334,1,120
344,288,25597,1,0,0:0:0:0:
292,230,25791,2,0,B|239:219|239:219|162:230,1,132.00000402832
90,359,26565,2,0,B|143:370|143:370|219:358,1,132.00000402832
359,322,27340,6,0,L|303:392,1,71.9999978027344
254,337,27727,2,0,L|298:280,1,71.9999978027344
237,238,28114,2,0,L|193:295,1,71.9999978027344
131,252,28502,2,0,L|176:196,1,71.9999978027344
228,137,28889,5,0,0:0:0:0:
193,294,29276,1,0,0:0:0:0:
74,185,29664,1,0,0:0:0:0:
255,225,30051,1,0,0:0:0:0:
25,90,31987,6,0,B|80:67|80:67|193:78,1,162.000000617981
278,89,32568,1,0,0:0:0:0:
219,166,32762,2,0,L|106:155,1,77.9999964294435
41,149,33149,1,0,0:0:0:0:
176,288,33537,6,0,B|255:286|255:286|286:262|327:264,1,155.999992858887
318,361,34118,1,0,0:0:0:0:
219,369,34311,2,0,B|142:371|142:371|100:352|92:314,1,155.999992858887
6,147,35086,6,0,L|96:158,1,77.9999964294435
172,184,35473,2,0,L|82:195,1,77.9999964294435
142,113,35860,1,0,0:0:0:0:
320,169,36248,1,0,0:0:0:0:
222,258,36635,6,0,L|103:272,1,120
153,346,37410,2,0,L|272:332,1,120
390,207,38184,6,0,P|352:215|321:239,1,77.9999964294435
391,300,38571,1,0,0:0:0:0:
482,280,38765,1,0,0:0:0:0:
504,189,38959,2,0,P|491:152|467:121,1,77.9999964294435
382,162,39346,2,0,P|312:171|274:159,1,77.9999964294435
270,72,39733,6,0,B|336:86|336:86|387:62|438:88,1,174.000005310059
493,251,40314,1,0,0:0:0:0:
493,251,40508,2,0,B|427:237|427:237|376:261|325:235,1,174.000005310059
116,118,41282,6,0,P|163:113|209:126,1,93.0000007095337
155,212,41670,1,0,0:0:0:0:
396,118,42057,2,0,P|348:113|302:126,1,93.0000007095337
357,212,42445,1,0,0:0:0:0:
194,306,42832,6,0,P|146:310|100:297,1,90.0000034332277
155,212,43219,2,0,P|150:164|163:118,1,90.0000034332277
249,173,43606,2,0,P|296:168|342:181,1,90.0000034332277
288,267,43994,2,0,P|292:314|279:360,1,90.0000034332277
194,306,44381,6,0,B|156:285|156:285|62:290,1,113.999996955872
8,293,44962,1,0,0:0:0:0:
36,221,45155,2,0,B|53:214|65:202|65:202|91:211|91:211|149:208,1,113.999996955872
225,107,45930,6,0,P|171:115|117:112,1,107.999996704102
58,64,46511,1,0,0:0:0:0:
45,142,46705,2,0,P|98:149|152:146,1,107.999996704102
194,24,47479,6,0,B|220:27|245:14|245:14|270:26|298:22,1,107.999996704102
375,18,48060,1,0,0:0:0:0:
438,66,48254,2,0,P|393:95|341:89,1,107.999996704102
491,8,49028,5,0,0:0:0:0:
264,101,49416,1,0,0:0:0:0:
363,184,49803,2,0,B|409:194|409:194|482:176,1,107.999996704102
470,261,50578,6,0,B|410:275|410:275|364:265,1,107.999996704102
289,243,51159,1,0,0:0:0:0:
247,313,51352,2,0,P|274:323|299:324,1,53.9999983520508
365,265,51740,1,0,0:0:0:0:
208,242,52127,6,0,P|171:293|173:338,1,107.999996704102
247,313,52708,1,0,0:0:0:0:
289,243,52901,2,0,P|279:205|265:184,1,53.9999983520508
208,242,53289,1,0,0:0:0:0:
166,119,53676,6,0,P|191:126|218:127,1,53.9999983520508
290,95,54063,1,0,0:0:0:0:
337,215,54451,2,0,P|311:222|284:223,1,53.9999983520508
217,201,54838,2,0,P|242:193|269:192,1,53.9999983520508
239,246,55225,6,0,L|152:236,1,76.5000014591217
140,257,55612,2,0,L|170:327,1,76.5000014591217
200,338,56000,2,0,L|252:267,1,76.5000014591217
239,246,56387,1,0,0:0:0:0:
