osu file format v14

[General]
AudioFilename: audio.mp3
AudioLeadIn: 0
PreviewTime: 64703
Countdown: 1
SampleSet: Soft
StackLeniency: 0.6
Mode: 0
LetterboxInBreaks: 0
WidescreenStoryboard: 1

[Editor]
Bookmarks: 27791,42035,42476,60727,64760,72827,84993,93060,106609,106890,127100
DistanceSpacing: 0.8
BeatDivisor: 1
GridSize: 4
TimelineZoom: 2.4

[Metadata]
Title:Who I Am
TitleUnicode:Who I Am
Artist:Trans-Siberian Orchestra
ArtistUnicode:Trans-Siberian Orchestra
Creator:play rainworld
Version:Normal
Source:
Tags:letters from the labyrinth winter symphonic rock english classical orchestral choral
BeatmapID:1235518
BeatmapSetID:583865

[Difficulty]
HPDrainRate:3
CircleSize:3.2
OverallDifficulty:3.5
ApproachRate:5
SliderMultiplier:1.3
SliderTickRate:1

[Events]
//Background and Video events
0,0,"fun_winter_fantasy_cathedral_tree_graveyard_snow_caspar_david_friedrich_ruin_landscape-6536.jpg",0,0
//Break Periods
2,60927,63560
//Storyboard Layer 0 (Background)
//Storyboard Layer 1 (Fail)
//Storyboard Layer 2 (Pass)
//Storyboard Layer 3 (Foreground)
//Storyboard Layer 4 (Overlay)
//Storyboard Sound Samples

[TimingPoints]
349,422.535211267606,4,2,1,100,1,0
27806,416.666666666667,3,2,1,100,1,0
28222,431.654676258993,3,2,1,100,1,0
28653,432.432432432432,3,2,1,100,1,0
41625,459.066564651875,3,2,1,100,1,0
42084,441.176470588235,4,2,1,100,1,0
42525,394.736842105264,4,2,1,100,1,0
42722,447.761194029851,4,2,1,100,1,0
42945,465.116279069767,4,2,1,100,1,0
43409,477.13717693837,4,2,1,100,1,0
43647,500,4,2,1,100,1,0
43897,550.458715596331,4,2,1,100,1,0
44447,571.428571428571,4,2,1,100,1,0
44732,666.666666666667,4,2,1,100,1,0
45032,628.272251308901,4,2,1,100,1,0
45660,600,4,2,1,100,1,0
46263,674.157303370786,4,2,1,100,1,0
46937,731.707317073171,4,2,1,100,1,0
47668,882.35294117647,4,2,1,100,1,0
48550,909.090909090909,4,2,1,100,1,0
49459,983.606557377049,4,2,1,100,1,0
50442,1034.48275862069,4,2,1,100,1,0
51476,1224.48979591837,4,2,1,100,1,1
52700,1224.48979591837,4,2,1,100,1,1
53312,1363.63636363636,4,2,1,100,1,1
53993,1351.35135135135,4,2,1,100,1,1
60757,504.625735912532,4,2,1,100,1,0
106070,840.336134453781,5,2,1,5,1,0
127073,378.548895899054,3,2,1,100,1,0
127451,329.67032967033,3,2,1,100,1,0
128110,329.67032967033,3,2,1,100,1,0
138990,330.578512396694,6,2,1,100,1,0
152874,342.857142857143,6,2,1,100,1,0
153216,408.163265306123,6,2,1,100,1,0
153624,428.571428571429,6,2,1,100,1,0
154052,545.454545454546,6,2,1,100,1,0
154597,566.037735849057,4,2,1,100,1,0
155163,585.365853658536,4,2,1,100,1,0
159845,600,5,2,1,100,1,1

[Colours]
Combo1 : 191,0,0
Combo2 : 102,255,255
Combo3 : 0,210,0

[HitObjects]
108,163,327,6,0,L|103:242,1,64.9999999999999,2|2,0:0|0:0,0:0:0:0:
104,228,1805,6,0,P|184:222|238:256,1,130
270,316,2439,1,0,0:0:0:0:
316,245,2650,2,0,L|325:159,1,65
262,121,3073,2,0,L|253:35,2,65
228,198,3707,6,0,P|197:208|139:205,1,65,2|2,0:0|0:0,0:0:0:0:
164,209,5186,5,10,0:0:0:0:
124,283,5397,1,10,0:0:0:0:
164,209,7087,6,0,L|157:127,1,65,2|2,0:0|0:0,0:0:0:0:
158,144,8566,6,0,P|217:115|249:49,1,130
326,30,9200,1,0,0:0:0:0:
400,69,9411,2,0,L|414:145,1,65
343,182,9834,2,0,L|331:245,2,65
277,129,10467,6,0,P|223:122|197:129,1,65,2|2,0:0|0:0,0:0:0:0:
213,123,11946,5,10,0:0:0:0:
183,202,12157,1,10,0:0:0:0:
211,122,13848,6,0,L|201:52,1,65,2|2,0:0|0:0,0:0:0:0:
202,58,15327,6,0,P|129:51|71:85,1,130
45,152,15960,1,0,0:0:0:0:
104,211,16172,2,0,L|112:288,1,65
191,299,16594,2,0,L|183:376,2,65
261,251,17228,6,0,P|311:237|330:239,1,65,2|2,0:0|0:0,0:0:0:0:
323,237,18707,5,10,0:0:0:0:
309,320,18918,1,10,0:0:0:0:
323,237,20608,6,2,L|314:169,1,65
313,172,22087,6,0,P|259:192|183:166,1,130
152,97,22721,1,0,0:0:0:0:
100,164,22932,2,0,L|85:256,1,65
162,271,23355,2,0,L|177:363,2,65
218,208,23988,6,0,P|292:202|311:209,1,65,2|2,0:0|0:0,0:0:0:0:
281,200,25467,5,10,0:0:0:0:
262,282,25679,1,10,0:0:0:0:
262,282,27791,6,0,P|228:289|120:242,1,130,0|10,0:0|0:0,0:0:0:0:
102,124,28654,2,0,P|135:116|244:164,1,130,0|10,0:0|0:0,0:0:0:0:
262,282,29517,6,0,P|320:308|384:301,1,130,0|10,0:0|0:0,0:0:0:0:
474,190,30380,2,0,L|458:48,1,130,0|10,0:0|0:0,0:0:0:0:
327,5,31244,6,0,P|302:61|309:133,1,130,0|10,0:0|0:0,0:0:0:0:
412,224,32107,2,0,P|417:288|392:347,1,130,0|10,0:0|0:0,0:0:0:0:
278,260,32970,6,0,L|130:240,1,130,0|10,0:0|0:0,0:0:0:0:
68,124,33834,2,0,P|62:59|87:0,1,130,0|10,0:0|0:0,0:0:0:0:
203,84,34697,6,0,P|208:148|183:207,1,130,0|10,0:0|0:0,0:0:0:0:
260,327,35560,2,0,L|388:344,1,130,0|10,0:0|0:0,0:0:0:0:
473,228,36424,6,0,P|483:122|452:70,1,130,0|10,0:0|0:0,0:0:0:0:
340,55,37287,2,0,P|277:69|214:52,1,130,0|10,0:0|0:0,0:0:0:0:
79,99,38150,6,0,L|67:235,1,130,0|10,0:0|0:0,0:0:0:0:
193,296,39014,2,0,L|181:166,1,130,0|10,0:0|0:0,0:0:0:0:
285,67,39877,6,0,P|348:56|410:75,1,130,0|10,0:0|0:0,0:0:0:0:
403,218,40740,2,0,P|339:228|277:209,1,130,0|10,0:0|0:0,0:0:0:0:
176,109,41603,1,10,0:0:0:0:
97,224,42035,6,0,L|96:359,1,130,10|2,0:0|0:0,0:0:0:0:
226,303,42937,2,0,L|225:168,1,130,10|2,0:0|0:0,0:0:0:0:
337,217,43868,2,0,L|336:352,1,130,10|2,0:0|0:0,0:0:0:0:
463,299,45010,2,0,L|462:164,1,130,10|2,0:0|0:0,0:0:0:0:
373,85,46241,2,0,P|303:93|243:129,1,130,10|2,0:0|0:0,0:0:0:0:
271,255,47669,2,0,P|201:247|141:211,1,130,10|2,0:0|0:0,0:0:0:0:
186,91,49437,2,0,P|256:99|316:135,1,130,10|2,0:0|0:0,0:0:0:0:
394,214,51471,6,0,L|382:298,1,65,10|10,0:0|0:0,0:0:0:0:
306,311,52673,2,8,L|294:225,1,65,10|10,0:0|0:0,0:0:0:0:
275,151,53989,5,10,0:0:0:0:
256,192,54301,12,0,60727,0:0:0:0:
328,252,64760,6,0,P|264:284|184:268,1,130,10|10,0:0|0:0,0:0:0:0:
141,226,65516,1,2,0:0:0:0:
197,163,65769,2,0,L|185:23,1,130,10|10,0:0|0:0,0:0:0:0:
353,8,66777,6,0,L|341:148,1,130,10|10,0:0|0:0,0:0:0:0:
333,221,67533,1,2,0:0:0:0:
263,269,67785,2,0,P|200:273|173:264,1,65,10|0,0:0|0:0,0:0:0:0:
125,230,68290,1,10,0:0:0:0:
125,230,68794,6,0,P|175:190|190:115,1,130,10|10,0:0|0:0,0:0:0:0:
157,50,69550,1,2,0:0:0:0:
241,57,69802,2,0,L|375:47,1,130,10|10,0:0|0:0,0:0:0:0:
472,182,70811,6,0,P|490:260|469:317,1,130,10|10,0:0|0:0,0:0:0:0:
310,341,71819,5,10,0:0:0:0:
242,289,72071,1,10,0:0:0:0:
318,254,72323,1,10,0:0:0:0:
241,199,72827,6,0,P|171:233|155:264,1,97.50000371933,10|2,0:0|0:0,0:0:0:0:
170,344,73836,2,0,P|240:310|256:279,1,97.50000371933,10|2,0:0|0:0,0:0:0:0:
333,246,74844,6,8,L|453:254,2,97.50000371933,10|10|10,0:0|0:0|0:0,0:0:0:0:
235,235,76357,1,10,0:0:0:0:
235,235,76861,6,0,P|246:168|234:132,1,97.50000371933,10|2,0:0|0:0,0:0:0:0:
155,89,77869,2,0,P|144:156|156:192,1,97.50000371933,10|2,0:0|0:0,0:0:0:0:
232,237,78878,6,8,L|331:241,2,97.50000371933,10|10|10,0:0|0:0|0:0,0:0:0:0:
147,286,80390,1,10,0:0:0:0:
256,192,80516,12,0,83920,0:0:0:0:
88,324,84993,6,0,P|71:282|95:187,1,130,10|10,0:0|0:0,0:0:0:0:
159,158,85749,1,2,0:0:0:0:
240,178,86001,2,0,L|380:167,1,130,10|10,0:0|0:0,0:0:0:0:
476,37,87009,6,0,L|336:26,1,130,10|10,0:0|0:0,0:0:0:0:
261,22,87766,1,2,0:0:0:0:
189,66,88018,2,0,P|161:111|155:142,1,65,10|0,0:0|0:0,0:0:0:0:
165,208,88522,1,10,0:0:0:0:
165,208,89026,6,8,P|102:228|26:210,1,130,10|10,0:0|0:0,0:0:0:0:
8,139,89782,1,0,0:0:0:0:
32,57,90035,2,8,P|94:36|170:54,1,130,10|10,0:0|0:0,0:0:0:0:
202,118,90791,1,2,0:0:0:0:
238,194,91043,6,0,L|218:345,1,130,10|10,0:0|0:0,0:0:0:0:
148,169,92051,5,10,0:0:0:0:
201,103,92303,1,10,0:0:0:0:
285,105,92556,1,10,0:0:0:0:
335,188,93060,6,0,P|287:200|233:187,1,97.50000371933,10|2,0:0|0:0,0:0:0:0:
201,103,94068,2,0,P|153:93|106:105,1,97.50000371933,10|2,0:0|0:0,0:0:0:0:
43,180,95077,6,8,L|27:288,2,97.50000371933,10|10|10,0:0|0:0|0:0,0:0:0:0:
105,105,96589,1,10,0:0:0:0:
135,197,97093,6,0,P|211:201|249:183,1,97.50000371933,10|2,0:0|0:0,0:0:0:0:
292,119,98102,2,0,P|339:107|386:116,1,97.50000371933,10|2,0:0|0:0,0:0:0:0:
445,193,99110,6,8,L|444:253,2,48.750001859665,10|10|10,0:0|0:0|0:0,0:0:0:0:
499,112,100119,2,0,P|505:79|500:52,1,48.750001859665,10|8,0:0|0:0,0:0:0:0:
481,20,100623,5,10,0:0:0:0:
256,192,100749,12,0,105665,0:0:0:0:
194,305,106887,6,0,P|205:247|196:207,1,97.50000371933,10|0,0:0|0:0,0:0:0:0:
113,159,108565,2,0,P|102:217|111:257,1,97.50000371933,10|10,0:0|0:0,0:0:0:0:
194,305,110243,6,0,L|304:297,1,97.50000371933,10|0,0:0|0:0,0:0:0:0:
313,202,111922,2,0,L|410:209,1,97.50000371933,10|0,0:0|0:0,0:0:0:0:
479,140,113600,2,0,P|485:108|481:76,1,65.0000024795533,10|0,0:0|0:0,0:0:0:0:
456,54,114439,6,0,L|334:47,1,97.50000371933,10|0,0:0|0:0,0:0:0:0:
283,110,116117,2,0,L|161:117,1,97.50000371933,10|0,0:0|0:0,0:0:0:0:
106,172,117796,2,0,P|94:215|94:256,1,65.0000024795533,10|0,0:0|0:0,0:0:0:0:
102,267,118635,6,0,P|161:264|217:293,1,97.50000371933,10|0,0:0|0:0,0:0:0:0:
266,345,120313,1,10,0:0:0:0:
351,292,121177,1,0,0:0:0:0:
316,200,122016,2,0,P|310:123|315:113,1,65.0000024795533,10|0,0:0|0:0,0:0:0:0:
318,107,122855,6,0,L|190:114,1,97.50000371933,10|0,0:0|0:0,0:0:0:0:
177,199,124533,2,0,L|49:192,1,97.50000371933,10|0,0:0|0:0,0:0:0:0:
12,264,126211,2,0,P|6:307|17:344,1,65.0000024795533,10|0,0:0|0:0,0:0:0:0:
27,351,127051,5,10,0:0:0:0:
136,302,127429,2,0,L|270:315,2,130,0|0|10,0:0|0:0|0:0,0:0:0:0:
68,223,128417,6,0,P|54:157|90:85,2,130,0|0|10,0:0|0:0|0:0,0:0:0:0:
154,165,129406,2,0,P|176:104|162:42,2,130,0|0|10,0:0|0:0|0:0,0:0:0:0:
167,268,130395,6,0,L|303:262,2,130,0|0|10,0:0|0:0|0:0,0:0:0:0:
154,164,131384,2,0,L|283:169,2,130,0|0|10,0:0|0:0|0:0,0:0:0:0:
77,93,132373,6,0,P|48:155|67:229,2,130,0|0|10,0:0|0:0|0:0,0:0:0:0:
177,63,133362,2,0,P|240:72|297:43,2,130,0|0|10,0:0|0:0|0:0,0:0:0:0:
160,165,134351,6,0,L|183:297,2,130,0|0|10,0:0|0:0|0:0,0:0:0:0:
263,173,135340,2,0,L|285:301,2,130,0|0|10,0:0|0:0|0:0,0:0:0:0:
326,90,136329,6,0,P|417:84|475:116,2,130,0|0|10,0:0|0:0|0:0,0:0:0:0:
263,173,137318,2,0,P|172:179|114:147,2,130,0|0|10,0:0|0:0|0:0,0:0:0:0:
326,89,138307,6,0,P|365:172|345:241,1,130
301,293,138968,1,10,0:0:0:0:
203,264,139298,6,8,L|67:278,2,130,14|10|14,0:0|0:0|0:0,0:0:0:0:
287,203,140290,2,8,P|305:100|285:52,1,130,10|14,0:0|0:0,0:0:0:0:
211,20,140951,5,14,0:0:0:0:
113,57,141282,2,8,P|95:160|115:208,1,130,14|10,0:0|0:0,0:0:0:0:
178,251,141943,2,8,L|330:271,2,130,14|10|14,0:0|0:0|0:0,0:0:0:0:
101,181,142934,5,14,0:0:0:0:
202,156,143265,2,8,L|338:172,1,130,14|10,0:0|0:0,0:0:0:0:
431,143,143926,2,8,P|464:85|454:13,2,130,14|10|14,0:0|0:0|0:0,0:0:0:0:
331,171,144918,5,14,0:0:0:0:
232,203,145248,2,0,P|199:258|204:322,1,130,14|10,0:0|0:0,0:0:0:0:
295,373,145910,2,8,L|439:359,2,130,14|10|14,0:0|0:0|0:0,0:0:0:0:
204,322,146901,5,14,0:0:0:0:
115,377,147232,2,8,P|101:334|124:253,1,130,14|10,0:0|0:0,0:0:0:0:
222,225,147893,2,8,P|282:247|344:232,2,130,14|10|14,0:0|0:0|0:0,0:0:0:0:
146,152,148885,5,14,0:0:0:0:
229,90,149215,2,8,P|291:75|351:97,2,130,14|10|14,0:0|0:0|0:0,0:0:0:0:
146,152,150207,2,0,L|136:298,1,130,10|14,0:0|0:0,0:0:0:0:
210,355,150868,5,14,0:0:0:0:
286,284,151199,2,8,P|350:275|423:302,1,130,14|10,0:0|0:0,0:0:0:0:
481,217,151860,2,8,L|465:83,2,130,14|10|14,0:0|0:0|0:0,0:0:0:0:
411,294,152852,5,14,0:0:0:0:
324,350,153182,2,8,P|251:349|174:321,1,130,14|14,0:0|0:0,0:0:0:0:
140,251,154009,2,8,P|141:178|169:101,1,130,14|14,0:0|0:0,0:0:0:0:
256,39,155154,5,14,0:0:0:0:
256,192,155304,12,0,159054,0:0:0:0:
256,192,159816,12,0,164616,0:0:0:0:
255,323,165816,5,14,0:0:0:0:
