osu file format v14

[General]
AudioFilename: Traktion - Gid V.mp3
AudioLeadIn: 0
PreviewTime: 68331
Countdown: 0
SampleSet: Soft
StackLeniency: 0.4
Mode: 0
LetterboxInBreaks: 0
WidescreenStoryboard: 1

[Editor]
DistanceSpacing: 0.2
BeatDivisor: 4
GridSize: 32
TimelineZoom: 1.6

[Metadata]
Title:Gid V (Cut Ver.)
TitleUnicode:Gid V (Cut Ver.)
Artist:Traktion
ArtistUnicode:Traktion
Creator:Buttercup
Version:Smile
Source:
Tags:dnb drum and bass Shadren Damnae alacat Zer0- galvenize Asphyxia
BeatmapID:3628308
BeatmapSetID:285249

[Difficulty]
HPDrainRate:6
CircleSize:4.2
OverallDifficulty:9
ApproachRate:9.4
SliderMultiplier:2.1
SliderTickRate:1

[Events]
//Background and Video events
0,0,"BG.jpg",0,0
//Break Periods
2,46462,56756
//Storyboard Layer 0 (Background)
//Storyboard Layer 1 (Fail)
//Storyboard Layer 2 (Pass)
//Storyboard Layer 3 (Foreground)
//Storyboard Layer 4 (Overlay)
//Storyboard Sound Samples

[TimingPoints]
13159,344.827586206897,4,2,2,30,1,0
13159,-133.333333333333,4,2,2,30,0,0
13503,-133.333333333333,4,2,2,5,0,0
13676,-133.333333333333,4,2,2,30,0,0
14021,-133.333333333333,4,2,2,5,0,0
14193,-200,4,2,2,30,0,0
15227,-200,4,2,2,5,0,0
15917,-133.333333333333,4,2,2,30,0,0
16262,-133.333333333333,4,2,2,5,0,0
16434,-133.333333333333,4,2,2,30,0,0
16779,-133.333333333333,4,2,2,5,0,0
16952,-200,4,2,2,30,0,0
17986,-200,4,2,2,5,0,0
18676,-133.333333333333,4,2,2,30,0,0
19021,-133.333333333333,4,2,2,5,0,0
19193,-133.333333333333,4,2,2,30,0,0
19538,-133.333333333333,4,2,2,5,0,0
19710,-200,4,2,2,30,0,0
20745,-200,4,2,2,5,0,0
21434,-133.333333333333,4,2,2,30,0,0
21779,-133.333333333333,4,2,2,5,0,0
21952,-133.333333333333,4,2,2,30,0,0
22296,-133.333333333333,4,2,2,5,0,0
22469,-133.333333333333,4,2,2,30,0,0
24193,-133.333333333333,4,2,1,60,0,0
24538,-133.333333333333,4,2,1,5,0,0
24710,-133.333333333333,4,2,1,60,0,0
25055,-133.333333333333,4,2,1,5,0,0
25227,-1000,4,2,1,60,0,0
26779,-133.333333333333,4,2,1,5,0,0
26952,-133.333333333333,4,2,1,60,0,0
27296,-133.333333333333,4,2,1,5,0,0
27469,-133.333333333333,4,2,1,60,0,0
27814,-133.333333333333,4,2,1,5,0,0
27986,-1000,4,2,1,60,0,0
29538,-133.333333333333,4,2,1,5,0,0
29710,-133.333333333333,4,2,1,60,0,0
30055,-133.333333333333,4,2,1,5,0,0
30227,-133.333333333333,4,2,1,60,0,0
30572,-133.333333333333,4,2,1,5,0,0
30745,-1000,4,2,1,60,0,0
32296,-133.333333333333,4,2,1,5,0,0
32469,-133.333333333333,4,2,1,60,0,0
32814,-133.333333333333,4,2,1,5,0,0
32986,-133.333333333333,4,2,1,60,0,0
33331,-133.333333333333,4,2,1,5,0,0
33503,-1000,4,2,1,60,0,0
35055,-100,4,2,1,60,0,0
35917,-86.9565217391304,4,2,1,60,0,0
36434,-100,4,2,1,60,0,0
37296,-86.9565217391304,4,2,1,60,0,0
37986,-100,4,2,1,60,0,0
38676,-86.9565217391304,4,2,1,60,0,0
39193,-100,4,2,1,60,0,0
39365,-100,4,2,1,5,0,0
39538,-100,4,2,1,60,0,0
40055,-86.9565217391304,4,2,1,60,0,0
40227,-86.9565217391304,4,2,1,5,0,0
40400,-86.9565217391304,4,2,1,60,0,0
40572,-86.9565217391304,4,2,1,5,0,0
40745,-100,4,2,1,60,0,0
41176,-100,4,2,1,5,0,0
41262,-76.9230769230769,4,2,1,60,0,0
41693,-76.9230769230769,4,2,1,5,0,0
41779,-62.5,4,2,1,60,0,0
42210,-62.5,4,2,1,5,0,0
42296,-100,4,2,1,60,0,0
42814,-86.9565217391304,4,2,1,60,0,0
44883,-100,4,2,1,10,0,0
44969,-100,4,2,1,15,0,0
45055,-100,4,2,1,20,0,0
45141,-100,4,2,1,25,0,0
45227,-100,4,2,1,30,0,0
45314,-100,4,2,1,35,0,0
45400,-100,4,2,1,40,0,0
45486,-100,4,2,1,50,0,0
45572,-100,4,2,1,60,0,0
57296,-133.333333333333,4,2,1,60,0,0
62814,-100,4,2,1,60,0,0
63762,-100,4,2,1,5,0,0
63848,-100,4,2,1,60,0,0
65572,-250,4,2,1,60,0,0
66952,-250,4,2,66,60,0,0
67814,-100,4,2,1,60,0,0
68331,-100,4,2,1,60,0,1
74193,-133.333333333333,4,2,1,60,0,1
74538,-100,4,2,1,60,0,1
90400,-100,4,2,1,60,0,0
91434,-83.3333333333333,4,2,1,60,0,0
91694,-83.3333333333333,4,2,1,5,0,0
91779,-100,4,2,1,60,0,0
92814,-83.3333333333333,4,2,1,60,0,0
93072,-83.3333333333333,4,2,1,5,0,0
93159,-100,4,2,1,60,0,0
94193,-66.6666666666667,4,2,1,60,0,0
94452,-67.1140939597315,4,2,1,5,0,0
94538,-100,4,2,1,60,0,0
95572,-67.1140939597315,4,2,1,60,0,0
95917,-100,4,2,1,60,0,0
96952,-83.3333333333333,4,2,1,60,0,0
97210,-83.3333333333333,4,2,1,5,0,0
97296,-100,4,2,1,60,0,0
98331,-83.3333333333333,4,2,1,60,0,0
98590,-83.3333333333333,4,2,1,5,0,0
98676,-100,4,2,1,60,0,0
99710,-83.3333333333333,4,2,1,60,0,0
99968,-83.3333333333333,4,2,1,5,0,0
100055,-100,4,2,1,60,0,0
101693,-100,4,2,1,5,0,0
101779,-100,4,2,1,60,0,0
102469,-83.3333333333333,4,2,1,60,0,0
102727,-83.3333333333333,4,2,1,5,0,0
102814,-100,4,2,1,60,0,0
103848,-83.3333333333333,4,2,1,60,0,0
104193,-100,4,2,1,60,0,0
105486,-100,4,2,1,5,0,0
105572,-100,4,2,1,60,0,0
106607,-66.6666666666667,4,2,1,60,0,0
106952,-100,4,2,1,60,0,0
107986,-83.3333333333333,4,2,1,60,0,0
108245,-83.3333333333333,4,2,1,5,0,0
108331,-100,4,2,1,60,0,0
109365,-83.3333333333333,4,2,1,60,0,0
109624,-83.3333333333333,4,2,1,5,0,0
109710,-100,4,2,1,60,0,0
111090,-200,4,2,1,60,0,0
111434,-133.333333333333,4,2,1,60,0,0
111779,-100,4,2,1,60,0,0
112124,-83.3333333333333,4,2,1,60,0,0
112469,-100,4,2,33,60,0,0
122038,-100,4,2,33,5,0,0
122124,-100,4,2,33,60,0,0
123159,-76.9230769230769,4,2,33,60,0,0
123417,-76.9230769230769,4,2,33,5,0,0
123503,-1000,4,2,33,60,0,0
124538,-100,4,2,33,60,0,0
135572,-100,4,2,33,60,0,1
135917,-100,4,2,1,60,0,1
156262,-76.9230769230769,4,2,1,60,0,1
156607,-100,4,2,1,60,0,0

[Colours]
Combo1 : 255,94,55
Combo2 : 173,255,95
Combo3 : 17,254,176
Combo4 : 255,88,100

[HitObjects]
8,56,13159,6,0,P|82:89|157:70,1,157.500006008148
384,32,13676,2,0,L|228:12,1,157.500006008148
164,236,14193,6,0,B|233:184|238:103|238:103|263:180|368:212,1,315
350,206,15917,6,0,P|410:158|496:168,1,157.500006008148
375,298,16434,2,0,P|451:303|511:255,1,157.500006008148
273,153,16952,6,0,B|229:253|325:253|262:354|262:354|225:309|152:331,1,315
167,326,18676,6,0,B|83:321|125:248|10:250,1,157.500006008148
160,81,19193,2,0,B|187:184|187:184|167:251,1,157.500006008148
453,253,19710,6,0,B|391:252|391:252|349:273|349:273|286:213|286:213|216:238|216:238|171:232,1,315
171,232,21434,6,0,P|217:287|307:273,1,157.500006008148
277,58,21952,2,0,B|302:138|219:124|260:231,1,157.500006008148
296,280,22469,5,0,0:0:0:0:
296,280,22641,1,2,0:0:0:0:
92,176,22986,1,0,0:0:0:0:
92,176,23159,2,0,L|101:78,1,78.7500030040742,2|0,0:0|0:0,0:0:0:0:
183,238,23503,5,2,0:0:0:0:
0,114,23676,1,0,0:0:0:0:
245,147,23848,5,2,0:0:0:0:
121,329,24021,1,0,0:0:0:0:
183,85,24193,6,0,P|248:61|328:128,1,157.500006008148,4|0,0:0|0:0,0:0:0:0:
454,123,24710,2,0,P|389:147|309:80,1,157.500006008148,4|0,0:0|0:0,0:0:0:0:
330,10,25227,6,0,L|318:105,1,94.5,4|0,0:0|0:0,0:0:0:0:
328,287,26952,6,0,P|263:311|183:244,1,157.500006008148,4|0,0:0|0:0,0:0:0:0:
57,249,27469,2,0,P|122:225|202:292,1,157.500006008148,4|0,0:0|0:0,0:0:0:0:
181,362,27986,6,0,L|193:267,1,94.5,4|0,0:0|0:0,0:0:0:0:
231,94,29710,6,0,B|189:116|139:97|169:68|112:53|73:73,1,157.500006008148,4|0,0:0|0:0,0:0:0:0:
260,188,30227,2,0,P|319:137|408:147,1,157.500006008148,4|0,0:0|0:0,0:0:0:0:
218,0,30745,6,0,L|230:93,1,94.5,4|0,0:0|0:0,0:0:0:0:
257,307,32469,6,0,B|250:243|250:243|264:241|264:241|250:243|250:243|242:176,1,157.500006008148,4|0,0:0|0:0,0:0:0:0:
355,289,32986,2,0,B|348:225|348:225|362:223|362:223|348:225|348:225|340:158,1,157.500006008148,4|0,0:0|0:0,0:0:0:0:
448,239,33503,6,0,B|435:146,1,94.5,4|2,0:0|0:0,0:0:0:0:
480,40,35227,5,6,0:0:0:0:
477,50,35314,1,0,0:0:0:0:
475,61,35400,1,0,0:0:0:0:
330,159,35572,2,0,B|437:144,1,105,0|6,0:0|0:0,0:0:0:0:
455,339,35917,6,0,B|444:241|444:241|466:237|466:237|444:241|444:241|433:143,1,241.500004606247,8|6,0:0|0:0,0:0:0:0:
173,225,36434,2,0,B|224:209|240:155|240:155|245:211|294:245,1,210,0|2,0:0|0:0,0:0:0:0:
223,301,36952,1,2,0:0:0:0:
223,301,37124,1,0,0:0:0:0:
299,36,37296,6,0,B|244:76|240:140|240:140|220:80|138:54,1,241.500004606247,8|0,0:0|0:0,0:0:0:0:
216,0,37814,1,2,0:0:0:0:
398,134,37986,5,6,0:0:0:0:
388,131,38072,1,0,0:0:0:0:
377,129,38159,1,0,0:0:0:0:
446,311,38331,2,0,P|444:258|487:196,1,105,0|6,0:0|0:0,0:0:0:0:
271,234,38676,6,0,B|369:223|369:223|373:245|373:245|369:223|369:223|467:212,1,241.500004606247,8|6,0:0|0:0,0:0:0:0:
498,27,39193,2,0,B|493:69|493:69|503:70|503:70|493:69|493:69|489:112,1,105
446,311,39538,5,2,0:0:0:0:
244,138,39710,1,0,0:0:0:0:
468,212,39883,1,2,0:0:0:0:
171,81,40055,6,0,B|145:137|145:137|175:200,1,120.750002303124,8|0,0:0|0:0,0:0:0:0:
401,110,40400,2,0,B|426:53|426:53|396:-9,1,120.750002303124,2|0,0:0|0:0,0:0:0:0:
102,291,40745,6,0,B|138:284|138:284|140:276|140:276|144:283|144:283|266:262|266:262|214:282|227:344,1,262.5,6|0,0:0|0:0,0:0:0:0:
260,179,41262,6,0,B|216:187|216:187|213:197|213:197|209:188|209:188|58:215|58:215|122:190|106:113,1,341.249984378815,6|0,0:0|0:0,0:0:0:0:
346,73,41779,6,0,B|357:127|357:127|369:130|369:130|359:136|359:136|391:321|391:321|360:243|266:262,1,420,6|0,0:0|0:0,0:0:0:0:
480,342,42296,5,2,0:0:0:0:
456,178,42469,2,0,B|463:220|463:220|472:218|472:218|463:220|463:220|470:263,1,105,2|0,0:0|0:0,0:0:0:0:
233,57,42814,6,0,B|292:25|363:52|320:93|401:115|456:86,1,241.500004606247,8|0,0:0|0:0,0:0:0:0:
407,11,43331,1,2,0:0:0:0:
163,179,43503,5,6,0:0:0:0:
283,127,43676,1,0,0:0:0:0:
80,76,43848,5,2,0:0:0:0:
366,230,44021,1,6,0:0:0:0:
102,350,44193,6,0,B|146:320|148:267|148:267|181:276|219:258|232:236|232:236|251:263|308:261,1,241.500004606247,8|6,0:0|0:0,0:0:0:0:
230,343,44710,1,0,0:0:0:0:
503,184,44883,5,2,0:0:0:0:
484,208,44969,5,2,0:0:0:0:
454,231,45055,5,2,0:0:0:0:
413,241,45141,5,2,0:0:0:0:
366,230,45227,5,2,0:0:0:0:
326,195,45314,5,2,0:0:0:0:
309,139,45400,5,2,0:0:0:0:
326,78,45486,5,2,0:0:0:0:
382,40,45572,5,10,0:0:0:0:
408,320,45745,1,2,0:0:0:0:
221,107,45917,1,0,0:0:0:0:
495,170,46090,1,2,0:0:0:0:
237,279,46262,1,6,0:0:0:0:
40,179,57296,6,0,P|87:122|179:136,1,157.500006008148,6|0,0:0|0:0,0:0:0:0:
196,216,57986,2,0,P|147:275|72:272,1,157.500006008148,2|0,0:0|0:0,0:0:0:0:
343,125,58676,2,0,P|418:121|468:179,1,157.500006008148,2|0,0:0|0:0,0:0:0:0:
436,272,59365,2,0,P|360:276|311:218,1,157.500006008148,2|0,0:0|0:0,0:0:0:0:
215,24,60055,5,6,0:0:0:0:
215,24,60400,1,0,0:0:0:0:
215,24,60572,1,0,0:0:0:0:
390,201,60745,5,2,0:0:0:0:
390,201,61090,1,0,0:0:0:0:
390,201,61262,1,0,0:0:0:0:
93,101,61434,5,2,0:0:0:0:
93,101,61779,1,0,0:0:0:0:
93,101,61952,1,0,0:0:0:0:
512,121,62124,5,2,0:0:0:0:
512,121,62469,1,0,0:0:0:0:
512,121,62641,1,0,0:0:0:0:
289,119,62814,6,0,P|245:169|230:239,1,105,6|0,0:0|0:0,0:0:0:0:
23,29,63159,2,0,P|59:66|79:114,1,105,2|0,0:0|0:0,0:0:0:0:
184,0,63503,2,0,L|160:168,1,157.5,2|0,0:0|0:0,0:0:0:0:
161,155,63848,5,2,0:0:0:0:
86,374,64021,1,0,0:0:0:0:
312,319,64193,5,2,0:0:0:0:
161,155,64365,1,0,0:0:0:0:
187,278,64538,5,2,0:0:0:0:
262,59,64710,1,0,0:0:0:0:
36,114,64883,5,2,0:0:0:0:
319,176,65055,1,0,0:0:0:0:
24,224,65227,5,2,0:0:0:0:
140,18,65400,1,0,0:0:0:0:
201,377,65572,5,6,0:0:0:0:
140,312,66952,5,2,0:0:0:0:
273,38,67296,1,2,0:0:0:0:
309,247,67641,1,2,0:0:0:0:
32,126,67814,5,2,0:0:0:0:
280,149,67986,1,8,0:0:0:0:
290,147,68072,1,8,0:3:0:0:
300,146,68159,1,4,0:3:0:0:
311,144,68244,1,4,0:3:0:0:
321,143,68331,6,0,L|308:258,1,105,6|0,0:0|0:0,0:0:0:0:
309,247,68590,1,0,0:0:0:0:
309,247,68676,1,8,0:0:0:0:
338,32,68848,1,0,0:0:0:0:
218,329,69021,2,0,P|268:339|302:378,1,105,0|2,0:0|0:0,0:0:0:0:
512,211,69365,2,0,L|397:198,1,105,8|0,0:0|0:0,0:0:0:0:
148,188,69710,5,2,0:0:0:0:
390,315,69883,1,0,0:0:0:0:
390,315,69970,1,0,0:0:0:0:
390,315,70056,1,8,0:0:0:0:
381,39,70227,5,0,0:0:0:0:
314,256,70400,1,0,0:0:0:0:
251,0,70572,1,2,0:0:0:0:
503,72,70745,1,8,0:0:0:0:
251,0,70917,1,0,0:0:0:0:
304,343,71090,6,0,P|354:332|388:293,1,105,6|0,0:0|0:0,0:0:0:0:
300,76,71434,2,0,L|318:192,1,105,8|0,0:0|0:0,0:0:0:0:
319,191,71693,1,0,0:0:0:0:
322,203,71779,1,0,0:0:0:0:
0,297,71952,5,2,0:0:0:0:
174,69,72124,1,8,0:0:0:0:
163,356,72296,1,0,0:0:0:0:
5,118,72469,1,2,0:0:0:0:
271,216,72641,1,0,0:0:0:0:
5,118,72814,5,8,0:0:0:0:
163,356,72986,1,0,0:0:0:0:
69,13,73159,1,0,0:0:0:0:
0,297,73331,1,2,0:0:0:0:
69,13,73503,1,8,0:0:0:0:
271,216,73676,1,0,0:0:0:0:
98,154,73848,6,0,P|177:151|208:186,1,105,6|0,0:0|0:0,0:0:0:0:
193,164,74107,1,0,0:0:0:0:
194,166,74193,2,0,L|180:263,1,78.7500030040742,8|0,0:0|0:0,0:0:0:0:
496,52,74538,5,0,0:0:0:0:
454,45,74625,1,0,0:0:0:0:
412,38,74711,1,2,0:0:0:0:
370,31,74797,1,0,0:0:0:0:
328,25,74883,2,0,L|349:152,1,105,8|0,0:0|0:0,0:0:0:0:
444,303,75227,2,0,P|392:308|354:343,1,105,2|0,0:0|0:0,0:0:0:0:
345,128,75486,1,0,0:0:0:0:
345,128,75572,2,0,L|362:231,1,105,8|0,0:0|0:0,0:0:0:0:
29,175,75917,5,0,0:0:0:0:
254,128,76090,1,2,0:0:0:0:
55,315,76262,1,8,0:0:0:0:
280,268,76434,1,0,0:0:0:0:
121,46,76607,5,6,0:0:0:0:
55,315,76779,1,0,0:0:0:0:
121,46,76952,1,8,0:0:0:0:
168,252,77124,1,0,0:0:0:0:
91,160,77296,2,0,L|194:140,1,105,0|2,0:0|0:0,0:0:0:0:
1,101,77641,2,0,B|-19:50|-19:50|4:4,1,105,8|0,0:0|0:0,0:0:0:0:
275,98,77986,2,0,B|294:148|294:148|272:195,1,105,2|0,0:0|0:0,0:0:0:0:
240,317,78331,5,8,0:0:0:0:
391,233,78503,1,0,0:0:0:0:
115,264,78676,1,0,0:0:0:0:
98,259,78762,1,8,0:0:0:0:
82,256,78848,1,2,0:0:0:0:
512,280,79021,2,0,L|487:387,1,105,8|0,0:0|0:0,0:0:0:0:
348,155,79365,6,0,L|324:52,1,105,2|0,0:0|0:0,0:0:0:0:
324,52,79624,1,0,0:0:0:0:
324,52,79710,1,8,0:0:0:0:
494,0,79883,1,0,0:0:0:0:
239,78,80055,2,0,L|262:180,1,105,0|2,0:0|0:0,0:0:0:0:
512,280,80400,2,0,P|462:290|428:329,1,105,8|0,0:0|0:0,0:0:0:0:
409,24,80745,6,0,L|432:126,1,105,2|0,0:0|0:0,0:0:0:0:
432,126,81003,1,0,0:0:0:0:
432,126,81090,1,8,0:0:0:0:
217,157,81262,5,0,0:0:0:0:
147,251,81435,1,0,0:0:0:0:
187,80,81607,1,2,0:0:0:0:
176,327,81780,1,8,0:0:0:0:
158,4,81952,1,0,0:0:0:0:
92,306,82124,6,0,P|60:337|-4:353,1,105,6|0,0:0|0:0,0:0:0:0:
272,88,82469,1,8,0:0:0:0:
281,100,82555,1,0,0:0:0:0:
293,111,82641,1,0,0:0:0:0:
306,120,82727,1,0,0:0:0:0:
320,127,82813,1,0,0:0:0:0:
445,288,82986,5,2,0:0:0:0:
184,193,83159,1,8,0:0:0:0:
466,193,83331,1,0,0:0:0:0:
212,288,83504,1,2,0:0:0:0:
424,384,83676,1,0,0:0:0:0:
488,98,83848,5,8,0:0:0:0:
296,292,84021,1,0,0:0:0:0:
492,76,84193,5,0,0:0:0:0:
265,147,84365,1,2,0:0:0:0:
496,54,84538,5,8,0:0:0:0:
214,0,84710,1,0,0:0:0:0:
394,208,84883,6,0,B|416:161|416:161|397:111,1,105,6|0,0:0|0:0,0:0:0:0:
192,236,85227,2,0,B|173:286|173:286|195:333,1,105,8|0,0:0|0:0,0:0:0:0:
466,312,85572,1,0,0:0:0:0:
425,305,85658,1,0,0:0:0:0:
384,300,85744,1,2,0:0:0:0:
343,294,85830,1,0,0:0:0:0:
302,288,85916,1,8,0:0:0:0:
418,20,86090,1,0,0:0:0:0:
394,224,86262,5,2,0:0:0:0:
429,126,86435,1,0,0:0:0:0:
412,121,86521,1,0,0:0:0:0:
396,118,86607,1,8,0:0:0:0:
512,144,86779,1,0,0:0:0:0:
261,218,86952,5,0,0:0:0:0:
418,20,87124,1,2,0:0:0:0:
508,264,87296,1,8,0:0:0:0:
418,20,87469,1,0,0:0:0:0:
389,274,87641,5,6,0:0:0:0:
512,59,87814,1,0,0:0:0:0:
389,274,87986,1,8,0:0:0:0:
318,43,88159,1,0,0:0:0:0:
348,153,88331,6,0,L|496:165,1,105,0|2,0:0|0:0,0:0:0:0:
280,352,88676,2,0,B|258:305|258:305|277:255,1,105,8|0,0:0|0:0,0:0:0:0:
498,260,89021,2,0,B|520:307|520:307|501:357,1,105,2|0,0:0|0:0,0:0:0:0:
406,70,89365,1,8,0:0:0:0:
401,361,89538,5,8,0:0:0:0:
346,345,89624,1,8,0:0:0:0:
318,295,89710,1,8,0:0:0:0:
336,241,89797,1,8,0:0:0:0:
354,188,89883,1,2,0:0:0:0:
326,137,89969,1,0,0:0:0:0:
273,124,90056,5,2,0:0:0:0:
267,133,90141,1,2,0:0:0:0:
264,143,90227,1,2,0:0:0:0:
263,153,90313,1,2,0:0:0:0:
263,163,90399,5,6,0:0:0:0:
406,70,90572,1,0,0:0:0:0:
486,274,90745,2,0,P|491:221|509:172,1,105,8|0,0:0|0:0,0:0:0:0:
250,23,91090,2,0,P|267:72|273:124,1,105,0|2,0:0|0:0,0:0:0:0:
509,173,91434,2,0,B|467:151|405:168|440:201|375:219|331:196,1,188.999994232178,8|0,0:0|0:0,0:0:0:0:
273,124,91779,5,6,0:0:0:0:
486,274,91952,1,0,0:0:0:0:
486,274,92038,1,0,0:0:0:0:
486,274,92124,2,0,P|464:321|464:373,1,105,8|0,0:0|0:0,0:0:0:0:
149,220,92469,2,0,B|190:214|190:214|189:204|189:204|190:214|190:214|233:208,1,105,0|2,0:0|0:0,0:0:0:0:
487,67,92814,2,0,B|435:81|420:128|420:128|417:82|372:50,1,188.999994232178,8|0,0:0|0:0,0:0:0:0:
435,0,93159,5,6,0:0:0:0:
409,203,93331,1,0,0:0:0:0:
405,220,93417,1,0,0:0:0:0:
403,236,93503,1,8,0:0:0:0:
294,36,93676,1,0,0:0:0:0:
501,146,93848,1,0,0:0:0:0:
313,272,94021,1,2,0:0:0:0:
294,36,94193,2,0,B|299:115|315:303,1,236.250009012223,8|0,0:0|0:0,0:0:0:0:
313,272,94538,5,6,0:0:0:0:
107,293,94710,1,0,0:0:0:0:
141,280,94796,1,0,0:0:0:0:
177,282,94883,1,8,0:0:0:0:
210,298,94969,1,0,0:0:0:0:
232,326,95055,1,0,0:0:0:0:
254,354,95141,1,0,0:0:0:0:
287,370,95227,1,0,0:0:0:0:
323,372,95314,1,0,0:0:0:0:
358,360,95400,1,2,0:0:0:0:
185,62,95572,6,0,B|220:135|220:135|189:214,1,156.449991525307,8|0,0:0|0:0,0:0:0:0:
6,145,95831,1,0,0:0:0:0:
17,144,95917,6,0,L|162:137,1,105,6|0,0:0|0:0,0:0:0:0:
309,130,96262,1,8,0:0:0:0:
108,18,96434,1,0,0:0:0:0:
108,18,96521,1,0,0:0:0:0:
108,18,96607,1,0,0:0:0:0:
104,247,96779,1,2,0:0:0:0:
255,66,96952,2,0,B|306:51|320:3|320:3|324:49|370:80,1,188.999994232178,8|0,0:0|0:0,0:0:0:0:
295,256,97296,6,0,L|308:138,1,105,6|0,0:0|0:0,0:0:0:0:
308,141,97555,1,0,0:0:0:0:
309,130,97641,1,8,0:0:0:0:
37,55,97814,2,0,L|43:107,1,52.5
119,116,97986,2,0,L|107:11,1,105,0|2,0:0|0:0,0:0:0:0:
255,66,98331,2,0,P|202:126|170:235,1,188.999994232178,8|0,0:0|0:0,0:0:0:0:
170,228,98676,5,6,0:0:0:0:
325,10,98848,1,0,0:0:0:0:
335,5,98934,1,0,0:0:0:0:
345,0,99021,2,0,B|368:49|368:49|347:103,1,105,8|0,0:0|0:0,0:0:0:0:
286,266,99365,1,0,0:0:0:0:
199,16,99538,1,2,0:0:0:0:
441,166,99710,2,0,B|359:175|359:175|358:162|358:162|359:175|359:175|279:182,1,188.999994232178,8|0,0:0|0:0,0:0:0:0:
267,96,100055,5,6,0:0:0:0:
285,266,100227,1,2,0:0:0:0:
178,90,100400,5,8,0:0:0:0:
197,305,100572,1,8,0:0:0:0:
89,84,100745,6,0,L|96:164,1,52.5,0|8,0:0|0:0,0:0:0:0:
109,344,100917,1,2,0:0:0:0:
0,78,101090,5,8,0:0:0:0:
21,383,101262,1,0,0:0:0:0:
246,183,101434,5,6,0:0:0:0:
84,275,101607,1,0,0:0:0:0:
247,367,101779,1,8,0:0:0:0:
173,64,101952,1,0,0:0:0:0:
173,64,102038,1,0,0:0:0:0:
173,64,102124,2,0,B|148:115|148:115|170:171,1,105,0|2,0:0|0:0,0:0:0:0:
315,315,102469,2,0,B|349:291|349:291|374:185|374:185|361:146,1,188.999994232178,8|0,0:0|0:0,0:0:0:0:
321,71,102814,5,6,0:0:0:0:
129,256,102986,1,0,0:0:0:0:
129,256,103072,1,0,0:0:0:0:
129,256,103159,2,0,L|233:238,1,105,8|0,0:0|0:0,0:0:0:0:
160,109,103503,1,0,0:0:0:0:
203,372,103676,1,2,0:0:0:0:
160,109,103848,1,8,0:0:0:0:
342,355,104021,1,0,0:0:0:0:
160,109,104193,5,6,0:0:0:0:
63,384,104366,1,0,0:0:0:0:
78,378,104452,1,0,0:0:0:0:
95,372,104538,1,8,0:0:0:0:
232,242,104710,1,0,0:0:0:0:
55,146,104883,1,0,0:0:0:0:
226,40,105055,1,2,0:0:0:0:
151,229,105227,2,0,P|102:287|8:272,1,157.5,8|0,0:0|0:0,0:0:0:0:
25,284,105572,5,6,0:0:0:0:
246,1,105745,1,0,0:0:0:0:
226,40,105832,1,0,0:0:0:0:
191,67,105918,1,8,0:0:0:0:
144,78,106004,1,0,0:0:0:0:
103,71,106090,1,0,0:0:0:0:
145,79,106176,1,0,0:0:0:0:
185,103,106262,1,0,0:0:0:0:
209,141,106348,1,0,0:0:0:0:
220,188,106434,1,2,0:0:0:0:
392,39,106607,6,0,B|416:81|457:87|457:87|414:97|397:143,1,157.500006008148,8|0,0:0|0:0,0:0:0:0:
464,273,106865,1,0,0:0:0:0:
470,263,106952,6,0,B|495:212|495:212|478:168,1,105,6|0,0:0|0:0,0:0:0:0:
315,99,107296,1,8,0:0:0:0:
383,277,107469,1,0,0:0:0:0:
385,293,107555,1,0,0:0:0:0:
388,309,107641,1,0,0:0:0:0:
454,6,107814,1,2,0:0:0:0:
174,151,107986,2,0,B|215:129|281:146|245:179|307:197|350:173,1,188.999994232178,8|0,0:0|0:0,0:0:0:0:
349,173,108331,5,6,0:0:0:0:
309,333,108503,1,0,0:0:0:0:
306,342,108590,1,0,0:0:0:0:
303,349,108676,2,0,P|335:387|397:377,1,105,8|0,0:0|0:0,0:0:0:0:
315,99,109021,1,0,0:0:0:0:
367,282,109193,1,2,0:0:0:0:
355,17,109365,2,0,B|313:51|314:98|314:98|295:52|241:43,1,188.999994232178,8|0,0:0|0:0,0:0:0:0:
241,220,109710,6,0,B|261:170|261:170|240:124,1,105,6|0,0:0|0:0,0:0:0:0:
30,158,110055,2,0,B|17:207|17:207|46:251,1,105,8|0,0:0|0:0,0:0:0:0:
144,238,110314,1,0,0:0:0:0:
144,238,110400,2,0,L|127:121,1,105,0|2,0:0|0:0,0:0:0:0:
143,237,110745,2,0,L|159:341,1,105,8|0,0:0|0:0,0:0:0:0:
91,56,111090,5,2,0:0:0:0:
431,202,111262,1,0,0:0:0:0:
128,134,111434,5,2,0:0:0:0:
423,36,111606,1,0,0:0:0:0:
96,220,111779,5,2,0:0:0:0:
441,367,111951,1,0,0:0:0:0:
139,299,112123,5,2,0:0:0:0:
377,120,112297,1,0,0:0:0:0:
106,384,112469,5,6,0:0:0:0:
387,286,112641,1,0,0:0:0:0:
294,240,112814,5,8,0:0:0:0:
296,250,112900,1,0,0:0:0:0:
297,260,112986,1,0,0:0:0:0:
299,271,113072,1,0,0:0:0:0:
301,283,113159,2,0,P|296:336|278:385,1,105,0|2,0:0|0:0,0:0:0:0:
201,88,113503,1,8,0:0:0:0:
10,237,113676,5,0,0:0:0:0:
201,75,113848,1,2,0:0:0:0:
86,336,114021,5,0,0:0:0:0:
201,62,114193,1,8,0:0:0:0:
163,237,114365,5,0,0:0:0:0:
201,49,114538,1,0,0:0:0:0:
240,336,114710,5,2,0:0:0:0:
201,35,114883,1,8,0:0:0:0:
317,237,115055,5,0,0:0:0:0:
201,23,115227,5,6,0:0:0:0:
394,336,115400,1,0,0:0:0:0:
400,249,115572,5,8,0:0:0:0:
390,251,115658,1,0,0:0:0:0:
380,252,115744,1,0,0:0:0:0:
369,254,115830,1,0,0:0:0:0:
357,256,115917,2,0,L|371:379,1,105,0|2,0:0|0:0,0:0:0:0:
229,196,116262,1,8,0:0:0:0:
324,42,116434,5,0,0:0:0:0:
229,196,116607,1,2,0:0:0:0:
403,112,116779,5,0,0:0:0:0:
150,126,116952,5,8,0:0:0:0:
482,182,117124,5,0,0:0:0:0:
71,56,117296,5,0,0:0:0:0:
303,271,117469,5,2,0:0:0:0:
232,106,117641,1,8,0:0:0:0:
265,373,117814,1,0,0:0:0:0:
265,0,117986,6,0,P|221:29|148:-2,1,105,6|0,0:0|0:0,0:0:0:0:
340,217,118331,2,0,P|296:188|223:219,1,105,8|0,0:0|0:0,0:0:0:0:
246,196,118590,1,0,0:0:0:0:
246,196,118676,2,0,P|202:225|129:194,1,105,0|2,0:0|0:0,0:0:0:0:
241,5,119021,1,8,0:0:0:0:
419,106,119193,5,0,0:0:0:0:
241,5,119365,1,2,0:0:0:0:
324,167,119538,5,0,0:0:0:0:
168,45,119710,1,8,0:0:0:0:
241,256,119883,5,0,0:0:0:0:
84,5,120055,1,0,0:0:0:0:
134,289,120227,5,2,0:0:0:0:
21,64,120400,1,8,0:0:0:0:
58,363,120572,5,0,0:0:0:0:
157,188,120745,6,0,L|167:55,1,105,6|0,0:0|0:0,0:0:0:0:
358,0,121090,1,8,0:0:0:0:
353,47,121176,1,0,0:0:0:0:
348,96,121262,1,0,0:0:0:0:
343,145,121348,1,0,0:0:0:0:
339,195,121434,1,0,0:0:0:0:
316,183,121520,1,0,0:0:0:0:
293,171,121607,1,2,0:0:0:0:
291,369,121779,2,0,B|380:353|332:297|426:280,1,157.5,8|0,0:0|0:0,0:0:0:0:
424,182,122124,6,0,B|421:214|421:214|416:218|416:218|421:222|421:222|415:283,1,105,2|0,0:0|0:0,0:0:0:0:
181,232,122469,1,8,0:0:0:0:
160,190,122555,1,0,0:0:0:0:
162,147,122641,1,0,0:0:0:0:
183,110,122727,1,0,0:0:0:0:
219,86,122814,1,0,0:0:0:0:
242,97,122900,1,0,0:0:0:0:
268,97,122986,1,2,0:0:0:0:
108,64,123159,2,0,B|112:-1|15:12|12:63|49:125|82:131,1,204.749990627289,8|0,0:0|0:0,0:0:0:0:
76,193,123503,6,0,L|82:127,1,63,4|8,0:0|0:0,0:0:0:0:
89,7,124710,5,0,0:0:0:0:
231,223,124883,1,2,0:0:0:0:
246,7,125055,5,0,0:0:0:0:
103,223,125227,1,8,0:0:0:0:
31,110,125400,5,0,0:0:0:0:
289,110,125572,1,0,0:0:0:0:
173,336,125745,5,2,0:0:0:0:
173,110,125917,1,8,0:0:0:0:
345,377,126090,5,0,0:0:0:0:
173,110,126262,5,6,0:0:0:0:
0,377,126434,1,0,0:0:0:0:
117,273,126607,5,8,0:0:0:0:
107,275,126693,1,0,0:0:0:0:
97,276,126779,1,0,0:0:0:0:
86,278,126865,1,0,0:0:0:0:
74,280,126952,2,0,L|88:403,1,105,0|2,0:0|0:0,0:0:0:0:
193,213,127296,1,8,0:0:0:0:
389,177,127469,5,0,0:0:0:0:
193,213,127641,1,2,0:0:0:0:
466,252,127814,5,0,0:0:0:0:
114,142,127986,1,8,0:0:0:0:
446,83,128159,5,0,0:0:0:0:
133,291,128331,1,0,0:0:0:0:
424,351,128503,5,2,0:0:0:0:
160,42,128676,1,8,0:0:0:0:
208,354,128848,5,0,0:0:0:0:
388,8,129021,5,6,0:0:0:0:
293,194,129193,1,0,0:0:0:0:
368,131,129365,6,0,P|397:175|366:248,1,105,8|0,0:0|0:0,0:0:0:0:
388,224,129624,1,0,0:0:0:0:
387,223,129710,2,0,P|359:266|367:317,1,105,0|2,0:0|0:0,0:0:0:0:
245,148,130055,1,8,0:0:0:0:
261,309,130227,5,0,0:0:0:0:
10,251,130400,1,2,0:0:0:0:
245,148,130572,5,0,0:0:0:0:
112,369,130745,1,8,0:0:0:0:
89,110,130917,5,0,0:0:0:0:
396,205,131090,1,0,0:0:0:0:
125,267,131262,5,2,0:0:0:0:
360,47,131434,1,8,0:0:0:0:
279,314,131607,5,0,0:0:0:0:
205,0,131779,5,6,0:0:0:0:
442,105,131952,1,0,0:0:0:0:
223,218,132124,5,8,0:0:0:0:
257,205,132210,1,0,0:0:0:0:
293,207,132297,1,0,0:0:0:0:
326,223,132383,1,0,0:0:0:0:
348,251,132469,1,0,0:0:0:0:
370,279,132555,1,0,0:0:0:0:
403,295,132641,1,2,0:0:0:0:
439,297,132728,1,0,0:0:0:0:
474,285,132814,2,0,P|496:332|496:384,1,105,8|0,0:0|0:0,0:0:0:0:
463,39,133159,5,6,0:0:0:0:
447,69,133245,1,0,0:0:0:0:
417,85,133331,1,0,0:0:0:0:
383,83,133417,1,0,0:0:0:0:
354,64,133504,5,12,0:0:0:0:
320,26,133591,1,0,0:0:0:0:
265,7,133677,1,0,0:0:0:0:
212,22,133763,1,0,0:0:0:0:
173,60,133848,5,4,0:0:0:0:
158,108,133935,1,0,0:0:0:0:
168,165,134021,1,2,0:0:0:0:
207,204,134107,1,0,0:0:0:0:
260,217,134194,5,12,0:0:0:0:
313,231,134280,1,0,0:0:0:0:
352,270,134366,1,0,0:0:0:0:
362,327,134452,1,0,0:0:0:0:
347,375,134539,5,6,0:0:0:0:
112,241,134711,1,0,0:0:0:0:
345,104,134884,1,0,0:0:0:0:
308,306,135055,5,0,0:0:0:0:
194,240,135227,1,0,0:0:0:0:
307,175,135400,1,2,0:0:0:0:
190,375,135573,1,8,0:0:0:0:
189,105,135745,5,0,0:0:0:0:
176,82,135831,1,0,0:0:0:0:
163,59,135917,1,2,0:0:0:0:
366,243,136090,1,0,0:0:0:0:
379,221,136176,1,0,0:0:0:0:
392,198,136262,1,8,0:0:0:0:
219,182,136434,5,0,0:0:0:0:
149,276,136607,1,0,0:0:0:0:
189,105,136779,1,2,0:0:0:0:
178,352,136952,1,8,0:0:0:0:
160,29,137124,1,0,0:0:0:0:
46,296,137296,6,0,L|167:272,1,105,6|0,0:0|0:0,0:0:0:0:
71,141,137641,1,8,0:0:0:0:
72,151,137727,1,0,0:0:0:0:
73,161,137813,1,0,0:0:0:0:
74,171,137899,1,0,0:0:0:0:
76,181,137985,1,0,0:0:0:0:
230,287,138159,5,2,0:0:0:0:
249,81,138331,1,8,0:0:0:0:
325,327,138503,5,0,0:0:0:0:
353,61,138675,1,2,0:0:0:0:
423,368,138848,5,0,0:0:0:0:
457,39,139021,1,8,0:0:0:0:
233,186,139193,1,0,0:0:0:0:
438,179,139365,5,0,0:0:0:0:
120,196,139538,1,2,0:0:0:0:
273,28,139710,5,8,0:0:0:0:
290,350,139883,1,0,0:0:0:0:
200,108,140055,5,6,0:0:0:0:
363,270,140227,1,0,0:0:0:0:
120,196,140400,1,8,0:0:0:0:
438,179,140572,1,0,0:0:0:0:
319,19,140745,5,0,0:0:0:0:
325,61,140831,1,0,0:0:0:0:
332,103,140917,1,2,0:0:0:0:
339,145,141003,1,0,0:0:0:0:
346,187,141090,1,8,0:0:0:0:
470,58,141262,5,0,0:0:0:0:
445,49,141348,1,0,0:0:0:0:
420,40,141434,1,2,0:0:0:0:
197,192,141607,1,0,0:0:0:0:
221,183,141693,1,0,0:0:0:0:
246,174,141779,1,8,0:0:0:0:
367,319,141952,5,0,0:0:0:0:
325,61,142124,1,0,0:0:0:0:
123,226,142296,1,2,0:0:0:0:
346,187,142469,2,0,L|486:164,1,105,8|0,0:0|0:0,0:0:0:0:
186,107,142814,5,6,0:0:0:0:
120,376,142986,1,0,0:0:0:0:
186,107,143159,1,8,0:0:0:0:
233,313,143331,1,0,0:0:0:0:
156,221,143503,2,0,L|259:201,1,105,0|2,0:0|0:0,0:0:0:0:
68,49,143848,2,0,P|85:98|91:150,1,105,8|0,0:0|0:0,0:0:0:0:
322,287,144193,2,0,P|327:234|345:186,1,105,2|0,0:0|0:0,0:0:0:0:
88,313,144538,5,8,0:0:0:0:
235,74,144710,1,0,0:0:0:0:
237,222,144883,1,0,0:0:0:0:
237,244,144969,1,8,0:0:0:0:
237,266,145055,1,2,0:0:0:0:
235,52,145227,1,8,0:0:0:0:
383,308,145400,1,0,0:0:0:0:
235,30,145572,6,0,L|357:13,1,105,6|0,0:0|0:0,0:0:0:0:
408,58,145831,1,0,0:0:0:0:
408,58,145917,2,0,B|430:105|430:105|411:155,1,105,8|0,0:0|0:0,0:0:0:0:
214,272,146262,5,0,0:0:0:0:
386,232,146434,1,2,0:0:0:0:
138,243,146607,1,8,0:0:0:0:
462,261,146780,5,0,0:0:0:0:
487,252,146866,1,0,0:0:0:0:
511,246,146952,2,0,L|497:363,1,105,2|0,0:0|0:0,0:0:0:0:
495,373,147210,1,0,0:0:0:0:
495,373,147296,1,8,0:0:0:0:
411,124,147469,5,0,0:0:0:0:
327,235,147642,1,0,0:0:0:0:
471,39,147814,1,2,0:0:0:0:
275,325,147987,1,8,0:0:0:0:
512,314,148159,1,0,0:0:0:0:
307,141,148331,6,0,L|447:118,1,105,6|0,0:0|0:0,0:0:0:0:
380,282,148676,1,8,0:0:0:0:
378,272,148762,1,0,0:0:0:0:
377,262,148848,1,0,0:0:0:0:
376,252,148934,1,0,0:0:0:0:
375,242,149020,1,0,0:0:0:0:
195,91,149193,5,2,0:0:0:0:
207,280,149365,1,8,0:0:0:0:
268,54,149537,5,0,0:0:0:0:
135,333,149709,1,2,0:0:0:0:
116,62,149882,5,0,0:0:0:0:
282,322,150055,1,8,0:0:0:0:
54,203,150227,5,0,0:0:0:0:
324,184,150400,1,0,0:0:0:0:
188,14,150572,1,2,0:0:0:0:
214,370,150745,1,8,0:0:0:0:
188,14,150917,1,0,0:0:0:0:
247,203,151090,5,2,0:0:0:0:
39,94,151262,1,0,0:0:0:0:
49,329,151434,1,8,0:0:0:0:
121,217,151607,1,0,0:0:0:0:
316,23,151779,5,0,0:0:0:0:
322,65,151865,1,0,0:0:0:0:
329,107,151951,1,2,0:0:0:0:
336,149,152037,1,0,0:0:0:0:
343,191,152124,1,8,0:0:0:0:
503,63,152296,5,0,0:0:0:0:
506,54,152383,1,0,0:0:0:0:
509,47,152469,2,0,P|477:9|415:19,1,105,2|0,0:0|0:0,0:0:0:0:
422,18,152727,1,0,0:0:0:0:
419,27,152814,1,8,0:0:0:0:
270,87,152986,5,0,0:0:0:0:
232,380,153159,1,0,0:0:0:0:
270,87,153331,1,2,0:0:0:0:
66,297,153503,1,8,0:0:0:0:
354,247,153676,1,0,0:0:0:0:
91,118,153848,5,6,0:0:0:0:
213,227,154021,1,0,0:0:0:0:
163,5,154193,1,8,0:0:0:0:
66,297,154365,1,0,0:0:0:0:
270,87,154538,5,0,0:0:0:0:
91,118,154710,1,2,0:0:0:0:
222,302,154883,1,8,0:0:0:0:
163,5,155055,1,0,0:0:0:0:
123,379,155227,5,2,0:0:0:0:
122,373,155314,1,0,0:0:0:0:
123,368,155400,1,0,0:0:0:0:
125,364,155486,1,0,0:0:0:0:
129,360,155572,5,8,0:0:0:0:
54,369,155658,1,0,0:0:0:0:
1,315,155744,1,8,0:0:0:0:
9,240,155830,1,8,0:0:0:0:
75,200,155918,1,0,0:0:0:0:
142,162,156004,1,0,0:0:0:0:
151,85,156090,1,2,0:0:0:0:
94,33,156176,1,0,0:0:0:0:
22,42,156262,6,0,L|51:155,1,68.2499968757631,8|0,0:0|0:0,0:0:0:0:
210,257,156434,2,0,L|225:191,1,68.2499968757631
54,369,156607,5,6,0:0:0:0:
