osu file format v14

[General]
AudioFilename: Traktion - Gid V.mp3
AudioLeadIn: 0
PreviewTime: 68331
Countdown: 0
SampleSet: Soft
StackLeniency: 0.3
Mode: 0
LetterboxInBreaks: 0
WidescreenStoryboard: 1

[Editor]
Bookmarks: 13159,24193,35227,46262,57296,68331,79365,90400,99365,112469,124538,135917,145572,156607
DistanceSpacing: 0.3
BeatDivisor: 4
GridSize: 32
TimelineZoom: 1.5

[Metadata]
Title:Gid V (Cut Ver.)
TitleUnicode:Gid V (Cut Ver.)
Artist:Traktion
ArtistUnicode:Traktion
Creator:Buttercup
Version:Collab Insane
Source:
Tags:dnb drum and bass cut version collaboration Shadren Damnae galvenize Asphyxia Kuron-kun
BeatmapID:3624702
BeatmapSetID:285249

[Difficulty]
HPDrainRate:7
CircleSize:3
OverallDifficulty:8
ApproachRate:9
SliderMultiplier:1.8
SliderTickRate:1

[Events]
//Background and Video events
0,0,"BG.jpg",0,0
//Break Periods
//Storyboard Layer 0 (Background)
//Storyboard Layer 1 (Fail)
//Storyboard Layer 2 (Pass)
//Storyboard Layer 3 (Foreground)
//Storyboard Layer 4 (Overlay)
//Storyboard Sound Samples

[TimingPoints]
13159,344.827586206897,4,2,1,30,1,0
13159,-200,4,2,1,15,0,0
24193,-142.857142857143,4,2,1,60,0,0
35227,-100,4,2,1,60,0,0
44883,-100,4,2,1,10,0,0
44969,-100,4,2,1,15,0,0
45055,-100,4,2,1,20,0,0
45141,-100,4,2,1,25,0,0
45227,-100,4,2,1,30,0,0
45314,-100,4,2,1,35,0,0
45400,-100,4,2,1,45,0,0
45486,-100,4,2,1,55,0,0
45572,-100,4,2,1,60,0,0
46262,-125,4,2,1,60,0,0
57296,-100,4,2,1,60,0,0
63762,-100,4,2,1,5,0,0
63848,-100,4,2,1,60,0,0
66952,-100,4,2,66,30,0,0
68331,-100,4,2,1,60,0,1
79365,-133.333333333333,4,2,1,60,0,1
79883,-83.3333333333333,4,2,1,60,0,1
80572,-100,4,2,1,60,0,1
86952,-133.333333333333,4,2,1,60,0,1
87296,-66.6666666666667,4,2,1,60,0,1
87641,-100,4,2,1,60,0,1
90400,-100,4,2,1,60,0,0
91693,-100,4,2,1,5,0,0
91779,-100,4,2,1,60,0,0
93072,-100,4,2,1,5,0,0
93159,-100,4,2,1,60,0,0
94452,-100,4,2,1,5,0,0
94538,-100,4,2,1,60,0,0
95917,-100,4,2,1,60,0,0
97210,-100,4,2,1,5,0,0
97296,-100,4,2,1,60,0,0
98590,-100,4,2,1,5,0,0
98676,-100,4,2,1,60,0,0
99969,-100,4,2,1,5,0,0
100055,-100,4,2,1,60,0,0
102727,-100,4,2,1,5,0,0
102814,-100,4,2,1,60,0,0
104107,-100,4,2,1,5,0,0
104193,-100,4,2,1,60,0,0
105486,-100,4,2,1,5,0,0
105572,-100,4,2,1,60,0,0
108245,-100,4,2,1,5,0,0
108331,-100,4,2,1,60,0,0
109624,-100,4,2,1,5,0,0
109710,-100,4,2,1,60,0,0
111003,-100,4,2,1,5,0,0
111090,-200,4,2,1,60,0,0
111434,-133.333333333333,4,2,1,60,0,0
111779,-100,4,2,1,60,0,0
112124,-86.9565217391304,4,2,1,60,0,0
112469,-100,4,2,33,60,0,0
135572,-100,4,2,33,60,0,1
135917,-100,4,2,1,60,0,1
156607,-100,4,2,1,60,0,0

[Colours]
Combo1 : 255,94,55
Combo2 : 173,255,95
Combo3 : 17,254,176
Combo4 : 255,88,100

[HitObjects]
68,280,13159,6,0,L|208:268,1,135
202,268,14193,2,0,L|190:133,1,135
284,320,15055,2,0,L|327:316,2,45,0|2|0,0:0|0:0|0:0,0:0:0:0:
412,360,15745,1,0,0:0:0:0:
472,288,15917,6,0,P|488:244|468:148,2,135
37,225,17469,2,0,P|26:180|39:136,1,90
108,184,17986,2,0,L|160:176,1,45,2|0,0:0|0:0,0:0:0:0:
37,225,18331,2,0,L|89:217,1,45
216,312,18676,6,0,B|259:306|259:306|344:340,1,135,0|0,0:1|0:1,0:1:0:0:
344,340,19710,2,0,B|378:255|378:255|372:212,1,135
116,176,20745,1,2,0:0:0:0:
116,176,20917,2,0,P|156:196|208:184,1,90
168,120,21434,5,0,0:0:0:0:
168,120,21607,1,0,0:0:0:0:
384,268,21952,1,0,0:0:0:0:
383,267,22124,2,0,P|339:261|300:281,1,90
356,340,22641,2,0,P|399:346|439:326,2,90
300,280,23503,5,2,0:0:0:0:
312,184,23676,5,0,0:0:0:0:
324,88,23848,5,0,0:0:0:0:
312,184,24021,5,0,0:0:0:0:
164,48,24193,6,0,P|104:32|44:48,1,125.999996154785,4|0,0:0|0:0,0:0:0:0:
104,252,24710,2,0,P|120:191|104:131,1,125.999996154785,4|0,0:0|0:0,0:0:0:0:
43,336,25227,1,4,0:0:0:0:
348,48,26952,6,0,P|408:32|468:48,1,125.999996154785,4|0,0:0|0:0,0:0:0:0:
408,252,27469,2,0,P|391:191|407:131,1,125.999996154785,4|0,0:0|0:0,0:0:0:0:
469,336,27986,1,4,0:0:0:0:
164,48,29710,6,0,P|104:32|44:48,1,125.999996154785,4|0,0:0|0:0,0:0:0:0:
104,252,30227,2,0,P|120:191|104:131,1,125.999996154785,4|0,0:0|0:0,0:0:0:0:
43,336,30744,1,4,0:0:0:0:
348,48,32469,6,0,P|408:32|468:48,1,125.999996154785,4|0,0:0|0:0,0:0:0:0:
408,252,32986,2,0,P|391:191|407:131,1,125.999996154785,4|0,0:0|0:0,0:0:0:0:
469,336,33503,1,4,0:0:0:0:
49,72,35055,5,0,0:0:0:0:
49,72,35227,2,0,B|88:50|152:67|117:99|177:116|219:93,1,180
389,41,35745,1,0,0:0:0:0:
327,106,35917,2,0,L|332:195,1,90
322,349,36262,6,0,P|373:277|458:254,1,180
507,330,36779,1,0,0:0:0:0:
491,94,36952,2,0,B|516:137|516:137|496:205,1,90
325,161,37296,2,0,L|437:147,1,90
383,243,37641,1,0,0:0:0:0:
362,63,37814,1,0,0:0:0:0:
302,310,37986,6,0,P|369:340|396:373,1,90
171,267,38331,2,0,P|238:237|265:204,1,90
74,332,38676,2,0,P|141:362|168:395,1,90
67,154,39021,6,0,L|82:247,1,90
223,49,39538,1,0,0:0:0:0:
158,120,39710,1,0,0:0:0:0:
298,102,39883,1,0,0:0:0:0:
82,66,40055,1,0,0:0:0:0:
356,197,40400,2,0,L|266:209,1,90
296,379,40745,6,0,P|341:303|425:278,1,180
512,116,41262,1,0,0:0:0:0:
446,191,41434,2,0,P|433:148|405:113,1,90
512,307,41779,2,0,P|484:341|471:384,1,90
287,207,42296,5,0,0:0:0:0:
355,270,42469,1,0,0:0:0:0:
332,364,42641,1,0,0:0:0:0:
278,117,42814,2,0,P|335:130|371:180,1,90
263,294,43159,2,0,L|140:310,1,90
149,125,43503,6,0,P|187:189|194:246,1,90
27,383,43848,1,0,0:0:0:0:
32,216,44021,1,0,0:0:0:0:
173,305,44193,1,0,0:0:0:0:
77,302,44538,5,0,0:0:0:0:
191,204,44883,1,0,0:0:0:0:
200,204,44969,1,0,0:0:0:0:
209,204,45055,1,0,0:0:0:0:
218,204,45141,1,0,0:0:0:0:
227,204,45227,1,0,0:0:0:0:
236,204,45314,1,0,0:0:0:0:
245,204,45400,1,0,0:0:0:0:
254,204,45486,1,0,0:0:0:0:
264,204,45572,6,0,L|251:295,1,90
296,117,45917,1,0,0:0:0:0:
360,195,46090,1,0,0:0:0:0:
352,42,46262,1,0,0:0:0:0:
143,212,46607,5,0,0:0:0:0:
143,212,46779,2,0,B|151:177|151:177|143:142,1,72,2|2,3:0|0:0,0:0:0:0:
80,283,47124,1,2,3:0:0:0:
80,283,47296,2,0,B|72:318|72:318|80:353,1,72,2|2,3:0|0:0,0:0:0:0:
256,236,47641,6,0,B|300:212|344:224|344:224|394:239,1,144,2|2,3:0|3:0,0:0:0:0:
476,192,48159,1,2,3:0:0:0:
414,308,48331,2,0,L|395:239,1,72,2|2,0:0|0:0,0:0:0:0:
495,122,48676,2,0,L|476:192,1,72,2|2,3:0|3:0,0:0:0:0:
288,324,49021,6,0,B|268:328|256:340|256:340|244:328|224:324,1,72,2|2,0:0|0:0,0:0:0:0:
224,144,49365,2,0,B|244:140|256:128|256:128|268:140|288:144,1,72,2|2,3:0|0:0,0:0:0:0:
256,236,49710,2,0,L|128:164,1,144,2|2,0:0|0:0,0:0:0:0:
256,60,50227,2,0,L|381:130,1,144,2|2,0:0|0:0,0:0:0:0:
456,192,50745,6,0,P|463:227|456:262,1,72
382,130,51090,2,0,P|375:95|382:60,1,72,2|2,0:0|0:0,0:0:0:0:
457,4,51434,1,0,0:0:0:0:
382,59,51607,1,2,0:0:0:0:
457,4,51779,5,2,0:0:0:0:
382,59,51952,2,0,L|305:52,1,72,2|2,3:0|3:0,0:0:0:0:
171,111,52296,2,0,L|243:118,1,72,2|2,0:0|3:0,0:0:0:0:
104,177,52641,2,0,L|32:170,1,72,2|2,3:0|0:0,0:0:0:0:
171,111,52986,6,0,B|195:179|195:179|171:247,1,144,2|2,3:0|3:0,0:0:0:0:
104,313,53503,1,2,3:0:0:0:
171,247,53676,2,0,P|206:240|241:247,1,72,2|2,3:0|0:0,0:0:0:0:
377,311,54021,2,0,P|342:318|307:312,1,72,2|2,3:0|3:0,0:0:0:0:
344,224,54365,1,2,0:0:0:0:
344,224,54538,5,2,0:0:0:0:
463,368,54710,2,0,B|471:312|471:312|463:280|463:280|470:226,1,144,2|2,0:0|0:0,0:0:0:0:
398,88,55227,2,0,L|408:160,1,72,2|0,0:0|0:0,0:0:0:0:
468,24,55572,1,2,0:0:0:0:
468,24,55745,1,2,0:0:0:0:
320,144,55917,5,2,0:0:0:0:
320,144,56090,2,0,P|256:172|192:144,2,144,2|2|2,0:0|0:0|0:0,0:0:0:0:
256,76,56952,1,2,0:0:0:0:
322,330,57124,1,0,0:0:0:0:
265,262,57296,6,0,P|232:317|234:357,1,90
336,197,57641,1,0,0:0:0:0:
167,240,57814,1,0,0:0:0:0:
366,111,57986,2,0,L|405:326,1,180
412,376,58503,1,0,0:0:0:0:
292,258,58676,6,0,B|269:217|269:217|287:147,1,90
470,145,59021,2,0,B|493:186|493:186|475:256,1,90
383,203,59365,1,0,0:0:0:0:
383,203,59710,2,0,L|366:97,1,90
395,310,60055,6,0,P|336:343|309:392,1,90
273,135,60400,2,0,L|288:224,1,90
128,343,60745,1,0,0:0:0:0:
196,277,60917,1,0,0:0:0:0:
107,256,61090,1,0,0:0:0:0:
217,364,61262,1,0,0:0:0:0:
164,98,61434,6,0,L|178:186,1,90
233,38,61779,1,0,0:0:0:0:
75,148,61952,1,0,0:0:0:0:
196,277,62124,2,0,P|230:249|274:238,1,90
369,370,62469,1,0,0:0:0:0:
273,238,62641,1,0,0:0:0:0:
409,190,62814,6,0,L|392:278,1,90
512,120,63159,2,0,L|424:104,1,90
280,11,63503,2,0,P|328:101|321:164,1,135
328,131,63848,2,0,P|276:176|238:172,1,90
104,85,64193,5,0,0:0:0:0:
216,272,64365,1,0,0:0:0:0:
153,176,64538,1,0,0:0:0:0:
41,363,64710,1,0,0:0:0:0:
65,195,64883,6,0,L|153:176,1,90
247,372,65227,2,0,L|159:353,1,90
242,151,65572,5,0,0:0:0:0:
190,295,66952,5,0,0:0:0:0:
342,384,67296,1,0,0:0:0:0:
195,206,67641,5,0,0:0:0:0:
185,384,67814,1,0,0:0:0:0:
291,192,67986,5,0,0:0:0:0:
313,189,68072,1,0,0:0:0:0:
335,187,68158,1,0,0:0:0:0:
358,185,68244,1,0,0:0:0:0:
380,182,68330,5,0,0:0:0:0:
457,106,68503,1,2,0:0:0:0:
457,106,68590,1,0,0:0:0:0:
457,106,68676,2,0,P|469:63|457:20,1,90,8|2,0:0|0:0,0:0:0:0:
381,183,69021,2,0,P|369:226|381:269,1,90,0|2,0:0|1:2,0:0:0:0:
457,344,69365,1,8,1:2:0:0:
272,264,69538,6,0,B|224:228|168:244|168:244|100:264,1,180,2|2,3:0|3:0,0:0:0:0:
40,176,70055,1,8,0:0:0:0:
100,360,70227,1,2,0:0:0:0:
100,360,70314,1,0,0:0:0:0:
100,360,70400,1,0,0:0:0:0:
160,176,70572,1,2,1:2:0:0:
4,292,70745,1,8,1:2:0:0:
196,292,70917,1,2,0:0:0:0:
40,176,71090,6,0,P|29:134|40:91,1,90,4|2,1:0|0:0,0:0:0:0:
100,36,71348,1,0,0:0:0:0:
100,36,71434,2,0,L|12:16,1,90,8|2,0:0|0:0,0:0:0:0:
144,136,71779,2,0,L|232:116,1,90,0|2,0:0|1:2,0:0:0:0:
377,117,72124,1,8,1:2:0:0:
290,180,72296,6,0,B|250:168|232:116|232:116|250:64|290:52,1,180,2|2,3:0|3:0,0:0:0:0:
448,76,72814,2,0,P|459:118|448:161,1,90,8|2,0:0|0:0,0:0:0:0:
388,216,73072,1,0,0:0:0:0:
388,216,73158,2,0,L|476:236,1,90,0|2,0:0|1:0,0:0:0:0:
389,315,73503,2,0,L|301:335,1,90,8|2,1:2|0:1,0:0:0:0:
117,355,73848,5,4,1:0:0:0:
41,180,74021,1,2,0:0:0:0:
37,172,74107,1,0,0:0:0:0:
33,165,74193,1,8,0:0:0:0:
148,252,74365,1,2,0:0:0:0:
224,77,74538,1,2,0:0:0:0:
228,70,74624,1,0,0:0:0:0:
231,62,74710,1,2,1:2:0:0:
235,54,74796,1,2,0:0:0:0:
239,47,74883,1,8,1:2:0:0:
148,252,75055,6,0,L|138:208,2,45,2|0|0,3:0|0:0|1:0,0:0:0:0:
261,198,75400,2,0,L|271:154,2,45,2|0|8,3:0|0:0|0:0,0:0:0:0:
116,360,75745,5,2,0:0:0:0:
256,308,75917,1,0,0:0:0:0:
32,280,76090,1,2,1:2:0:0:
261,198,76262,1,10,1:2:0:0:
269,195,76348,1,0,0:0:0:0:
277,192,76434,1,2,0:0:0:0:
286,189,76520,1,2,0:0:0:0:
295,186,76607,5,4,1:0:0:0:
356,96,76779,1,2,0:0:0:0:
424,180,76952,1,8,0:0:0:0:
356,96,77124,2,0,P|344:53|356:10,1,90,2|0,0:0|0:0,0:0:0:0:
424,180,77469,2,0,P|436:223|424:266,1,90,2|8,1:2|1:2,0:0:0:0:
348,307,77814,2,0,P|424:266|500:307,1,180,2|2,3:0|3:0,0:0:0:0:
256,352,78331,6,0,P|244:309|256:266,1,90,10|2,0:0|0:0,0:0:0:0:
272,240,78590,1,0,0:0:0:0:
288,212,78676,1,8,0:0:0:0:
288,180,78762,1,2,1:0:0:0:
272,152,78848,1,2,1:2:0:0:
176,200,79021,1,8,1:2:0:0:
84,256,79193,1,2,0:0:0:0:
84,256,79279,1,0,0:0:0:0:
84,256,79365,5,4,1:2:0:0:
52,296,79538,2,0,L|126:290,1,67.5000025749208,0|8,0:0|0:0,0:0:0:0:
196,236,79883,1,0,0:0:0:0:
380,344,80055,6,0,P|368:300|372:224,2,107.999996704102,0|0|8,0:0|1:0|0:0,0:0:0:0:
480,120,80572,6,0,L|380:112,1,90,0|4,0:0|1:2,0:0:0:0:
324,68,80917,2,0,L|224:76,1,90,0|8,0:0|0:0,0:0:0:0:
126,142,81262,1,0,0:0:0:0:
118,134,81348,1,0,0:0:0:0:
109,127,81434,1,0,0:0:0:0:
100,121,81520,1,0,0:0:0:0:
90,116,81606,1,0,1:0:0:0:
128,320,81779,2,0,P|172:324|212:288,1,90,8|0,0:0|0:0,0:0:0:0:
64,220,82124,5,4,1:2:0:0:
112,340,82296,1,0,0:0:0:0:
80,196,82469,5,8,0:0:0:0:
0,356,82641,1,0,0:0:0:0:
92,176,82814,6,0,L|76:84,1,90,0|0,0:0|1:0,0:0:0:0:
256,32,83159,2,0,P|255:76|241:119,1,90,8|0,0:0|0:0,0:0:0:0:
232,128,83417,1,0,0:0:0:0:
224,136,83503,6,0,L|340:128,1,90,4|0,1:2|0:0,0:0:0:0:
248,300,83848,2,0,L|156:292,1,90,8|0,0:0|0:0,0:0:0:0:
340,344,84193,5,0,0:0:0:0:
328,208,84365,1,0,1:0:0:0:
468,188,84538,1,8,0:0:0:0:
480,324,84710,1,0,0:0:0:0:
328,208,84883,6,0,P|325:161|332:108,1,90,4|0,1:2|0:0,0:0:0:0:
216,248,85227,1,8,0:0:0:0:
416,196,85400,1,0,0:0:0:0:
188,54,85572,5,0,0:0:0:0:
179,58,85659,1,0,0:0:0:0:
140,40,85745,5,0,1:0:0:0:
136,49,85832,1,0,0:0:0:0:
93,58,85917,5,8,0:0:0:0:
132,304,86090,6,0,P|116:248|96:212,1,90,0|4,0:0|1:2,0:0:0:0:
256,360,86434,2,0,P|272:304|292:268,1,90,0|8,0:0|0:0,0:0:0:0:
216,180,86779,1,0,0:0:0:0:
400,192,86952,6,0,P|419:232|424:288,1,101.250003862381
416,300,87296,6,0,P|468:244|492:240,1,67.5000025749208,8|0,0:0|0:0,0:0:0:0:
492,328,87469,2,0,P|440:384|416:388,1,67.5000025749208
284,316,87641,6,0,L|172:324,2,90,4|0|8,1:2|0:0|0:0,0:0:0:0:
116,352,88159,2,0,B|101:332|114:294|114:294|68:263|68:263|65:220|15:182,1,180,0|0,0:0|1:0,0:0:0:0:
148,208,88676,1,8,0:0:0:0:
191,39,88848,1,0,0:0:0:0:
371,92,89021,6,0,L|279:100,1,90,4|0,1:2|0:0,0:0:0:0:
438,236,89365,5,8,0:0:0:0:
428,259,89451,1,0,0:0:0:0:
408,275,89537,1,8,0:0:0:0:
382,277,89623,1,0,0:0:0:0:
358,265,89709,1,8,0:0:0:0:
344,242,89796,1,0,0:0:0:0:
345,216,89882,1,8,0:0:0:0:
359,193,89968,1,0,0:0:0:0:
382,178,90055,5,8,3:0:0:0:
396,155,90141,1,8,3:0:0:0:
396,129,90227,1,8,3:0:0:0:
382,106,90314,1,8,3:0:0:0:
370,91,90400,6,0,L|265:101,1,90
264,102,90659,1,0,0:0:0:0:
248,105,90745,1,0,0:0:0:0:
122,109,90918,1,0,0:0:0:0:
150,142,91004,1,0,0:0:0:0:
159,186,91090,1,0,0:0:0:0:
174,26,91262,1,0,0:0:0:0:
24,147,91434,2,0,P|70:208|65:286,1,135
4,311,91779,6,0,P|34:343|78:348,1,90
341,293,92124,2,0,L|236:283,1,90
158,304,92383,1,0,0:0:0:0:
158,304,92469,2,0,P|193:360|201:407,1,90
193,225,92814,2,0,B|183:195|187:145|205:174|213:130|197:89,1,135
127,38,93159,6,0,P|183:1|236:14,1,90
216,5,93417,1,0,0:0:0:0:
224,15,93503,1,0,0:0:0:0:
294,167,93676,1,0,0:0:0:0:
303,123,93762,1,0,0:0:0:0:
331,90,93848,2,0,L|437:97,1,90
380,248,94193,2,0,P|305:267|262:328,1,135
199,362,94538,6,0,B|175:323|175:323|186:281,1,90
457,187,94883,2,0,B|481:226|481:226|470:268,1,90
361,350,95141,1,0,0:0:0:0:
361,350,95227,2,0,L|485:365,1,90
352,161,95572,2,0,L|248:171,1,90
262,169,95831,1,0,0:0:0:0:
262,169,95917,6,0,L|158:179,1,90
274,266,96262,1,0,0:0:0:0:
253,79,96434,2,0,L|262:169,1,90
286,359,96779,1,0,0:0:0:0:
178,275,96952,2,0,P|116:298|79:354,1,135
79,354,97296,5,0,0:0:0:0:
0,223,97469,1,0,0:0:0:0:
16,81,97641,1,0,0:0:0:0:
26,58,97727,1,0,0:0:0:0:
47,43,97813,1,0,0:0:0:0:
73,41,97899,1,0,0:0:0:0:
96,54,97985,1,0,0:0:0:0:
102,272,98158,1,0,0:0:0:0:
78,140,98331,2,0,L|107:297,1,135
72,366,98676,6,0,L|197:345,1,90
275,193,99021,1,0,0:0:0:0:
308,290,99193,1,0,0:0:0:0:
308,290,99279,1,0,0:0:0:0:
308,290,99365,2,0,L|183:269,1,90
140,97,99710,2,0,L|157:200,1,90
124,6,100055,5,0,0:0:0:0:
49,113,100227,1,0,0:0:0:0:
231,81,100400,5,0,0:0:0:0:
154,185,100572,1,0,0:0:0:0:
124,6,100745,5,0,0:0:0:0:
124,6,100831,1,0,0:0:0:0:
124,6,100917,1,0,0:0:0:0:
231,81,101090,2,0,L|348:58,1,90
512,0,101434,6,0,P|481:68|479:113,1,90
245,188,101779,2,0,L|362:165,1,90
400,113,102038,1,0,0:0:0:0:
400,113,102124,2,0,B|424:152|424:152|413:194,1,90
429,376,102469,2,0,P|403:314|347:279,1,135
347,279,102814,6,0,L|252:296,1,90
235,298,103072,1,0,0:0:0:0:
235,298,103158,1,0,0:0:0:0:
45,249,103331,1,0,0:0:0:0:
78,264,103417,1,0,0:0:0:0:
87,295,103503,2,0,L|77:400,1,90
61,146,103848,2,0,B|92:146|138:167|104:174|143:197|187:196,1,135
254,249,104193,6,0,B|278:210|278:210|267:168,1,90
201,12,104538,2,0,L|290:0,1,90
302,81,104796,1,0,0:0:0:0:
302,81,104883,2,0,L|212:92,1,90
369,200,105227,2,0,P|384:126|455:66,1,135
422,82,105572,6,0,L|524:81,1,90
428,260,105917,1,0,0:0:0:0:
418,283,106003,1,0,0:0:0:0:
397,298,106089,1,0,0:0:0:0:
371,300,106175,1,0,0:0:0:0:
348,287,106261,1,0,0:0:0:0:
258,170,106434,1,0,0:0:0:0:
274,362,106607,2,0,P|222:328|157:325,1,90
104,288,106865,1,0,0:0:0:0:
104,288,106952,6,0,L|113:398,1,90
19,252,107296,1,0,0:0:0:0:
195,323,107469,1,0,0:0:0:0:
139,119,107641,2,0,B|163:158|163:158|152:200,1,90
1,60,107986,2,0,L|160:24,1,135
132,30,108331,6,0,L|242:4,1,90
337,147,108676,2,0,L|227:121,1,90
308,43,108934,1,0,0:0:0:0:
308,43,109021,2,0,L|418:17,1,90
378,308,109365,2,0,B|377:268|400:229|407:263|428:217|428:186,1,135
424,100,109710,6,0,P|489:127|507:150,1,90
497,28,110055,1,0,0:0:0:0:
338,152,110227,1,0,0:0:0:0:
338,152,110314,1,0,0:0:0:0:
338,152,110400,2,0,B|314:113|314:113|325:71,1,90
397,249,110745,2,0,B|433:288|433:288|417:376,1,135
418,368,111090,6,0,L|474:376,1,45
233,297,111434,6,0,L|299:287,1,67.5000025749208
52,369,111779,6,0,L|142:382,1,90
168,121,112124,6,0,P|208:195|215:255,1,103.500001974106
238,382,112469,5,4,1:0:0:0:
297,213,112641,2,0,P|254:201|211:213,1,90,0|8,0:0|0:0,0:0:0:0:
366,292,112986,2,0,P|401:212|366:132,1,180,2|0,0:0|1:0,0:0:0:0:
291,57,113503,1,8,1:2:0:0:
446,132,113676,6,0,B|414:132|414:132|406:128|406:128|406:136|406:136|398:132|398:132|366:132,1,90,2|0,0:1|1:0,0:0:0:0:
275,41,114021,2,0,B|307:41|307:41|315:45|315:45|315:37|315:37|323:41|323:41|355:41,1,90,2|8,0:1|0:0,0:0:0:0:
462,148,114365,6,0,B|430:148|430:148|422:144|422:144|422:152|422:152|414:148|414:148|382:148,1,90,2|0,0:1|0:0,0:0:0:0:
291,57,114710,2,0,B|323:57|323:57|331:61|331:61|331:53|331:53|339:57|339:57|371:57,1,90,2|8,1:0|1:2,0:0:0:0:
478,165,115055,5,2,0:1:0:0:
256,264,115227,6,0,P|213:276|170:264,1,90,0|0,1:0|0:0,0:0:0:0:
104,180,115572,1,8,0:0:0:0:
212,180,115745,2,0,L|340:308,1,180,2|0,0:0|1:0,0:0:0:0:
428,368,116262,1,8,1:2:0:0:
234,328,116434,6,0,L|170:264,1,90,2|0,0:1|1:0,0:0:0:0:
360,212,116779,2,0,L|424:276,1,90,2|8,0:1|0:0,0:0:0:0:
236,304,117124,6,0,L|172:240,1,90,2|0,0:1|0:0,0:0:0:0:
362,188,117469,2,0,L|426:252,1,90,2|8,1:0|1:2,0:0:0:0:
174,216,117814,5,2,0:1:0:0:
264,32,117986,6,0,B|308:12|348:36|348:36|344:24|344:24|380:44|420:32,1,180,0|8,1:0|1:2,0:0:0:0:
300,128,118503,2,0,B|256:148|216:124|216:124|220:136|220:136|184:116|144:128,1,180,2|0,0:0|1:0,0:0:0:0:
52,68,119021,1,8,1:2:0:0:
174,216,119193,6,0,P|185:258|174:301,1,90,2|0,0:1|1:0,0:0:0:0:
53,153,119538,2,0,P|41:111|52:68,1,90,2|8,0:1|0:0,0:0:0:0:
156,232,119883,6,0,P|167:274|156:317,1,90,2|0,0:1|0:0,0:0:0:0:
34,168,120228,2,0,P|22:125|33:82,1,90,2|8,1:0|1:2,0:0:0:0:
138,248,120572,5,2,0:1:0:0:
242,328,120745,2,0,L|420:348,1,180,0|8,1:0|1:2,0:0:0:0:
497,271,121262,1,2,0:0:0:0:
420,192,121434,5,0,0:0:0:0:
376,180,121520,1,2,0:3:0:0:
332,192,121606,1,2,1:3:0:0:
288,204,121693,1,0,0:0:0:0:
244,192,121779,1,0,1:0:0:0:
288,12,121952,6,0,B|302:28|308:52|308:52|302:76|288:92,1,90,2|0,0:1|1:0,0:0:0:0:
156,232,122296,2,0,B|142:216|136:192|136:192|142:168|156:152,1,90,2|10,0:1|1:2,0:0:0:0:
304,36,122641,5,2,0:1:0:0:
172,256,122814,1,0,0:0:0:0:
165,262,122900,1,8,0:0:0:0:
158,268,122986,1,0,1:0:0:0:
151,274,123072,1,0,0:0:0:0:
144,280,123159,1,8,1:2:0:0:
0,344,123331,1,8,0:0:0:0:
88,192,123503,5,4,0:0:0:0:
160,100,123676,1,2,0:1:0:0:
88,8,123848,5,2,0:1:0:0:
256,360,124193,5,2,0:1:0:0:
88,192,124538,5,8,0:0:0:0:
76,296,124710,2,0,L|96:204,1,90,0|4,0:0|1:2,0:0:0:0:
168,280,125055,2,0,L|188:188,1,90,0|8,0:0|0:0,0:0:0:0:
264,264,125400,2,0,L|284:172,1,90
356,248,125745,2,0,L|376:156,2,90,0|8|0,1:0|0:0|0:0,0:0:0:0:
424,304,126262,6,0,P|384:332|328:328,1,90,4|0,1:2|0:0,0:0:0:0:
375,160,126607,2,0,P|415:132|471:136,1,90,8|0,0:0|0:0,0:0:0:0:
256,80,126952,1,0,0:0:0:0:
240,64,127038,1,0,0:0:0:0:
220,53,127124,1,0,1:0:0:0:
198,48,127210,1,0,0:0:0:0:
176,50,127296,1,8,0:0:0:0:
72,192,127469,6,0,L|60:300,1,90,0|4,0:0|1:2,0:0:0:0:
156,240,127814,2,0,L|144:348,1,90,0|8,0:0|0:0,0:0:0:0:
252,280,128159,2,0,L|240:388,1,90
324,216,128504,2,0,P|288:186|236:184,2,90,0|8|0,1:0|0:0|0:0,0:0:0:0:
148,328,129021,6,0,P|103:322|70:293,1,90,4|0,1:2|0:0,0:0:0:0:
240,372,129365,1,8,0:0:0:0:
324,216,129538,1,0,0:0:0:0:
140,248,129710,1,0,0:0:0:0:
136,232,129796,1,0,0:0:0:0:
132,214,129883,1,0,1:0:0:0:
129,198,129969,1,0,0:0:0:0:
125,180,130055,1,8,0:0:0:0:
256,68,130227,6,0,P|324:60|352:76,1,90,0|4,0:0|1:2,0:0:0:0:
380,192,130572,2,0,P|388:260|372:288,1,90,0|8,0:0|0:0,0:0:0:0:
256,316,130917,2,0,P|188:324|160:308,1,90
132,192,131262,2,0,P|124:124|140:96,2,90,0|8|0,1:0|0:0|0:0,0:0:0:0:
56,288,131779,5,4,1:2:0:0:
144,280,131952,1,0,0:0:0:0:
232,272,132124,1,8,0:0:0:0:
320,264,132297,1,0,0:0:0:0:
408,256,132469,5,0,0:0:0:0:
488,360,132641,1,0,1:0:0:0:
408,256,132814,2,0,L|428:162,1,90,8|0,0:0|0:0,0:0:0:0:
496,48,133159,5,4,3:0:0:0:
460,74,133245,1,4,3:0:0:0:
416,84,133331,1,4,3:0:0:0:
371,74,133417,1,4,3:0:0:0:
336,48,133503,5,8,0:0:0:0:
300,22,133589,1,4,3:0:0:0:
256,12,133675,1,4,3:0:0:0:
211,22,133761,1,4,3:0:0:0:
176,48,133848,5,0,0:0:0:0:
256,192,134021,1,12,3:0:0:0:
336,48,134193,5,8,0:0:0:0:
256,160,134365,1,0,0:0:0:0:
176,48,134538,5,4,3:0:0:0:
176,48,135400,1,4,3:0:0:0:
256,192,135573,1,8,1:2:0:0:
176,336,135745,6,0,P|96:372|16:336,1,180,2|2,3:0|3:0,0:0:0:0:
176,236,136262,1,8,0:0:0:0:
336,336,136433,1,2,0:0:0:0:
336,336,136520,1,0,0:0:0:0:
336,336,136606,1,0,0:0:0:0:
176,336,136780,1,2,1:2:0:0:
336,236,136952,1,8,1:2:0:0:
481,342,137125,1,2,0:0:0:0:
336,213,137296,6,0,P|325:171|336:128,1,90,4|2,1:0|0:0,0:0:0:0:
396,73,137556,1,0,0:0:0:0:
396,73,137642,2,0,B|351:73|351:73|319:41,1,90,8|2,0:0|0:0,0:0:0:0:
116,73,137986,2,0,B|161:73|161:73|192:41,1,90,0|2,0:0|0:0,0:0:0:0:
256,140,138332,1,8,1:2:0:0:
319,238,138503,6,0,B|280:260|256:301|256:301|232:260|193:238,1,180,0|2,0:0|0:0,0:0:0:0:
319,238,139022,2,0,B|319:282|319:282|351:314,1,90,8|2,0:0|0:0,0:0:0:0:
420,359,139280,1,0,0:0:0:0:
420,359,139366,2,0,L|420:269,1,90,0|2,0:0|1:0,0:0:0:0:
193,238,139710,2,0,B|193:282|193:282|161:314,1,90,8|2,1:2|1:0,0:0:0:0:
256,140,140056,5,4,1:0:0:0:
319,41,140227,1,2,0:0:0:0:
323,33,140315,1,0,0:0:0:0:
327,26,140401,1,8,0:0:0:0:
256,185,140573,1,2,0:0:0:0:
193,41,140746,1,2,0:0:0:0:
189,34,140832,1,0,0:0:0:0:
186,26,140918,1,2,1:2:0:0:
182,18,141004,1,2,0:0:0:0:
178,11,141091,1,8,1:2:0:0:
382,140,141263,6,0,L|382:185,2,45,2|0|0,3:0|0:0|1:0,0:0:0:0:
130,140,141607,2,0,L|130:185,2,45,2|0|8,3:0|0:0|0:0,0:0:0:0:
314,244,141953,5,2,0:0:0:0:
198,244,142125,1,0,0:0:0:0:
314,140,142296,1,2,1:2:0:0:
198,140,142470,1,10,1:2:0:0:
198,132,142556,1,0,0:0:0:0:
198,124,142642,1,2,0:0:0:0:
198,116,142728,1,2,0:0:0:0:
198,108,142815,5,4,1:0:0:0:
382,192,142987,1,2,0:0:0:0:
198,276,143160,1,8,0:0:0:0:
314,140,143332,2,0,L|377:76,1,90,2|0,0:0|0:0,0:0:0:0:
314,244,143676,2,0,L|377:307,1,90,2|8,1:2|1:2,0:0:0:0:
198,192,144022,2,0,B|121:192|121:192|113:196|113:196|113:188|113:188|105:192|105:192|28:192,1,180,2|2,3:0|3:0,0:0:0:0:
230,52,144539,6,0,P|242:95|230:138,1,90,10|2,0:0|0:0,0:0:0:0:
214,164,144796,1,0,0:0:0:0:
198,192,144884,1,8,0:0:0:0:
198,224,144970,1,2,1:0:0:0:
214,252,145056,1,2,1:2:0:0:
360,192,145227,1,8,1:2:0:0:
506,252,145401,5,2,0:0:0:0:
506,252,145487,1,0,0:0:0:0:
506,252,145573,1,4,1:2:0:0:
