osu file format v14

[General]
AudioFilename: Traktion - Amethyst.mp3
AudioLeadIn: 0
PreviewTime: 75505
Countdown: 0
SampleSet: Normal
StackLeniency: 0.5
Mode: 0
LetterboxInBreaks: 0
EpilepsyWarning: 1
WidescreenStoryboard: 1

[Editor]
Bookmarks: 10786,21573,31011,86292,161797
DistanceSpacing: 1
BeatDivisor: 4
GridSize: 4
TimelineZoom: 3.5

[Metadata]
Title:Amethyst
TitleUnicode:Amethyst
Artist:Traktion
ArtistUnicode:Traktion
Creator:Shyotamaze
Version:Ren's Easy
Source:
Tags:mission ascii ep drum and bass dnb 6th galvenize DeRandom Otaku collaboration
BeatmapID:1072943
BeatmapSetID:457042

[Difficulty]
HPDrainRate:2
CircleSize:2.4
OverallDifficulty:2
ApproachRate:2.5
SliderMultiplier:0.9
SliderTickRate:1

[Events]
//Background and Video events
0,0,"Amethyst.jpg",0,0
//Break Periods
2,21773,29511
2,97278,115803
//Storyboard Layer 0 (Background)
//Storyboard Layer 1 (Fail)
//Storyboard Layer 2 (Pass)
//Storyboard Layer 3 (Foreground)
//Storyboard Sound Samples

[TimingPoints]
0,337.078651685393,4,2,1,35,1,0
31011,-100,4,1,1,70,0,0
75505,-100,4,1,1,70,0,1
97078,-100,4,1,1,70,0,0

[Colours]
Combo1 : 242,151,255
Combo2 : 1,101,201
Combo3 : 70,1,154

[HitObjects]
117,114,10786,6,0,B|191:141|296:117|296:117|274:177,1,225,4|0,0:0|0:0,0:0:0:0:
255,290,12134,2,0,B|181:263|76:287|76:287|98:227,1,225,0|0,0:0|0:0,0:0:0:0:
117,114,13483,6,0,P|205:59|302:121,1,225,0|0,0:0|0:0,0:0:0:0:
394,212,14831,2,0,P|306:157|209:219,1,225
154,335,16179,6,0,B|189:226|129:227|166:113,1,225,0|0,0:0|0:0,0:0:0:0:
301,113,17528,2,0,B|338:227|278:226|313:335,1,225,0|0,0:0|0:0,0:0:0:0:
434,275,18876,6,0,B|461:167|461:167|461:42,1,225
325,53,20224,2,0,B|298:161|298:161|298:286,1,225
411,349,21573,5,4,0:0:0:0:
32,173,31011,6,0,B|101:156|150:173|150:173|178:158|178:158|234:183|302:166,1,270,0|8,0:0|0:0,0:0:0:0:
384,163,32359,6,0,P|398:227|382:305,2,135,0|0|8,0:0|0:0|0:0,0:0:0:0:
338,85,33707,2,0,P|278:75|212:24,2,135,0|0|8,0:0|0:0|0:0,0:0:0:0:
419,48,35056,6,0,L|469:122,1,90
470,213,35730,2,0,L|413:296,1,90
339,244,36404,2,0,P|270:244|210:282,2,135,0|0|8,0:0|0:0|0:0,0:0:0:0:
419,287,37752,6,0,P|427:239|416:196,1,90,0|8,0:0|0:0,0:0:0:0:
403,110,38426,2,0,P|355:102|312:113,1,90,0|8,0:0|0:0,0:0:0:0:
259,182,39101,2,0,L|247:45,2,135,0|0|8,0:0|0:0|0:0,0:0:0:0:
268,271,40449,5,0,0:0:0:0:
182,243,40786,2,0,P|178:290|202:334,2,90,8|0|8,0:0|0:0|0:0,0:0:0:0:
193,153,41797,2,0,P|143:153|97:134,1,90,0|8,0:0|0:0,0:0:0:0:
22,105,42471,1,8,0:0:0:0:
90,47,42808,1,8,0:0:0:0:
177,25,43146,6,0,L|267:32,1,90,0|8,0:0|0:0,0:0:0:0:
356,39,43820,2,0,L|349:129,1,90,0|8,0:0|0:0,0:0:0:0:
281,188,44494,2,0,P|336:180|415:205,2,135,0|0|8,0:0|0:0|0:0,0:0:0:0:
199,226,45842,5,0,0:0:0:0:
130,167,46179,2,0,P|136:129|129:69,2,90,8|0|8,0:0|0:0|0:0,0:0:0:0:
62,226,47191,2,0,L|73:362,2,135,0|0|8,0:0|0:0|0:0,0:0:0:0:
47,137,48539,6,0,P|94:137|139:122,1,90,0|8,0:0|0:0,0:0:0:0:
213,80,49213,2,0,P|260:80|305:95,1,90,0|8,0:0|0:0,0:0:0:0:
362,157,49887,2,0,P|346:91|371:22,1,135
482,95,50898,1,8,0:0:0:0:
452,180,51235,6,0,B|450:229|450:229|456:272,1,90,0|8,0:0|0:0,0:0:0:0:
470,358,51910,2,0,B|429:363|429:363|380:361,1,90,0|8,0:0|0:0,0:0:0:0:
310,305,52584,2,0,L|205:315,1,90,0|0,0:0|0:0,0:0:0:0:
130,313,53258,2,0,L|25:303,1,90,0|0,0:0|0:0,0:0:0:0:
61,216,53932,6,0,B|77:161|44:94|44:94|124:124|197:94,1,270,4|8,0:0|0:0,0:0:0:0:
247,34,55280,2,0,B|237:124|237:124|253:226,1,180
274,299,56292,1,8,0:0:0:0:
357,264,56629,6,0,B|406:244|460:268|460:268|415:178|472:181|423:97,1,270,0|8,0:0|0:0,0:0:0:0:
385,32,57977,2,0,P|275:69|166:36,1,225
55,107,59325,6,0,P|55:228|190:239,1,270,0|8,0:0|0:0,0:0:0:0:
259,203,60674,2,0,P|350:165|461:214,1,225,0|0,0:0|0:0,0:0:0:0:
355,299,62022,6,0,P|222:316|86:295,1,270,0|8,0:0|0:0,0:0:0:0:
41,218,63370,2,0,B|81:165|49:90|49:90|101:140|189:119,1,270,0|8,0:0|0:0,0:0:0:0:
249,175,64719,6,0,L|224:37,2,135,0|0|8,0:0|0:0|0:0,0:0:0:0:
337,156,66067,2,0,L|312:18,2,135,0|0|8,0:0|0:0|0:0,0:0:0:0:
361,242,67415,6,0,L|382:333,1,90,0|8,0:0|0:0,0:0:0:0:
291,320,68089,2,0,L|270:229,1,90,0|8,0:0|0:0,0:0:0:0:
248,144,68764,1,0,0:0:0:0:
240,54,69101,2,0,P|181:84|158:150,1,135,8|0,0:0|0:0,0:0:0:0:
172,279,70112,6,0,L|31:297,2,135,0|0|8,0:0|0:0|0:0,0:0:0:0:
235,215,71460,2,0,L|376:197,2,135,0|0|8,0:0|0:0|0:0,0:0:0:0:
171,151,72808,5,0,0:0:0:0:
298,23,73483,1,0,0:0:0:0:
425,150,74157,2,0,L|397:236,1,90,0|0,0:0|0:0,0:0:0:0:
307,235,74831,2,0,L|279:149,1,90,0|0,0:0|0:0,0:0:0:0:
189,149,75505,6,0,L|158:286,2,135,4|0|8,0:0|0:0|0:0,0:0:0:0:
216,63,76853,2,0,L|313:70,1,90,0|8,0:0|0:0,0:0:0:0:
395,78,77528,1,0,0:0:0:0:
458,141,77865,1,8,0:0:0:0:
394,204,78202,6,0,P|395:273|421:341,2,135,0|0|8,0:0|0:0|0:0,0:0:0:0:
458,141,79550,2,0,L|439:53,1,90,0|8,0:0|0:0,0:0:0:0:
349,53,80224,2,0,L|330:141,1,90,0|8,0:0|0:0,0:0:0:0:
261,198,80898,6,0,P|323:189|411:210,2,135,0|0|8,0:0|0:0|0:0,0:0:0:0:
175,226,82247,1,0,0:0:0:0:
96,269,82584,1,8,0:0:0:0:
38,200,82921,2,0,B|34:159|34:159|41:111,1,90,0|8,0:0|0:0,0:0:0:0:
104,46,83595,6,0,B|172:46|172:46|250:59,2,135,0|0|8,0:0|0:0|0:0,0:0:0:0:
41,110,84943,2,0,L|51:212,1,90,0|8,0:0|0:0,0:0:0:0:
59,289,85617,2,0,L|148:280,1,90,8|8,0:0|0:0,0:0:0:0:
238,269,86292,6,0,P|238:205|301:149,2,135,0|0|8,0:0|0:0|0:0,0:0:0:0:
322,237,87640,1,0,0:0:0:0:
407,210,87977,2,0,L|396:116,2,90,8|0|8,0:0|0:0|0:0,0:0:0:0:
416,299,88988,6,0,L|271:309,1,135,0|0,0:0|0:0,0:0:0:0:
176,221,89999,1,8,0:0:0:0:
92,253,90337,2,0,L|-3:240,1,90,0|8,0:0|0:0,0:0:0:0:
16,151,91011,2,0,L|105:163,1,90,0|8,0:0|0:0,0:0:0:0:
176,221,91685,6,0,P|195:147|157:87,2,135,0|0|8,0:0|0:0|0:0,0:0:0:0:
155,308,93033,2,0,L|251:317,1,90,0|8,0:0|0:0,0:0:0:0:
321,269,93707,2,0,L|280:186,1,90,0|8,0:0|0:0,0:0:0:0:
244,106,94382,6,0,P|311:98|383:106,2,135,0|0|8,0:0|0:0|0:0,0:0:0:0:
158,135,95730,2,0,L|64:159,1,90,0|0,0:0|0:0,0:0:0:0:
70,247,96404,2,0,L|164:271,1,90,0|0,0:0|0:0,0:0:0:0:
220,204,97078,1,4,0:0:0:0:
154,146,117303,6,0,L|253:150,1,90,0|0,0:0|0:0,0:0:0:0:
216,235,117977,2,0,L|117:231,1,90,0|0,0:0|0:0,0:0:0:0:
59,171,118651,6,0,B|69:237|69:237|53:304,2,135,4|0|0,0:0|0:0|0:0,0:0:0:0:
121,106,119999,2,0,B|187:116|187:116|254:100,2,135,0|0|0,0:0|0:0|0:0,0:0:0:0:
59,171,121348,6,0,L|74:308,2,135,0|0|0,0:0|0:0|0:0,0:0:0:0:
148,180,122696,2,0,L|163:317,2,135,0|0|0,0:0|0:0|0:0,0:0:0:0:
237,192,124044,6,0,P|286:192|348:129,2,135,0|0|0,0:0|0:0|0:0,0:0:0:0:
260,102,125393,2,0,P|211:102|148:164,2,135,0|0|0,0:0|0:0|0:0,0:0:0:0:
346,135,126741,6,0,B|406:135|406:135|481:114,2,135,0|0|0,0:0|0:0|0:0,0:0:0:0:
260,102,128089,2,0,B|200:102|200:102|125:123,2,135,0|0|8,0:0|0:0|0:0,0:0:0:0:
346,135,129438,6,0,L|339:280,2,135
431,163,130786,2,0,L|424:308,2,135,0|0|0,0:0|0:0|0:0,0:0:0:0:
439,73,132134,6,0,L|296:78,2,135,0|0|0,0:0|0:0|0:0,0:0:0:0:
431,163,133483,2,0,L|288:168,2,135,0|0|0,0:0|0:0|0:0,0:0:0:0:
425,253,134831,6,0,L|496:382,2,135
335,253,136179,2,0,L|264:382,2,135
376,174,137528,6,0,P|307:218|244:218,2,135,0|0|0,0:0|0:0|0:0,0:0:0:0:
376,84,138876,2,0,P|307:40|244:40,2,135,0|0|0,0:0|0:0|0:0,0:0:0:0:
297,130,140224,6,0,L|199:130,2,90,4|8|0,0:0|0:0|0:0,0:0:0:0:
376,174,141235,1,8,0:0:0:0:
376,84,141573,2,0,P|423:54|511:53,2,135,0|0|8,0:0|0:0|0:0,0:0:0:0:
297,130,142921,6,0,L|284:39,1,90,0|8,0:0|0:0,0:0:0:0:
194,40,143595,2,0,L|207:131,1,90,0|8,0:0|0:0,0:0:0:0:
219,218,144269,2,0,P|219:280|163:333,2,135,0|0|8,0:0|0:0|0:0,0:0:0:0:
132,248,145617,6,0,L|37:256,1,90,0|8,0:0|0:0,0:0:0:0:
39,165,146292,2,0,L|134:157,1,90,0|8,0:0|0:0,0:0:0:0:
211,193,146966,2,0,P|229:249|187:324,2,135,0|0|8,0:0|0:0|0:0,0:0:0:0:
128,157,148314,6,0,L|119:68,1,90,0|8,0:0|0:0,0:0:0:0:
29,75,148988,2,0,L|38:164,1,90,0|8,0:0|0:0,0:0:0:0:
44,254,149662,2,0,P|89:272|145:271,1,90,0|8,0:0|0:0,0:0:0:0:
220,273,150337,2,0,P|264:275|306:292,1,90,8|8,0:0|0:0,0:0:0:0:
388,329,151011,6,0,L|437:202,2,135,0|0|8,0:0|0:0|0:0,0:0:0:0:
306,292,152359,2,0,P|287:251|287:196,1,90,0|8,0:0|0:0,0:0:0:0:
284,116,153033,2,0,P|281:71|262:30,1,90,0|8,0:0|0:0,0:0:0:0:
197,92,153707,6,0,L|94:99,2,90,0|8|0,0:0|0:0|0:0,0:0:0:0:
284,116,154719,1,8,0:0:0:0:
345,50,155056,2,0,P|371:96|342:185,2,135,0|0|8,0:0|0:0|0:0,0:0:0:0:
257,29,156404,6,0,L|159:33,1,90,0|8,0:0|0:0,0:0:0:0:
194,119,157078,2,0,L|292:115,1,90,0|8,0:0|0:0,0:0:0:0:
354,173,157752,2,0,L|370:320,2,135,0|0|8,0:0|0:0|0:0,0:0:0:0:
283,115,159101,6,0,L|194:119,2,90,0|8|0,0:0|0:0|0:0,0:0:0:0:
347,51,160112,1,8,0:0:0:0:
410,114,160449,2,0,L|434:206,1,90,0|0,0:0|0:0,0:0:0:0:
464,285,161123,1,0,0:0:0:0:
393,341,161460,1,0,0:0:0:0:
311,302,161797,5,4,0:0:0:0:
