osu file format v14

[General]
AudioFilename: Traktion - Amethyst.mp3
AudioLeadIn: 0
PreviewTime: 75505
Countdown: 0
SampleSet: Normal
StackLeniency: 0.5
Mode: 0
LetterboxInBreaks: 0
EpilepsyWarning: 1
WidescreenStoryboard: 1

[Editor]
Bookmarks: 0,10786,21573,31011,32359,43146,53932,64719,75505,86292,97078,107865,117303,118651,129438,140224,151011,161797,172584
DistanceSpacing: 1
BeatDivisor: 1
GridSize: 32
TimelineZoom: 3

[Metadata]
Title:Amethyst
TitleUnicode:Amethyst
Artist:Traktion
ArtistUnicode:Traktion
Creator:Shyotamaze
Version:Another
Source:
Tags:mission ascii ep drum and bass dnb 6th galvenize DeRandom Otaku collaboration
BeatmapID:979266
BeatmapSetID:457042

[Difficulty]
HPDrainRate:7
CircleSize:4.5
OverallDifficulty:8
ApproachRate:9
SliderMultiplier:1.8
SliderTickRate:1

[Events]
//Background and Video events
0,0,"Amethyst.jpg",0,0
//Break Periods
2,97278,116703
//Storyboard Layer 0 (Background)
//Storyboard Layer 1 (Fail)
//Storyboard Layer 2 (Pass)
//Storyboard Layer 3 (Foreground)
//Storyboard Sound Samples

[TimingPoints]
0,337.078651685393,4,2,1,35,1,0
31011,-100,4,1,1,70,0,0
75505,-100,4,1,1,70,0,1
97078,-100,4,1,1,70,0,0

[Colours]
Combo1 : 87,87,87
Combo2 : 1,101,201
Combo3 : 70,1,154
Combo4 : 242,151,255
Combo5 : 192,192,192
Combo6 : 128,128,128

[HitObjects]
329,63,10786,5,4,0:0:0:0:
403,280,11123,1,8,0:0:0:0:
403,280,11292,2,0,P|374:309|329:326,1,90
179,325,11629,1,0,0:0:0:0:
103,194,11797,2,0,P|91:152|102:105,1,90,8|0,0:0|0:0,0:0:0:0:
253,19,12134,5,0,0:0:0:0:
403,195,12471,1,8,0:0:0:0:
403,195,12640,2,0,P|414:238|402:282,1,90
254,368,12977,1,0,0:0:0:0:
253,193,13146,2,0,P|297:207|329:237,1,90,8|0,0:0|0:0,0:0:0:0:
254,368,13483,5,0,0:0:0:0:
254,368,13651,2,0,P|210:354|178:324,1,90,0|8,0:0|0:0,0:0:0:0:
253,193,13988,1,0,0:0:0:0:
328,326,14157,2,0,P|370:311|403:279,1,90
253,193,14494,1,8,0:0:0:0:
253,193,14662,1,0,0:0:0:0:
329,63,14831,54,0,B|372:78|372:78|405:108,1,90
481,238,15168,1,8,0:0:0:0:
329,238,15337,1,0,0:0:0:0:
254,108,15505,1,0,0:0:0:0:
405,108,15674,1,0,0:0:0:0:
329,238,15842,2,0,B|299:271|299:271|254:283,1,90,8|0,0:0|0:0,0:0:0:0:
103,194,16179,5,0,0:0:0:0:
254,108,16348,2,0,B|266:151|266:151|252:195,1,90,0|8,0:0|0:0,0:0:0:0:
179,325,16685,1,0,0:0:0:0:
329,238,16853,2,0,B|342:282|342:282|328:323,1,90
180,238,17191,1,8,0:0:0:0:
330,151,17359,1,0,0:0:0:0:
180,151,17528,6,0,L|101:107,1,90
101,281,17865,1,8,0:0:0:0:
254,282,18033,1,0,0:0:0:0:
180,151,18202,1,0,0:0:0:0:
330,151,18370,1,0,0:0:0:0:
329,326,18539,2,0,P|299:356|252:368,1,90,8|0,0:0|0:0,0:0:0:0:
180,238,18876,54,0,P|211:206|254:193,1,90
329,238,19213,1,8,0:0:0:0:
329,238,19382,1,0,0:0:0:0:
404,195,19550,1,0,0:0:0:0:
405,108,19719,1,0,0:0:0:0:
329,63,19887,1,8,0:0:0:0:
254,108,20056,1,0,0:0:0:0:
180,238,20224,6,0,L|101:281,1,90
254,282,20561,1,8,0:0:0:0:
103,194,20730,1,0,0:0:0:0:
254,108,20898,1,0,0:0:0:0:
404,195,21067,1,0,0:0:0:0:
404,369,21235,1,8,0:0:0:0:
254,282,21404,1,0,0:0:0:0:
404,195,21573,21,4,0:0:0:0:
482,152,21741,1,0,0:0:0:0:
405,108,21910,1,0,0:0:0:0:
253,19,22078,5,0,0:0:0:0:
180,63,22247,1,0,0:0:0:0:
254,108,22415,1,0,0:0:0:0:
103,194,22584,5,0,0:0:0:0:
26,237,22752,1,0,0:0:0:0:
26,149,22921,2,0,P|59:118|101:104,1,90
180,151,23258,1,0,0:0:0:0:
253,193,23426,2,0,P|298:181|330:152,1,90
406,109,23764,1,0,0:0:0:0:
253,19,23932,2,0,L|201:19,1,45
254,108,24101,2,0,L|204:108,1,45
329,63,24269,53,0,0:0:0:0:
404,195,24438,1,0,0:0:0:0:
253,193,24606,1,0,0:0:0:0:
330,107,24775,5,0,0:0:0:0:
404,238,24943,1,0,0:0:0:0:
253,238,25112,1,0,0:0:0:0:
330,151,25280,5,0,0:0:0:0:
403,280,25449,1,0,0:0:0:0:
254,283,25617,2,0,P|213:271|176:235,1,90
253,193,25955,1,0,0:0:0:0:
330,241,26123,2,0,P|340:284|329:327,1,90
298,358,26376,1,0,0:0:0:0:
254,367,26460,1,0,0:0:0:0:
100,281,26629,2,0,L|55:281,1,45
103,194,26797,2,0,L|57:194,1,45
180,150,26966,53,0,0:0:0:0:
253,19,27134,1,0,0:0:0:0:
329,152,27303,1,0,0:0:0:0:
217,171,27471,5,0,0:0:0:0:
290,42,27640,1,0,0:0:0:0:
367,174,27808,1,0,0:0:0:0:
253,193,27977,5,0,0:0:0:0:
329,63,28146,1,0,0:0:0:0:
405,197,28314,2,0,P|416:239|403:282,1,90
254,367,28651,1,0,0:0:0:0:
100,281,28820,2,0,P|90:237|103:193,1,90
180,63,29157,1,0,0:0:0:0:
329,63,29325,2,0,L|374:63,1,45
329,152,29494,2,0,L|382:152,1,45
253,193,29662,53,0,0:0:0:0:
180,63,29831,1,0,0:0:0:0:
329,63,29999,1,0,0:0:0:0:
253,193,30168,5,0,0:0:0:0:
178,324,30337,1,0,0:0:0:0:
102,194,30505,1,0,0:0:0:0:
253,193,30674,5,0,0:0:0:0:
329,63,30842,1,0,0:0:0:0:
406,109,31011,37,0,0:0:0:0:
411,122,31095,1,0,0:0:0:0:
415,137,31179,1,0,0:0:0:0:
416,152,31263,1,0,0:0:0:0:
414,167,31348,1,0,0:0:0:0:
410,181,31432,1,0,0:0:0:0:
404,195,31516,1,0,0:0:0:0:
394,207,31600,1,0,0:0:0:0:
384,217,31685,53,0,0:0:0:0:
371,226,31769,1,0,0:0:0:0:
358,232,31853,1,0,0:0:0:0:
343,236,31937,1,0,0:0:0:0:
329,238,32022,2,0,P|287:226|254:193,1,90,8|0,0:0|0:0,0:0:0:0:
180,63,32359,5,0,0:0:0:0:
26,150,32528,1,0,0:0:0:0:
180,238,32696,1,8,0:0:0:0:
180,107,32864,5,0,0:0:0:0:
26,194,33033,1,0,0:0:0:0:
180,282,33201,1,0,0:0:0:0:
180,151,33370,53,8,0:0:0:0:
26,237,33539,1,0,0:0:0:0:
179,325,33707,2,0,P|223:312|254:283,1,90
330,151,34044,1,8,0:0:0:0:
402,280,34213,2,0,P|359:269|328:237,1,90
406,109,34550,1,0,0:0:0:0:
449,195,34719,2,0,L|404:195,1,45,8|0,0:0|0:0,0:0:0:0:
328,237,34887,2,0,L|281:237,1,45
104,107,35056,6,0,B|73:74|73:74|29:62,2,90,0|0|8,0:0|0:0|0:0,0:0:0:0:
104,282,35561,2,0,B|72:314|72:314|28:325,2,90
180,151,36067,1,8,0:0:0:0:
26,150,36235,1,0,0:0:0:0:
180,238,36404,6,0,P|223:224|255:192,1,90
180,63,36741,1,8,0:0:0:0:
329,63,36910,1,0,0:0:0:0:
350,69,36994,1,0,0:0:0:0:
370,78,37078,1,0,0:0:0:0:
389,92,37162,1,0,0:0:0:0:
404,108,37247,1,0,0:0:0:0:
328,237,37415,2,0,L|328:282,1,45,8|0,0:0|0:0,0:0:0:0:
404,195,37584,2,0,L|432:240,1,45
254,108,37752,53,0,0:0:0:0:
180,238,37921,1,0,0:0:0:0:
330,151,38089,1,8,0:0:0:0:
103,194,38258,2,0,B|60:180|60:180|27:150,2,90
254,193,38764,1,8,0:0:0:0:
329,63,38932,1,0,0:0:0:0:
180,63,39101,6,0,B|170:108|170:108|181:152,1,90
328,237,39438,1,8,0:0:0:0:
180,150,39606,2,0,B|210:184|210:184|254:193,1,90
180,63,39943,1,0,0:0:0:0:
103,194,40112,2,0,L|133:227,1,45,8|0,0:0|0:0,0:0:0:0:
26,237,40280,2,0,L|56:270,1,45
179,325,40449,6,0,P|221:338|255:367,2,90,0|0|8,0:0|0:0|0:0,0:0:0:0:
28,324,40955,1,0,0:0:0:0:
103,194,41123,1,0,0:0:0:0:
102,368,41292,1,0,0:0:0:0:
26,237,41460,1,8,0:0:0:0:
180,238,41629,1,0,0:0:0:0:
26,150,41797,54,0,P|59:117|105:108,1,90
180,238,42134,2,0,L|133:238,1,45,8|0,0:0|0:0,0:0:0:0:
254,282,42303,2,0,B|298:282,1,45
404,195,42471,1,8,0:0:0:0:
254,108,42640,1,0,0:0:0:0:
135,238,42808,2,0,L|180:238,1,45,8|0,0:0|0:0,0:0:0:0:
299,282,42977,2,0,B|254:282,1,45
180,150,43146,5,0,0:0:0:0:
330,151,43314,1,0,0:0:0:0:
254,282,43483,1,8,0:0:0:0:
254,108,43651,5,0,0:0:0:0:
328,237,43820,1,0,0:0:0:0:
180,238,43988,1,0,0:0:0:0:
330,151,44157,53,8,0:0:0:0:
254,282,44325,1,0,0:0:0:0:
180,150,44494,2,0,B|211:118|211:118|255:108,1,90
328,237,44831,1,8,0:0:0:0:
180,238,44999,2,0,B|169:195|169:195|180:150,2,90
330,151,45505,2,0,L|374:151,1,45,8|0,0:0|0:0,0:0:0:0:
329,63,45674,2,0,L|373:63,1,45
180,150,45842,6,0,P|137:164|104:193,2,90,0|0|8,0:0|0:0|0:0,0:0:0:0:
254,282,46348,2,0,P|223:313|179:325,2,90
330,151,46853,1,8,0:0:0:0:
180,238,47022,1,0,0:0:0:0:
329,326,47191,6,0,P|371:312|403:280,1,90
482,152,47528,1,8,0:0:0:0:
329,63,47696,1,0,0:0:0:0:
306,66,47780,1,0,0:0:0:0:
286,75,47864,1,0,0:0:0:0:
268,89,47948,1,0,0:0:0:0:
254,106,48033,1,0,0:0:0:0:
254,281,48202,2,0,L|254:326,1,45,8|0,0:0|0:0,0:0:0:0:
179,238,48370,2,0,L|179:283,1,45
329,326,48539,54,0,P|372:315|404:282,1,90
406,109,48876,1,8,0:0:0:0:
254,193,49044,2,0,P|286:222|330:238,2,90
180,63,49550,1,8,0:0:0:0:
26,150,49719,1,0,0:0:0:0:
104,281,49887,6,0,P|135:312|179:324,1,90
328,237,50224,1,8,0:0:0:0:
180,150,50393,2,0,P|171:193|181:240,1,90
329,150,50730,1,0,0:0:0:0:
180,150,50898,1,8,0:0:0:0:
254,282,51067,1,0,0:0:0:0:
329,326,51235,5,0,0:0:0:0:
350,321,51319,1,0,0:0:0:0:
371,312,51403,1,0,0:0:0:0:
389,298,51487,1,0,0:0:0:0:
403,281,51572,1,8,0:0:0:0:
411,260,51656,1,0,0:0:0:0:
414,238,51740,1,0,0:0:0:0:
411,215,51824,1,0,0:0:0:0:
403,194,51910,53,0,0:0:0:0:
390,176,51993,1,0,0:0:0:0:
373,162,52077,1,0,0:0:0:0:
352,152,52161,1,0,0:0:0:0:
330,149,52246,1,8,0:0:0:0:
321,129,52330,1,0,0:0:0:0:
318,107,52414,1,0,0:0:0:0:
321,84,52499,1,0,0:0:0:0:
329,63,52584,6,0,P|295:33|253:18,1,90
217,42,52837,1,0,0:0:0:0:
180,63,52921,2,0,P|135:50|104:20,1,90
105,64,53174,1,0,0:0:0:0:
104,107,53258,2,0,P|68:136|25:149,1,90
25,193,53511,1,0,0:0:0:0:
26,237,53595,2,0,P|61:266|105:281,1,90
145,264,53848,1,0,0:0:0:0:
180,237,53932,5,4,0:0:0:0:
180,150,54101,1,0,0:0:0:0:
328,237,54269,2,0,P|372:224|406:194,1,90,8|0,0:0|0:0,0:0:0:0:
329,63,54606,1,0,0:0:0:0:
254,193,54775,1,0,0:0:0:0:
329,326,54943,2,0,P|297:355|254:369,1,90,8|0,0:0|0:0,0:0:0:0:
102,280,55280,54,0,P|137:251|181:236,1,90
328,237,55617,2,0,P|338:193|329:150,1,90,8|0,0:0|0:0,0:0:0:0:
253,18,55955,1,0,0:0:0:0:
254,193,56123,1,0,0:0:0:0:
406,109,56292,2,0,P|374:78|328:63,1,90,8|0,0:0|0:0,0:0:0:0:
180,150,56629,6,0,P|182:240|257:280,1,180,0|8,0:0|0:0,0:0:0:0:
404,195,57134,1,0,0:0:0:0:
331,63,57303,1,0,0:0:0:0:
328,237,57471,1,0,0:0:0:0:
254,108,57640,2,0,P|223:75|179:62,1,90,8|0,0:0|0:0,0:0:0:0:
254,193,57977,6,0,P|298:180|330:148,1,90
403,20,58314,2,0,P|446:32|480:64,1,90,8|0,0:0|0:0,0:0:0:0:
479,238,58651,1,0,0:0:0:0:
328,149,58820,1,0,0:0:0:0:
329,326,58988,2,0,P|297:355|254:369,1,90,8|0,0:0|0:0,0:0:0:0:
102,280,59325,54,0,P|104:197|181:150,1,180,0|8,0:0|0:0,0:0:0:0:
328,237,59831,1,0,0:0:0:0:
178,236,59999,1,0,0:0:0:0:
328,149,60168,1,0,0:0:0:0:
402,280,60337,2,0,P|371:311|329:326,1,90,8|0,0:0|0:0,0:0:0:0:
178,323,60674,6,0,P|135:312|102:280,1,90
180,150,61011,2,0,P|189:107|180:61,1,90,8|0,0:0|0:0,0:0:0:0:
104,20,61348,1,0,0:0:0:0:
331,63,61516,1,0,0:0:0:0:
254,193,61685,2,0,P|223:224|179:236,1,90,8|0,0:0|0:0,0:0:0:0:
254,108,62022,6,0,P|328:151|328:238,1,180,0|8,0:0|0:0,0:0:0:0:
178,323,62528,1,0,0:0:0:0:
254,193,62696,1,0,0:0:0:0:
402,280,62865,1,0,0:0:0:0:
479,150,63033,2,0,P|448:119|405:108,1,90,8|0,0:0|0:0,0:0:0:0:
328,237,63370,54,0,P|297:268|252:280,1,90
103,193,63707,2,0,P|60:206|26:239,1,90,8|0,0:0|0:0,0:0:0:0:
254,193,64044,2,0,P|266:149|254:107,1,90,8|0,0:0|0:0,0:0:0:0:
178,323,64382,2,0,P|211:355|255:369,1,90,8|0,0:0|0:0,0:0:0:0:
402,280,64719,6,0,P|428:194|406:109,1,180,0|8,0:0|0:0,0:0:0:0:
253,18,65224,1,0,0:0:0:0:
254,193,65393,1,0,0:0:0:0:
405,108,65561,1,0,0:0:0:0:
254,107,65730,2,0,P|211:118|179:150,1,90,8|0,0:0|0:0,0:0:0:0:
178,323,66067,6,0,P|254:366|330:324,1,180,0|8,0:0|0:0,0:0:0:0:
254,193,66573,2,0,P|244:238|254:281,1,90
328,237,66910,1,0,0:0:0:0:
180,150,67078,2,0,P|137:164|103:193,1,90,8|0,0:0|0:0,0:0:0:0:
102,368,67415,53,0,0:0:0:0:
179,235,67584,1,0,0:0:0:0:
28,324,67752,1,8,0:0:0:0:
178,323,67921,1,0,0:0:0:0:
26,237,68089,2,0,P|18:193|28:148,1,90
180,62,68426,1,8,0:0:0:0:
179,235,68595,1,0,0:0:0:0:
328,152,68764,6,0,P|297:120|255:107,1,90
179,235,69101,2,0,P|212:266|254:280,1,90,8|0,0:0|0:0,0:0:0:0:
402,280,69438,1,0,0:0:0:0:
254,193,69606,1,0,0:0:0:0:
405,108,69775,2,0,P|414:63|403:20,1,90,8|0,0:0|0:0,0:0:0:0:
180,62,70112,6,0,P|170:106|180:149,1,90
253,279,70449,2,0,P|221:310|178:322,1,90,8|0,0:0|0:0,0:0:0:0:
26,150,70786,1,0,0:0:0:0:
179,235,70955,1,0,0:0:0:0:
328,152,71123,2,0,P|297:120|255:107,1,90,8|0,0:0|0:0,0:0:0:0:
179,235,71460,53,0,0:0:0:0:
328,237,71629,1,0,0:0:0:0:
405,108,71797,2,0,P|414:63|403:20,2,90,8|0|0,0:0|0:0|0:0,0:0:0:0:
328,237,72303,2,0,P|321:281|330:326,2,90,0|8|0,0:0|0:0|0:0,0:0:0:0:
254,106,72808,5,0,0:0:0:0:
239,88,72892,1,0,0:0:0:0:
221,74,72976,1,0,0:0:0:0:
201,65,73060,1,0,0:0:0:0:
179,62,73145,1,8,0:0:0:0:
157,64,73229,1,0,0:0:0:0:
136,73,73313,1,0,0:0:0:0:
118,87,73397,1,0,0:0:0:0:
105,105,73483,5,0,0:0:0:0:
96,125,73566,1,0,0:0:0:0:
93,148,73650,1,0,0:0:0:0:
96,170,73734,1,0,0:0:0:0:
105,191,73819,1,8,0:0:0:0:
118,208,73903,1,0,0:0:0:0:
137,222,73987,1,0,0:0:0:0:
157,230,74072,1,0,0:0:0:0:
179,234,74157,54,0,P|221:224|254:193,1,90
256,149,74410,1,0,0:0:0:0:
254,106,74494,2,0,P|287:77|331:64,1,90
368,85,74747,1,0,0:0:0:0:
405,108,74831,2,0,P|415:151|404:196,1,90
368,219,75084,1,0,0:0:0:0:
328,237,75168,2,0,P|319:280|328:326,1,90
479,237,75505,6,0,P|447:206|404:194,1,90,4|0,0:0|0:0,0:0:0:0:
327,324,75842,1,8,0:0:0:0:
479,237,76011,2,0,P|489:193|482:150,1,90
254,193,76348,1,0,0:0:0:0:
27,236,76516,2,0,P|19:192|28:149,1,90,8|0,0:0|0:0,0:0:0:0:
180,62,76853,5,0,0:0:0:0:
179,234,77022,2,0,L|179:284,1,45
103,192,77191,2,0,L|103:238,1,45,8|0,0:0|0:0,0:0:0:0:
179,148,77359,1,0,0:0:0:0:
253,279,77528,2,0,P|296:269|329:237,1,90
331,63,77865,1,8,0:0:0:0:
179,148,78033,1,0,0:0:0:0:
405,108,78202,54,0,P|373:138|328:152,1,90
103,192,78539,1,8,0:0:0:0:
253,279,78707,2,0,P|296:269|329:237,1,90
331,63,79044,1,0,0:0:0:0:
104,107,79213,2,0,P|93:149|104:194,1,90,8|0,0:0|0:0,0:0:0:0:
253,279,79550,5,0,0:0:0:0:
403,279,79719,2,0,L|449:279,1,45
404,195,79887,2,0,L|448:195,1,45,8|0,0:0|0:0,0:0:0:0:
331,63,80056,1,0,0:0:0:0:
179,148,80224,2,0,P|135:137|104:106,1,90
329,151,80561,1,8,0:0:0:0:
180,62,80730,1,0,0:0:0:0:
28,151,80898,6,0,P|18:193|28:237,1,90
178,321,81235,1,8,0:0:0:0:
328,237,81404,2,0,P|339:192|328:150,1,90
180,62,81741,1,0,0:0:0:0:
253,279,81910,2,0,P|285:311|331:324,1,90,8|0,0:0|0:0,0:0:0:0:
479,238,82247,53,0,0:0:0:0:
254,193,82415,1,0,0:0:0:0:
481,151,82584,1,8,0:0:0:0:
403,279,82752,1,0,0:0:0:0:
329,151,82921,2,0,P|320:108|333:62,1,90
404,195,83258,1,8,0:0:0:0:
253,279,83426,1,0,0:0:0:0:
179,148,83595,6,0,P|148:117|103:106,1,90
102,281,83932,2,0,P|112:237|102:192,1,90,8|0,0:0|0:0,0:0:0:0:
29,62,84269,1,0,0:0:0:0:
254,106,84438,2,0,P|264:149|254:195,2,90,0|8|0,0:0|0:0|0:0,0:0:0:0:
104,20,84943,5,0,0:0:0:0:
253,18,85112,1,0,0:0:0:0:
275,23,85196,1,0,0:0:0:0:
295,33,85280,1,8,0:0:0:0:
313,46,85364,1,0,0:0:0:0:
328,62,85449,1,0,0:0:0:0:
328,237,85617,2,0,P|297:268|253:279,1,90,8|0,0:0|0:0,0:0:0:0:
329,151,85955,2,0,P|370:164|405:197,1,90,8|0,0:0|0:0,0:0:0:0:
253,368,86292,54,0,P|210:353|178:320,1,90
179,148,86629,1,8,0:0:0:0:
328,237,86797,2,0,P|336:280|327:326,1,90
179,321,87134,1,0,0:0:0:0:
329,151,87303,2,0,P|370:164|406:198,1,90,8|0,0:0|0:0,0:0:0:0:
404,369,87640,5,0,0:0:0:0:
253,278,87808,2,0,L|208:278,1,45
254,193,87977,2,0,L|208:193,1,45,8|0,0:0|0:0,0:0:0:0:
329,151,88146,1,0,0:0:0:0:
253,18,88314,2,0,P|211:31|179:64,1,90
254,193,88651,1,8,0:0:0:0:
328,62,88820,1,0,0:0:0:0:
179,148,88988,6,0,P|135:137|103:104,1,90
254,106,89325,1,8,0:0:0:0:
179,234,89494,2,0,P|146:266|101:280,1,90
179,148,89831,1,0,0:0:0:0:
253,278,89999,2,0,P|262:324|251:368,1,90,8|0,0:0|0:0,0:0:0:0:
179,234,90337,53,0,0:0:0:0:
328,237,90505,2,0,L|359:269,1,45
404,195,90674,2,0,L|447:183,1,45,8|0,0:0|0:0,0:0:0:0:
405,108,90842,1,0,0:0:0:0:
253,18,91011,2,0,P|211:31|179:64,1,90
179,234,91348,1,8,0:0:0:0:
179,63,91516,1,0,0:0:0:0:
253,278,91685,6,0,P|223:311|177:322,1,90
28,324,92022,1,8,0:0:0:0:
102,193,92191,2,0,P|135:162|180:149,1,90
329,151,92528,1,0,0:0:0:0:
403,279,92696,2,0,P|370:310|327:324,1,90,8|0,0:0|0:0,0:0:0:0:
179,234,93033,5,0,0:0:0:0:
254,106,93202,2,0,L|277:66,1,45
329,151,93370,2,0,L|352:111,1,45,8|0,0:0|0:0,0:0:0:0:
328,237,93539,1,0,0:0:0:0:
180,322,93707,2,0,P|137:309|105:278,1,90
104,107,94044,1,8,0:0:0:0:
179,234,94213,1,0,0:0:0:0:
328,237,94382,53,0,0:0:0:0:
351,233,94466,1,0,0:0:0:0:
371,224,94550,1,0,0:0:0:0:
389,211,94634,1,0,0:0:0:0:
403,194,94719,1,8,0:0:0:0:
412,174,94803,1,0,0:0:0:0:
414,151,94887,1,0,0:0:0:0:
412,129,94971,1,0,0:0:0:0:
403,108,95056,5,0,0:0:0:0:
390,90,95140,1,0,0:0:0:0:
372,76,95224,1,0,0:0:0:0:
351,68,95308,1,0,0:0:0:0:
328,65,95393,1,8,0:0:0:0:
307,68,95477,1,0,0:0:0:0:
285,78,95561,1,0,0:0:0:0:
268,90,95646,1,0,0:0:0:0:
254,108,95730,6,0,P|220:137|176:149,1,90
140,128,95984,1,0,0:0:0:0:
104,106,96067,2,0,P|62:118|28:151,1,90
25,193,96320,1,0,0:0:0:0:
28,237,96405,2,0,P|61:268|106:280,1,90
143,259,96658,1,0,0:0:0:0:
179,234,96742,2,0,P|221:249|255:280,1,90
265,323,96994,1,0,0:0:0:0:
252,365,97078,5,4,0:0:0:0:
328,62,117303,37,0,0:0:0:0:
328,62,117387,1,0,0:0:0:0:
328,62,117471,1,0,0:0:0:0:
328,237,117640,5,0,0:0:0:0:
328,237,117724,1,0,0:0:0:0:
328,237,117808,1,0,0:0:0:0:
180,322,117977,5,0,0:0:0:0:
180,322,118061,1,0,0:0:0:0:
180,322,118146,1,0,0:0:0:0:
176,148,118314,53,0,0:0:0:0:
176,148,118398,1,0,0:0:0:0:
176,148,118483,1,0,0:0:0:0:
329,151,118651,6,0,P|372:166|406:196,1,90,4|0,0:0|0:0,0:0:0:0:
328,323,118988,1,8,0:0:0:0:
479,238,119157,2,0,P|488:195|477:149,1,90
328,62,119494,1,8,0:0:0:0:
328,237,119662,2,0,P|361:267|404:280,1,90
180,322,119999,6,0,P|136:310|101:280,1,90
254,108,120337,2,0,P|265:151|255:194,2,90,8|0|0,0:0|0:0|0:0,0:0:0:0:
28,237,120842,2,0,P|19:281|28:324,2,90,8|0|0,0:0|0:0|0:0,0:0:0:0:
254,279,121348,54,0,P|297:269|328:238,1,90
328,62,121685,1,8,0:0:0:0:
179,234,121853,2,0,P|172:278|181:324,1,90
327,324,122191,1,8,0:0:0:0:
329,151,122359,2,0,P|295:120|252:108,1,90
405,108,122696,6,0,P|413:152|404:198,1,90
180,322,123033,2,0,B|137:337|137:337|100:368,2,90,8|0|0,0:0|0:0|0:0,0:0:0:0:
403,279,123539,2,0,B|447:268|447:268|479:238,2,90,8|0|0,0:0|0:0|0:0,0:0:0:0:
254,193,124044,6,0,P|220:162|178:148,1,90
102,281,124382,1,8,0:0:0:0:
254,279,124550,2,0,P|297:268|328:236,1,90
328,62,124887,1,8,0:0:0:0:
404,196,125056,2,0,P|414:242|403:282,1,90
180,321,125393,54,0,P|170:278|179:234,1,90
328,62,125730,2,0,P|370:49|404:20,2,90,8|0|0,0:0|0:0|0:0,0:0:0:0:
104,106,126235,2,0,P|61:92|27:61,2,90,8|0|0,0:0|0:0|0:0,0:0:0:0:
254,193,126741,6,0,P|265:237|252:282,1,90
102,365,127079,1,8,0:0:0:0:
102,193,127247,2,0,P|143:206|181:235,1,90
253,368,127584,1,8,0:0:0:0:
402,282,127752,2,0,P|414:239|404:196,1,90
254,279,128089,6,0,P|297:268|328:236,1,90
253,108,128426,1,8,0:0:0:0:
405,108,128595,2,0,P|448:119|481:154,1,90
404,369,128932,1,8,0:0:0:0:
180,234,129101,1,8,0:0:0:0:
327,236,129269,1,0,0:0:0:0:
180,321,129438,54,0,P|136:309|101:280,1,90
327,324,129775,1,8,0:0:0:0:
180,234,129943,2,0,P|168:191|180:145,1,90
252,365,130280,1,8,0:0:0:0:
254,193,130449,2,0,P|286:162|330:150,1,90
478,238,130786,5,0,0:0:0:0:
405,108,130955,2,0,P|372:77|328:62,1,90,0|8,0:0|0:0,0:0:0:0:
327,236,131292,1,0,0:0:0:0:
479,326,131460,2,0,P|486:281|477:237,1,90,0|8,0:0|0:0,0:0:0:0:
328,150,131797,1,0,0:0:0:0:
254,279,131966,1,0,0:0:0:0:
402,282,132134,6,0,P|414:239|404:196,1,90
179,148,132471,2,0,B|135:137|135:137|103:106,2,90,8|0|0,0:0|0:0|0:0,0:0:0:0:
405,108,132977,2,0,B|448:95|448:95|479:62,2,90,8|0|0,0:0|0:0|0:0,0:0:0:0:
253,108,133483,53,0,0:0:0:0:
180,234,133651,2,0,P|212:264|255:280,1,90,0|8,0:0|0:0,0:0:0:0:
179,148,133988,1,0,0:0:0:0:
327,236,134157,2,0,P|336:280|327:326,1,90,0|8,0:0|0:0,0:0:0:0:
254,193,134494,1,0,0:0:0:0:
403,195,134662,1,0,0:0:0:0:
253,108,134831,6,0,P|210:118|176:151,1,90
180,321,135168,1,8,0:0:0:0:
327,236,135337,2,0,P|296:205|253:193,1,90
102,281,135674,1,8,0:0:0:0:
253,368,135842,2,0,P|264:325|253:275,1,90
177,148,136179,5,0,0:0:0:0:
328,150,136348,2,0,P|371:163|406:199,1,90,0|8,0:0|0:0,0:0:0:0:
327,323,136685,1,0,0:0:0:0:
478,238,136853,2,0,P|489:194|478:145,1,90,0|8,0:0|0:0,0:0:0:0:
330,62,137191,1,0,0:0:0:0:
177,148,137359,1,0,0:0:0:0:
327,236,137528,54,0,P|370:222|404:193,1,90
179,63,137865,2,0,P|138:76|103:109,2,90,8|0|0,0:0|0:0|0:0,0:0:0:0:
255,280,138370,2,0,P|288:312|332:322,2,90,8|0|0,0:0|0:0|0:0,0:0:0:0:
328,150,138876,5,0,0:0:0:0:
402,282,139044,2,0,P|413:327|400:371,1,90,0|8,0:0|0:0,0:0:0:0:
327,236,139382,1,0,0:0:0:0:
480,150,139550,2,0,P|489:106|477:62,1,90,0|8,0:0|0:0,0:0:0:0:
328,150,139887,2,0,P|317:193|328:236,1,90
480,150,140224,5,4,0:0:0:0:
403,20,140393,1,0,0:0:0:0:
253,108,140561,1,8,0:0:0:0:
403,195,140730,53,0,0:0:0:0:
327,323,140898,1,0,0:0:0:0:
180,234,141067,1,0,0:0:0:0:
328,150,141235,5,8,0:0:0:0:
402,282,141404,1,0,0:0:0:0:
253,368,141573,2,0,P|210:353|180:320,1,90
177,148,141910,1,8,0:0:0:0:
328,236,142078,2,0,P|297:268|252:281,1,90
102,193,142415,1,0,0:0:0:0:
253,108,142584,2,0,L|285:72,1,45,8|0,0:0|0:0,0:0:0:0:
328,150,142752,2,0,L|373:150,1,45
402,282,142921,5,0,0:0:0:0:
480,150,143089,1,0,0:0:0:0:
328,150,143258,1,8,0:0:0:0:
254,280,143426,53,0,0:0:0:0:
177,148,143595,1,0,0:0:0:0:
328,150,143764,1,0,0:0:0:0:
402,282,143932,5,8,0:0:0:0:
254,280,144101,1,0,0:0:0:0:
328,150,144269,2,0,P|365:121|406:108,1,90
253,18,144606,1,8,0:0:0:0:
100,104,144775,2,0,P|142:119|177:148,1,90
189,191,145028,1,0,0:0:0:0:
180,234,145112,1,0,0:0:0:0:
28,237,145280,2,0,L|28:281,1,45,8|0,0:0|0:0,0:0:0:0:
102,193,145449,2,0,L|102:237,1,45
176,147,145617,5,0,0:0:0:0:
330,62,145786,1,0,0:0:0:0:
480,150,145955,1,8,0:0:0:0:
481,328,146123,53,0,0:0:0:0:
328,236,146292,1,0,0:0:0:0:
330,62,146460,1,0,0:0:0:0:
480,150,146629,5,8,0:0:0:0:
328,236,146797,1,0,0:0:0:0:
176,147,146966,2,0,P|167:104|180:61,1,90
328,150,147303,1,8,0:0:0:0:
477,63,147471,2,0,P|489:106|480:150,1,90
402,282,147808,1,0,0:0:0:0:
254,280,147977,2,0,L|219:313,1,45,8|0,0:0|0:0,0:0:0:0:
180,234,148146,2,0,L|133:234,1,45
176,147,148314,6,0,B|142:119|142:119|99:104,2,90,0|0|8,0:0|0:0|0:0,0:0:0:0:
405,108,148820,2,0,B|448:93|448:93|480:62,2,90
253,18,149325,1,8,0:0:0:0:
328,150,149494,1,0,0:0:0:0:
180,234,149662,54,0,P|137:220|101:191,1,90
251,194,149999,1,8,0:0:0:0:
258,215,150083,1,0,0:0:0:0:
261,237,150167,1,0,0:0:0:0:
257,259,150251,1,0,0:0:0:0:
248,279,150336,1,8,0:0:0:0:
102,365,150505,2,0,L|52:352,1,45
102,281,150674,1,8,0:0:0:0:
102,281,150758,1,0,0:0:0:0:
102,281,150842,2,0,L|52:268,1,45
180,234,151011,5,0,0:0:0:0:
328,150,151179,1,0,0:0:0:0:
180,60,151348,1,8,0:0:0:0:
180,234,151516,5,0,0:0:0:0:
28,151,151685,1,0,0:0:0:0:
180,60,151853,1,0,0:0:0:0:
180,234,152022,53,8,0:0:0:0:
328,150,152191,1,0,0:0:0:0:
180,60,152359,2,0,P|137:72|100:106,1,90
180,234,152696,1,8,0:0:0:0:
328,236,152865,2,0,P|372:224|403:193,1,90
404,19,153202,1,0,0:0:0:0:
251,108,153370,2,0,L|200:108,1,45,8|0,0:0|0:0,0:0:0:0:
251,194,153539,2,0,L|206:194,1,45
328,236,153707,5,0,0:0:0:0:
404,369,153876,1,0,0:0:0:0:
253,368,154044,1,8,0:0:0:0:
180,234,154213,5,0,0:0:0:0:
99,102,154382,1,0,0:0:0:0:
28,237,154550,1,0,0:0:0:0:
102,368,154719,53,8,0:0:0:0:
253,368,154887,1,0,0:0:0:0:
180,234,155056,2,0,P|146:205|102:193,1,90
180,321,155393,1,8,0:0:0:0:
328,236,155561,1,0,0:0:0:0:
336,215,155645,1,0,0:0:0:0:
338,192,155729,1,0,0:0:0:0:
336,170,155813,1,0,0:0:0:0:
328,149,155898,1,0,0:0:0:0:
253,18,156067,2,0,L|201:18,1,45,8|0,0:0|0:0,0:0:0:0:
251,108,156235,2,0,L|206:108,1,45
405,108,156404,6,0,P|448:95|480:62,2,90,0|0|8,0:0|0:0|0:0,0:0:0:0:
176,147,156910,2,0,P|166:191|175:237,2,90
330,62,157415,1,8,0:0:0:0:
251,194,157583,1,0,0:0:0:0:
327,322,157752,6,0,P|370:312|403:282,1,90
328,150,158089,1,8,0:0:0:0:
180,234,158258,2,0,P|136:222|102:192,1,90
251,108,158595,1,0,0:0:0:0:
402,193,158764,2,0,P|411:238|402:280,1,90,8|0,0:0|0:0,0:0:0:0:
253,368,159101,53,0,0:0:0:0:
230,364,159185,1,0,0:0:0:0:
210,355,159269,1,0,0:0:0:0:
192,342,159353,1,0,0:0:0:0:
178,325,159438,1,8,0:0:0:0:
169,305,159522,1,0,0:0:0:0:
167,282,159606,1,0,0:0:0:0:
169,260,159690,1,0,0:0:0:0:
178,239,159775,5,0,0:0:0:0:
191,221,159859,1,0,0:0:0:0:
209,207,159943,1,0,0:0:0:0:
230,199,160027,1,0,0:0:0:0:
253,196,160112,1,8,0:0:0:0:
274,199,160196,1,0,0:0:0:0:
296,209,160280,1,0,0:0:0:0:
313,221,160365,1,0,0:0:0:0:
327,239,160450,6,0,P|361:268|405:280,1,90
445,267,160702,1,0,0:0:0:0:
478,238,160786,2,0,P|487:193|477:145,1,90
447,120,161039,1,0,0:0:0:0:
405,108,161123,2,0,P|361:120|328:151,1,90
329,194,161376,1,0,0:0:0:0:
327,239,161460,2,0,P|296:271|249:281,1,90
211,265,161713,1,0,0:0:0:0:
180,234,161797,5,4,0:0:0:0:
